osu file format v14

[General]
AudioFilename: WhenItFalls.mp3
AudioLeadIn: 0
PreviewTime: 9718
Countdown: 0
SampleSet: Normal
StackLeniency: 0.7
Mode: 0
LetterboxInBreaks: 0
WidescreenStoryboard: 0

[Editor]
DistanceSpacing: 1.1
BeatDivisor: 4
GridSize: 8
TimelineZoom: 1

[Metadata]
Title:When It Falls (feat. Casey Lee Williams)
TitleUnicode:When It Falls (feat. Casey Lee Williams)
Artist:Jeff Williams
ArtistUnicode:Jeff Williams
Creator:Pho
Version:Easy
Source:RWBY
Tags:season volume 3 three opening red white black yellow tv size tvsize
BeatmapID:823868
BeatmapSetID:376314

[Difficulty]
HPDrainRate:2
CircleSize:3
OverallDifficulty:1.5
ApproachRate:3.5
SliderMultiplier:0.699999999999999
SliderTickRate:1

[Events]
//Background and Video events
0,0,"bg.jpg",0,0
//Break Periods
//Storyboard Layer 0 (Background)
//Storyboard Layer 1 (Fail)
//Storyboard Layer 2 (Pass)
//Storyboard Layer 3 (Foreground)
//Storyboard Sound Samples

[TimingPoints]
129,569.80056980057,4,2,1,30,1,0
129,-62.5,4,2,1,30,0,0
4687,560.747663551402,4,2,1,30,1,0
4687,-62.5,4,2,1,30,0,0
5852,545.454545454546,4,2,1,25,1,0
5852,-62.5,4,2,1,25,0,0
6977,600,4,2,1,20,1,0
6977,-62.5,4,2,1,20,0,0
7952,941.915227629513,4,2,1,15,1,0
7952,-62.5,4,2,1,15,0,0
8187,-62.5,4,2,1,15,0,0
9835,259.74025974026,4,1,1,40,1,0
10744,-100,4,1,1,50,0,0
31718,-100,4,1,1,40,0,0
39964,519.480519480519,4,2,1,30,1,0
39964,-50,4,2,1,30,0,0
43989,-50,4,2,1,50,0,0
44119,259.74025974026,4,1,1,40,1,0
66976,519.480519480519,4,2,1,30,1,0
66976,-50,4,2,1,30,0,0

[Colours]
Combo1 : 187,187,0
Combo2 : 221,0,0
Combo3 : 225,243,247
Combo4 : 105,105,105

[HitObjects]
376,184,129,6,0,B|394:295|394:295|322:387|192:336,1,336,2|0,0:0|0:0,0:0:0:0:
102,238,2408,2,0,B|84:127|84:127|156:35|277:80,1,308,2|0,0:0|0:0,0:0:0:0:
398,168,4687,6,0,L|411:272,1,83.9999999999999,2|0,0:0|0:0,0:0:0:0:
259,143,5852,6,0,L|274:251,1,83.9999999999999,2|0,0:0|0:0,0:0:0:0:
146,124,6977,6,0,L|156:208,1,83.9999999999999,2|0,0:0|0:0,0:0:0:0:
87,279,7952,5,2,0:0:0:0:
102,81,9835,6,0,B|110:129|110:129|94:177|94:177|102:233,1,140,8|8,1:1|1:1,0:0:0:0:
151,322,10744,6,0,P|192:341|316:310,1,175,4|0,0:0|0:0,0:0:0:0:
404,188,11912,2,0,P|363:169|263:190,1,140,0|0,0:0|0:0,0:0:0:0:
118,183,12951,2,0,B|93:130|93:130|101:48,1,140,0|0,0:0|0:0,0:0:0:0:
244,103,13990,2,0,B|269:156|269:156|261:238,1,140,0|0,0:0|0:0,0:0:0:0:
373,342,15029,6,0,P|416:329|466:244,1,140,0|0,0:0|0:0,0:0:0:0:
409,108,16068,2,0,B|355:102|355:102|315:110|315:110|266:103,1,140,0|0,0:0|0:0,0:0:0:0:
127,52,17107,2,0,P|98:100|109:184,1,140,0|0,0:0|0:0,0:0:0:0:
169,225,17886,1,8,0:0:0:0:
223,170,18146,2,0,L|388:186,1,140,0|8,0:0|0:0,0:0:0:0:
410,287,19055,6,0,B|302:277|302:277|223:316,1,175,4|0,0:0|0:0,0:0:0:0:
97,360,20224,1,0,0:0:0:0:
55,211,20744,1,0,0:0:0:0:
203,170,21263,2,0,P|253:156|306:63,1,140,0|0,0:0|0:0,0:0:0:0:
156,40,22302,2,0,P|106:54|53:147,2,140,0|0|0,0:0|0:0|0:0,0:0:0:0:
293,110,23860,5,4,0:0:0:0:
170,203,24380,2,0,L|182:347,1,140,0|0,0:0|0:0,0:0:0:0:
303,249,25419,2,0,L|291:105,1,140,0|0,0:0|0:0,0:0:0:0:
333,44,26198,1,8,0:0:0:0:
410,46,26458,2,0,P|446:77|455:188,1,140,0|0,0:0|0:0,0:0:0:0:
340,256,27497,6,0,L|356:379,2,105,4|8|8,0:0|0:0|0:0,0:0:0:0:
276,212,28536,2,0,L|260:89,2,105,8|8|8,0:0|0:0|0:0,0:0:0:0:
239,280,29575,2,0,P|201:326|147:347,2,105,8|8|8,0:0|0:0|0:0,0:0:0:0:
276,212,30614,2,0,P|325:171|394:160,2,105,8|8|0,0:0|0:0|0:0,0:0:0:0:
198,212,31653,5,4,0:0:0:0:
90,101,32172,1,0,0:0:0:0:
228,34,32692,2,0,P|287:26|352:58,2,105,0|0|8,0:0|0:0|0:0,0:0:0:0:
191,103,33731,2,0,P|138:113|84:98,2,105,0|0|8,0:0|0:0|0:0,0:0:0:0:
260,135,34770,1,0,0:0:0:0:
396,63,35289,1,8,0:0:0:0:
475,194,35809,6,0,P|471:242|335:322,1,210,4|8,0:0|0:3,0:0:0:0:
277,288,36847,2,0,P|223:284|169:315,2,105,8|8|4,0:0|0:0|0:3,0:0:0:0:
323,223,37886,2,0,P|367:204|412:138,2,105,4|8|4,0:0|0:0|0:3,0:0:0:0:
263,174,38925,1,8,0:0:0:0:
25,44,39964,5,4,0:0:0:0:
25,44,41002,2,0,B|45:111|45:111|30:172|30:172|45:261,1,210,4|0,1:2|2:1,0:0:0:0:
78,316,42041,2,0,P|147:350|206:345,2,105,4|2|2,0:1|0:1|0:1,0:0:0:0:
117,249,43080,1,2,0:1:0:0:
341,100,43989,6,0,P|284:61|169:64,1,175,4|0,1:0|0:0,0:0:0:0:
60,155,45157,2,0,B|36:224|36:224|64:318,1,140,0|0,0:0|0:0,0:0:0:0:
195,357,46196,2,0,B|219:288|219:288|191:194,1,140,0|0,0:0|0:0,0:0:0:0:
261,82,47235,2,0,P|305:47|395:44,1,140,0|4,0:0|0:0,0:0:0:0:
484,159,48274,6,0,P|459:300|264:213,1,419.999999999999,0|0,0:0|0:0,0:0:0:0:
244,63,50352,2,0,P|194:37|102:200,1,280,0|0,0:0|0:0,0:0:0:0:
191,296,51911,1,0,0:0:0:0:
345,274,52430,6,0,L|485:211,1,140,0|0,0:0|0:0,0:0:0:0:
350,122,53469,2,0,L|210:185,1,140,0|0,0:0|0:0,0:0:0:0:
89,257,54508,2,0,P|58:213|66:113,1,140,0|0,0:0|0:0,0:0:0:0:
172,25,55547,2,0,P|203:69|195:169,1,140,0|0,0:0|0:0,0:0:0:0:
213,306,56586,5,0,0:0:0:0:
363,338,57106,1,0,0:0:0:0:
476,234,57625,2,0,P|438:98|307:76,1,280,0|0,0:0|0:0,0:0:0:0:
202,177,59183,1,0,0:0:0:0:
75,94,59703,2,0,P|48:140|57:248,1,140,0|0,0:0|0:0,0:0:0:0:
126,357,60742,6,0,L|288:337,2,140,0|0|0,0:0|0:0|0:0,0:0:0:0:
173,210,62300,1,0,0:0:0:0:
257,80,62820,2,0,P|447:73|393:265,1,419.999999999999,0|8,0:0|0:0,0:0:0:0:
287,323,64898,6,0,L|137:291,1,140,8|0,0:0|0:0,0:0:0:0:
35,190,65937,2,0,L|185:158,1,140,8|8,0:0|0:0,0:0:0:0:
321,121,66976,6,0,P|351:92|366:13,2,105,4|2|2,1:0|0:1|0:1,0:0:0:0:
250,89,68014,1,0,1:0:0:0:
88,351,69053,2,0,P|58:322|43:243,2,105,2|2|2,0:1|0:1|0:1,0:0:0:0:
158,319,70092,1,0,1:0:0:0:
443,204,71131,6,0,P|421:157|360:122,2,105,2|2|2,0:1|0:1|0:1,0:0:0:0:
411,274,72170,1,0,1:0:0:0:
132,152,73209,2,0,P|147:103|136:26,2,105,2|2|2,0:1|0:1|0:1,0:0:0:0:
75,204,74248,1,0,1:0:0:0:
131,347,74768,2,0,P|168:335|208:336,1,69.9999999999999,0|2,1:0|1:0,0:0:0:0:
252,278,75287,6,0,L|267:148,2,105,4|2|2,1:0|0:1|0:1,0:0:0:0:
303,335,76326,1,12,1:0:0:0:
