osu file format v14

[General]
AudioFilename: TIME to say goodbye.mp3
AudioLeadIn: 0
PreviewTime: 103045
Countdown: 0
SampleSet: Normal
StackLeniency: 0.8
Mode: 0
LetterboxInBreaks: 0
EpilepsyWarning: 1
WidescreenStoryboard: 1

[Editor]
Bookmarks: 18085,18565,18925,22765,24685,26245,26605,32365,34405,35365,35605,35845,36205,38125,40045,41965,42925,43885,45805,47725,49645,51565,55405,57325,59245,63085,70765,82285,84325,84685,85045,85285,85525,86125,89965,93805,101605,102565,102805,103045,103405,107245,109165,110125,111085,114925,163891,171571,175411,179371,179851,180331,181171,185011,186931,188251,188491,188851,190771,192691,194611,196531
DistanceSpacing: 1.1
BeatDivisor: 2
GridSize: 32
TimelineZoom: 1

[Metadata]
Title:Time to say Goodbye (feat. Casey Lee Williams)
TitleUnicode:Time to say Goodbye (feat. Casey Lee Williams)
Artist:Jeff Williams
ArtistUnicode:Jeff Williams
Creator:Pho
Version:Normal
Source:RWBY
Tags:rwby volume 2 opening full ver appleeaterx super kawaii milan- mao okoratu
BeatmapID:550385
BeatmapSetID:237854

[Difficulty]
HPDrainRate:4
CircleSize:3.5
OverallDifficulty:4
ApproachRate:5
SliderMultiplier:0.700000005960464
SliderTickRate:1

[Events]
//Background and Video events
0,0,"bg.jpg",0,0
//Break Periods
2,158336,160891
//Storyboard Layer 0 (Background)
//Storyboard Layer 1 (Fail)
//Storyboard Layer 2 (Pass)
//Storyboard Layer 3 (Foreground)
Sprite,Foreground,Centre,"SB/ring.png",320,240 S,0,18865,18985,0,0.6 M,0,18925,,164,244 P,0,18925,19705,A S,0,18985,19705,0.6,0.8 F,0,19225,19705,0.5,0
Sprite,Foreground,Centre,"SB/ring.png",320,240 S,0,22705,22825,0,0.6 M,0,22765,,196,229 P,0,22765,23545,A S,0,22825,23545,0.6,0.8 F,0,23065,23545,0.5,0
Sprite,Foreground,Centre,"SB/ring.png",320,240 S,0,24625,24745,0,0.6 M,0,24685,,171,285 P,0,24685,25465,A S,0,24745,25465,0.6,0.8 F,0,24985,25465,0.5,0
Sprite,Foreground,Centre,"SB/ring.png",320,240 S,0,26545,26665,0,0.6 M,0,26605,,218,335 P,0,26605,27385,A S,0,26665,27385,0.6,0.8 F,0,26905,27385,0.5,0
Sprite,Foreground,Centre,"SB/ring.png",320,240 S,0,32305,32425,0,0.6 M,0,32365,,299,150 P,0,32365,33145,A S,0,32425,33145,0.6,0.8 F,0,32665,33145,0.5,0
Sprite,Foreground,Centre,"SB/ring.png",320,240 S,0,34345,34465,0,0.6 M,0,34405,,386,428 P,0,34405,35185,A S,0,34465,35185,0.6,0.8 F,0,34705,35185,0.5,0
Sprite,Foreground,Centre,"SB/ring.png",320,240 S,0,35305,35425,0,0.6 M,0,35365,,379,352 P,0,35365,36145,A S,0,35425,36145,0.6,0.8 F,0,35665,36145,0.5,0
Sprite,Foreground,Centre,"SB/ring.png",320,240 S,0,36145,36265,0,0.6 M,0,36205,,258,364 P,0,36205,36985,A S,0,36265,36985,0.6,0.8 F,0,36505,36985,0.5,0
Sprite,Foreground,Centre,"SB/ring.png",320,240 S,0,38065,38185,0,0.6 M,0,38125,,300,164 P,0,38125,38905,A S,0,38185,38905,0.6,0.8 F,0,38425,38905,0.5,0
Sprite,Foreground,Centre,"SB/ring.png",320,240 S,0,39985,40105,0,0.6 M,0,40045,,438,216 P,0,40045,40825,A S,0,40105,40825,0.6,0.8 F,0,40345,40825,0.5,0
Sprite,Foreground,Centre,"SB/ring.png",320,240 S,0,41905,42025,0,0.6 M,0,41965,,164,212 P,0,41965,42745,A S,0,42025,42745,0.6,0.8 F,0,42265,42745,0.5,0
Sprite,Foreground,Centre,"SB/ring.png",320,240 S,0,42865,42985,0,0.6 M,0,42925,,326,166 P,0,42925,43705,A S,0,42985,43705,0.6,0.8 F,0,43225,43705,0.5,0
Sprite,Foreground,Centre,"SB/ring.png",320,240 S,0,43465,43585,0,0.6 M,0,43525,,278,106 P,0,43525,44305,A S,0,43585,44305,0.6,0.8 F,0,43825,44305,0.5,0
Sprite,Foreground,Centre,"SB/ring.png",320,240 S,0,43825,43945,0,0.6 M,0,43885,,268,220 P,0,43885,44665,A S,0,43945,44665,0.6,0.8 F,0,44185,44665,0.5,0
Sprite,Foreground,Centre,"SB/ring.png",320,240 S,0,47665,47785,0,0.6 M,0,47725,,451,91 P,0,47725,48505,A S,0,47785,48505,0.6,0.8 F,0,48025,48505,0.5,0
Sprite,Foreground,Centre,"SB/ring.png",320,240 S,0,49585,49705,0,0.6 M,0,49645,,279,343 P,0,49645,50425,A S,0,49705,50425,0.6,0.8 F,0,49945,50425,0.5,0
Sprite,Foreground,Centre,"SB/ring.png",320,240 S,0,55345,55465,0,0.6 M,0,55405,,262,116 P,0,55405,56185,A S,0,55465,56185,0.6,0.8 F,0,55705,56185,0.5,0
Sprite,Foreground,Centre,"SB/ring.png",320,240 S,0,57265,57385,0,0.6 M,0,57325,,224,400 P,0,57325,58105,A S,0,57385,58105,0.6,0.8 F,0,57625,58105,0.5,0
Sprite,Foreground,Centre,"SB/ring.png",320,240 S,0,59185,59305,0,0.6 M,0,59245,,289,91 P,0,59245,60025,A S,0,59305,60025,0.6,0.8 F,0,59545,60025,0.5,0
Sprite,Foreground,Centre,"SB/ring.png",320,240 S,0,63025,63145,0,0.6 M,0,63085,,171,219 P,0,63085,63865,A S,0,63145,63865,0.6,0.8 F,0,63385,63865,0.5,0
Sprite,Foreground,Centre,"SB/ring.png",320,240 S,0,65065,65185,0,0.6 M,0,65125,,371,248 P,0,65125,65905,A S,0,65185,65905,0.6,0.8 F,0,65425,65905,0.5,0
Sprite,Foreground,Centre,"SB/ring.png",320,240 S,0,86065,86185,0,0.6 M,0,86125,,492,246 P,0,86125,86905,A S,0,86185,86905,0.6,0.8 F,0,86425,86905,0.5,0
Sprite,Foreground,Centre,"SB/ring.png",320,240 S,0,89905,90025,0,0.6 M,0,89965,,374,143 P,0,89965,90745,A S,0,90025,90745,0.6,0.8 F,0,90265,90745,0.5,0
Sprite,Foreground,Centre,"SB/ring.png",320,240 S,0,93745,93865,0,0.6 M,0,93805,,434,357 P,0,93805,94585,A S,0,93865,94585,0.6,0.8 F,0,94105,94585,0.5,0
Sprite,Foreground,Centre,"SB/ring.png",320,240 S,0,103345,103465,0,0.6 M,0,103405,,347,204 P,0,103405,104185,A S,0,103465,104185,0.6,0.8 F,0,103705,104185,0.5,0
Sprite,Foreground,Centre,"SB/ring.png",320,240 S,0,107185,107305,0,0.6 M,0,107245,,139,220 P,0,107245,108025,A S,0,107305,108025,0.6,0.8 F,0,107545,108025,0.5,0
Sprite,Foreground,Centre,"SB/ring.png",320,240 S,0,109105,109225,0,0.6 M,0,109165,,498,258 P,0,109165,109945,A S,0,109225,109945,0.6,0.8 F,0,109465,109945,0.5,0
Sprite,Foreground,Centre,"SB/ring.png",320,240 S,0,110065,110185,0,0.6 M,0,110125,,332,132 P,0,110125,110905,A S,0,110185,110905,0.6,0.8 F,0,110425,110905,0.5,0
Sprite,Foreground,Centre,"SB/ring.png",320,240 S,0,110665,110785,0,0.6 M,0,110725,,325,298 P,0,110725,111505,A S,0,110785,111505,0.6,0.8 F,0,111025,111505,0.5,0
Sprite,Foreground,Centre,"SB/ring.png",320,240 S,0,111025,111145,0,0.6 M,0,111085,,233,369 P,0,111085,111865,A S,0,111145,111865,0.6,0.8 F,0,111385,111865,0.5,0
Sprite,Foreground,Centre,"SB/ring.png",320,240 S,0,114865,114985,0,0.6 M,0,114925,,276,326 P,0,114925,115705,A S,0,114985,115705,0.6,0.8 F,0,115225,115705,0.5,0
Sprite,Foreground,Centre,"SB/ring.png",320,240 S,0,116785,116905,0,0.6 M,0,116845,,432,211 P,0,116845,117625,A S,0,116905,117625,0.6,0.8 F,0,117145,117625,0.5,0
Sprite,Foreground,Centre,"SB/ring.png",320,240 S,0,163831,163951,0,0.6 M,0,163891,,101,193 P,0,163891,164671,A S,0,163951,164671,0.6,0.8 F,0,164191,164671,0.5,0
Sprite,Foreground,Centre,"SB/ring.png",320,240 S,0,171511,171631,0,0.6 M,0,171571,,424,354 P,0,171571,172351,A S,0,171631,172351,0.6,0.8 F,0,171871,172351,0.5,0
Sprite,Foreground,Centre,"SB/ring.png",320,240 S,0,175351,175471,0,0.6 M,0,175411,,323,382 P,0,175411,176191,A S,0,175471,176191,0.6,0.8 F,0,175711,176191,0.5,0
Sprite,Foreground,Centre,"SB/ring.png",320,240 S,0,181111,181231,0,0.6 M,0,181171,,421,252 P,0,181171,181951,A S,0,181231,181951,0.6,0.8 F,0,181471,181951,0.5,0
Sprite,Foreground,Centre,"SB/ring.png",320,240 S,0,184951,185071,0,0.6 M,0,185011,,480,321 P,0,185011,185791,A S,0,185071,185791,0.6,0.8 F,0,185311,185791,0.5,0
Sprite,Foreground,Centre,"SB/ring.png",320,240 S,0,186871,186991,0,0.6 M,0,186931,,137,396 P,0,186931,187711,A S,0,186991,187711,0.6,0.8 F,0,187231,187711,0.5,0
Sprite,Foreground,Centre,"SB/ring.png",320,240 S,0,187831,187951,0,0.6 M,0,187891,,372,297 P,0,187891,188671,A S,0,187951,188671,0.6,0.8 F,0,188191,188671,0.5,0
Sprite,Foreground,Centre,"SB/ring.png",320,240 S,0,188431,188551,0,0.6 M,0,188491,,233,191 P,0,188491,189271,A S,0,188551,189271,0.6,0.8 F,0,188791,189271,0.5,0
Sprite,Foreground,Centre,"SB/ring.png",320,240 S,0,188791,188911,0,0.6 M,0,188851,,142,119 P,0,188851,189631,A S,0,188911,189631,0.6,0.8 F,0,189151,189631,0.5,0
Sprite,Foreground,Centre,"SB/ring.png",320,240 S,0,192631,192751,0,0.6 M,0,192691,,96,433 P,0,192691,193471,A S,0,192751,193471,0.6,0.8 F,0,192991,193471,0.5,0
Sprite,Foreground,Centre,"SB/highlight.png",320,240 M,0,101575,,122,166 C,0,101575,,187,187,0 F,0,101575,101605,0,1 M,0,101605,,122,166 M,0,101605,101785,122,166,90,210 P,0,101605,102805,A P,0,101605,102805,A P,0,101605,102805,A M,0,101785,101965,90,210,85,259 M,0,101965,,85,259 M,0,101965,102145,85,259,90,210 M,0,102145,102325,90,210,122,166 F,0,102325,102805,1,0
Sprite,Foreground,Centre,"SB/highlight.png",320,240 M,0,102535,,197,177 C,0,102535,,187,187,0 F,0,102535,102565,0,1 F,0,102565,103045,1,0 P,0,102565,103045,A
Sprite,Foreground,Centre,"SB/highlight.png",320,240 M,0,102775,,272,191 C,0,102775,,187,187,0 F,0,102775,102805,0,1 F,0,102805,103285,1,0 P,0,102805,103285,A
Sprite,Foreground,Centre,"SB/highlight.png",320,240 M,0,103015,,343,200 C,0,103015,,187,187,0 F,0,103015,103045,0,1 F,0,103045,103525,1,0 P,0,103045,103525,A
Sprite,Foreground,Centre,"SB/highlight.png",320,240 M,0,162061,,324,194 C,0,162061,,225,243,247 F,0,162061,162091,0,1 M,0,162091,,324,194 M,0,162091,162331,324,194,262,194 P,0,162091,164011,A P,0,162091,164011,A P,0,162091,164011,A P,0,162091,164011,A M,0,162331,162571,262,194,207,147 M,0,162571,,207,147 M,0,162571,162811,207,147,262,194 M,0,162811,163051,262,194,324,194 M,0,163051,,324,194 M,0,163051,163291,324,194,262,194 M,0,163291,163531,262,194,207,147 F,0,163531,164011,1,0
Sprite,Foreground,Centre,"SB/highlight.png",320,240 M,0,179341,,385,128 C,0,179341,,225,243,247 F,0,179341,179371,0,1 M,0,179371,,385,128 M,0,179371,179611,385,128,409,188 P,0,179371,181291,A P,0,179371,181291,A P,0,179371,181291,A P,0,179371,181291,A M,0,179611,179851,409,188,422,251 M,0,179851,,422,251 M,0,179851,180091,422,251,409,188 M,0,180091,180331,409,188,385,128 M,0,180331,,385,128 M,0,180331,180571,385,128,409,188 M,0,180571,180811,409,188,422,251 F,0,180811,181291,1,0
//Storyboard Sound Samples

[TimingPoints]
1611,600,4,1,1,60,1,0
10911,266.666666666667,4,1,1,60,1,8
11041,266.666666666667,4,1,1,60,1,0
12107,260.869565217391,4,1,1,60,1,0
13150,255.31914893617,4,1,1,60,1,0
14171,250,4,1,1,60,1,0
16171,240,4,1,1,60,1,0
17038,262.008733624454,4,1,1,60,1,0
18085,240,4,1,1,80,1,0
18925,-100,4,1,1,70,0,0
30565,-100,4,1,1,75,0,0
31045,-100,4,1,1,80,0,0
31525,-100,4,1,1,85,0,0
32005,-100,4,1,1,75,0,0
35365,-100,4,1,1,80,0,0
36205,-100,4,1,1,80,0,1
51565,-100,4,1,1,70,0,0
68965,-100,4,1,1,50,0,0
69445,-100,4,3,1,70,0,0
70725,-100,4,1,1,80,0,0
74605,-100,4,1,1,60,0,0
76525,-100,4,1,1,70,0,0
77605,-100,4,1,1,70,0,0
78445,-100,4,1,1,75,0,0
80365,-100,4,1,1,80,0,0
86125,-100,4,1,1,85,0,0
86365,-100,4,1,1,75,0,0
88045,-100,4,1,1,70,0,0
93445,-100,4,3,1,70,0,0
93805,-100,4,1,1,70,0,0
101605,-100,4,3,1,75,0,0
102085,-100,4,3,1,80,0,0
102565,-100,4,1,1,50,0,0
102805,-100,4,1,1,60,0,0
103045,-100,4,1,1,70,0,0
103405,-100,4,1,1,90,0,1
103645,-100,4,1,1,80,0,1
113125,-100,4,1,1,70,0,1
113365,-100,4,1,1,65,0,1
113605,-100,4,1,1,55,0,1
113845,-100,4,1,1,50,0,1
114085,-100,4,1,1,40,0,1
114325,-100,4,1,1,35,0,1
114565,-100,4,1,1,80,0,1
117325,-100,4,1,1,60,0,1
117805,-100,4,1,1,50,0,1
118285,-100,4,1,1,45,0,1
119011,521.739130434783,4,2,2,40,1,0
119011,-66.6666666666667,4,2,2,40,0,0
137271,-66.6666666666667,4,2,2,30,0,0
137793,-66.6666666666667,4,2,2,40,0,0
139358,-66.6666666666667,4,2,2,30,0,0
139880,-66.6666666666667,4,2,2,40,0,0
141445,-66.6666666666667,4,2,2,30,0,0
141967,-66.6666666666667,4,2,2,40,0,0
143532,-66.6666666666667,4,2,2,30,0,0
144054,-66.6666666666667,4,2,2,40,0,0
148228,560.747663551402,4,2,2,45,1,0
151592,588.235294117647,4,2,2,40,1,8
152768,594.059405940594,4,2,2,35,1,0
153956,681.818181818182,4,2,2,30,1,8
155319,750,4,2,2,25,1,0
156069,681.818181818182,4,2,2,25,1,8
156750,705.882352941176,4,2,2,25,1,8
157455,681.818181818182,4,2,2,25,1,8
158136,1153.84615384615,4,2,2,20,1,0
160051,240,4,2,1,20,1,8
162091,240,4,1,1,65,1,0
162571,-100,4,3,1,45,0,0
163051,-100,4,3,1,65,0,0
163891,-100,4,1,1,70,0,0
179371,-100,4,3,1,70,0,0
179971,-100,4,3,1,75,0,0
180331,-100,4,3,1,75,0,0
180811,-100,4,1,1,70,0,0
181171,-100,4,1,1,90,0,1
194611,-100,4,1,1,90,0,0
194731,-100,4,1,1,70,0,0
194971,-100,4,1,1,50,0,0
195211,-100,4,1,1,35,0,0
195451,-100,4,1,1,20,0,0
195691,-100,4,2,2,30,0,0
195931,-100,4,2,2,50,0,0
196171,-100,4,2,2,70,0,0
196531,-100,4,2,2,100,0,1
196591,-100,4,2,2,100,0,0

[Colours]
Combo1 : 187,187,0
Combo2 : 221,0,0
Combo3 : 225,243,247
Combo4 : 105,105,105

[HitObjects]
90,74,18085,6,0,P|153:82|206:140,1,140.000001192093,8|8,0:0|0:0,0:0:0:0:
102,190,18925,6,0,P|140:232|262:228,1,175.000001490116,0|2,0:0|0:0,0:0:0:0:
297,172,19765,1,8,0:0:0:0:
337,106,20005,2,0,P|384:82|474:108,1,140.000001192093,2|2,0:0|0:0,0:0:0:0:
446,215,20845,6,0,B|431:306|431:306|351:361,1,175.000001490116,0|2,0:0|0:0,0:0:0:0:
286,362,21685,1,8,0:0:0:0:
222,317,21925,2,0,B|84:280,1,140.000001192093,2|2,0:0|0:0,0:0:0:0:
134,175,22765,6,0,P|161:139|81:39,1,175.000001490116,4|2,0:0|0:0,0:0:0:0:
28,53,23605,1,8,0:0:0:0:
8,127,23845,1,0,0:0:0:0:
89,257,24325,2,0,L|182:253,1,70.0000005960464,2|8,0:0|0:0,0:0:0:0:
190,231,24685,6,0,B|224:192|224:192|281:172,1,105.00000089407,4|8,0:0|0:0,0:0:0:0:
350,161,25285,2,0,L|374:262,1,70.0000005960464,10|8,0:0|0:0,0:0:0:0:
304,275,25765,2,0,L|294:367,1,70.0000005960464,10|8,0:0|0:0,0:0:0:0:
225,374,26245,1,10,0:0:0:0:
156,281,26605,6,0,P|131:237|144:165,1,105.00000089407,4|8,0:0|0:0,0:0:0:0:
196,138,27205,2,0,P|209:94|205:60,1,70.0000005960464,2|8,0:0|0:0,0:0:0:0:
150,17,27685,2,0,P|83:9|10:56,1,140.000001192093,2|8,0:0|0:0,0:0:0:0:
20,158,28525,6,0,L|149:177,1,105.00000089407,0|8,0:0|0:0,0:0:0:0:
176,229,29125,2,0,L|255:237,1,70.0000005960464,2|8,0:0|0:0,0:0:0:0:
321,221,29605,2,0,P|349:188|352:139,1,70.0000005960464,2|8,0:0|0:0,0:0:0:0:
356,85,30085,1,2,0:0:0:0:
206,36,30565,6,0,P|179:98|210:158,1,140.000001192093,2|2,0:0|0:0,0:0:0:0:
346,244,31525,2,0,P|376:196|328:108,1,140.000001192093,2|2,0:0|0:0,0:0:0:0:
237,96,32365,6,0,L|125:97,1,105.00000089407,0|8,0:0|0:0,0:0:0:0:
71,144,32965,2,0,L|81:224,1,70.0000005960464,2|8,0:0|0:0,0:0:0:0:
156,212,33445,2,0,L|166:292,1,70.0000005960464,2|8,0:0|0:0,0:0:0:0:
241,282,33925,2,0,L|253:371,1,70.0000005960464,2|10,0:0|0:0,0:0:0:0:
324,374,34405,6,0,P|376:380|453:349,2,105.00000089407,10|10|10,0:0|0:0|0:0,0:0:0:0:
317,298,35365,2,0,L|340:225,2,70.0000005960464,10|8|12,0:0|0:0|0:0,0:0:0:0:
196,310,36205,6,0,P|159:271|149:202,1,105.00000089407,0|8,0:0|0:0,0:0:0:0:
82,179,36805,1,2,0:0:0:0:
90,102,37045,1,8,0:0:0:0:
142,45,37285,2,0,P|173:22|212:17,2,70.0000005960464,2|8|2,0:0|0:0|0:0,0:0:0:0:
238,110,38125,6,0,P|276:121|357:107,1,105.00000089407,4|8,0:0|0:0,0:0:0:0:
400,65,38725,1,2,0:0:0:0:
473,88,38965,1,8,0:0:0:0:
481,164,39205,2,0,L|488:244,2,70.0000005960464,2|8|2,0:0|0:0|0:0,0:0:0:0:
376,162,40045,6,0,P|322:204|312:250,1,105.00000089407,0|8,0:0|0:0,0:0:0:0:
348,306,40645,1,2,0:0:0:0:
290,357,40885,1,8,0:0:0:0:
215,339,41125,2,0,L|211:190,1,140.000001192093,2|2,0:0|0:0,0:0:0:0:
102,158,41965,6,0,P|75:111|91:48,1,105.00000089407,0|8,0:0|0:0,0:0:0:0:
150,98,42565,1,2,0:0:0:0:
264,112,42925,2,0,P|291:65|275:2,1,105.00000089407,0|8,0:0|0:0,0:0:0:0:
216,52,43525,1,8,0:0:0:0:
204,166,43885,6,0,L|189:280,1,105.00000089407,0|8,0:0|0:0,0:0:0:0:
113,276,44485,2,0,L|122:206,1,70.0000005960464,2|8,0:0|0:0,0:0:0:0:
55,166,44965,2,0,L|46:96,1,70.0000005960464,2|8,0:0|0:0,0:0:0:0:
91,34,45445,1,2,0:0:0:0:
204,55,45805,6,0,B|222:58|237:82|237:82|262:85|262:85|278:111|305:115,1,105.00000089407,0|8,0:0|0:0,0:0:0:0:
350,153,46405,2,0,P|388:162|439:157,1,70.0000005960464,2|8,0:0|0:0,0:0:0:0:
475,109,46885,2,0,P|493:138|489:192,2,70.0000005960464,2|8|2,0:0|0:0|0:0,0:0:0:0:
389,37,47725,6,0,L|281:40,1,105.00000089407,0|8,0:0|0:0,0:0:0:0:
225,90,48325,1,2,0:0:0:0:
232,166,48565,1,8,0:0:0:0:
297,206,48805,2,0,L|391:204,2,70.0000005960464,0|8|2,0:0|0:0|0:0,0:0:0:0:
217,289,49645,6,0,B|175:345|175:345|130:349,1,105.00000089407,0|8,0:0|0:0,0:0:0:0:
74,308,50245,2,0,L|55:215,1,70.0000005960464,2|8,0:0|0:0,0:0:0:0:
99,172,50725,2,0,L|83:93,1,70.0000005960464,10|8,0:0|0:0,0:0:0:0:
127,40,51205,2,0,P|186:42|223:61,1,70.0000005960464,10|8,0:0|0:0,0:0:0:0:
225,69,51565,6,0,P|270:111|314:119,1,105.00000089407
385,98,52165,1,0,0:0:0:0:
482,159,52525,2,0,P|436:202|386:210,1,105.00000089407
321,192,53125,1,0,0:0:0:0:
208,163,53485,6,0,P|169:200|167:270,1,105.00000089407
169,325,54085,1,0,0:0:0:0:
273,277,54445,2,0,P|312:240|314:170,1,105.00000089407
303,116,55045,1,0,0:0:0:0:
200,62,55405,5,4,0:0:0:0:
124,149,55765,1,0,0:0:0:0:
124,149,56005,1,0,0:0:0:0:
219,213,56365,1,0,0:0:0:0:
273,314,56725,1,0,0:0:0:0:
273,314,56965,1,0,0:0:0:0:
162,346,57325,6,0,L|54:353,1,105.00000089407,4|0,0:0|0:0,0:0:0:0:
0,299,57925,1,0,0:0:0:0:
57,198,58285,2,0,P|46:148|59:80,1,105.00000089407,0|8,0:0|0:0,0:0:0:0:
121,59,58885,2,0,L|218:39,1,70.0000005960464,8|4,0:0|0:3,0:0:0:0:
227,37,59245,5,4,0:0:0:0:
338,68,59605,2,0,L|321:156,1,70.0000005960464
212,164,60205,1,0,0:0:0:0:
254,271,60565,2,0,L|277:345,1,70.0000005960464
383,298,61165,5,0,0:0:0:0:
384,182,61525,2,0,B|377:156|377:156|384:130|384:130|377:91,1,70.0000005960464
286,51,62125,2,0,P|234:71|176:74,1,105.00000089407,0|10,0:0|0:0,0:0:0:0:
110,57,62725,2,0,L|112:160,1,70.0000005960464,10|10,0:0|0:0,0:0:0:0:
110,165,63085,5,4,0:0:0:0:
30,248,63445,1,0,0:0:0:0:
30,248,63685,2,0,L|61:324,1,70.0000005960464,2|0,0:2|0:0,0:0:0:0:
134,326,64165,2,0,B|184:322|184:322|216:346|216:346|272:342,1,140.000001192093,2|2,0:2|0:2,0:0:0:0:
309,194,65125,5,2,0:2:0:0:
333,267,65365,1,0,0:0:0:0:
373,332,65605,2,0,B|408:326|408:326|440:343,1,70.0000005960464,2|0,0:2|0:0,0:0:0:0:
476,274,66085,2,0,B|482:217|482:217|497:188|497:188|500:129,1,140.000001192093,2|2,0:2|0:2,0:0:0:0:
385,34,67045,6,0,P|346:14|300:19,1,70.0000005960464,2|8,0:2|0:1,0:0:0:0:
277,77,67525,2,0,P|277:110|256:157,1,70.0000005960464,2|8,0:2|0:1,0:0:0:0:
200,187,68005,2,0,P|166:169|120:171,1,70.0000005960464,2|8,0:2|0:1,0:0:0:0:
67,130,68485,2,0,P|58:97|68:60,1,70.0000005960464,2|8,0:2|0:1,0:0:0:0:
143,44,68965,6,0,B|231:122|104:223|177:311|177:311|264:239|334:340|433:262,1,525.000004470348,14|0,0:3|0:0,0:0:0:0:
377,184,72685,5,0,0:0:0:0:
377,184,74605,6,0,B|352:188|336:208|336:208|312:208|312:208|276:236,1,105.00000089407,0|8,0:0|0:0,0:0:0:0:
272,303,75205,1,0,0:0:0:0:
195,311,75445,1,8,0:0:0:0:
143,253,75685,2,0,B|131:220|131:220|143:181,1,70.0000005960464,0|8,0:0|0:0,0:0:0:0:
199,136,76165,2,0,B|209:103|209:103|199:64,1,70.0000005960464,0|8,0:0|0:0,0:0:0:0:
168,49,76525,6,0,B|126:50|126:50|95:60|95:60|51:60,1,105.00000089407,0|8,0:0|0:0,0:0:0:0:
53,136,77125,2,0,L|142:139,1,70.0000005960464,0|8,0:0|0:0,0:0:0:0:
155,208,77605,1,0,0:0:0:0:
280,119,78085,2,0,B|296:87|280:51|280:51|292:30|292:30|288:-1,1,105.00000089407,8|0,0:0|0:0,0:0:0:0:
460,109,79045,6,0,P|421:106|390:115,1,70.0000005960464,0|8,0:0|0:0,0:0:0:0:
347,179,79525,2,0,L|359:263,1,70.0000005960464
434,251,80005,2,0,P|419:297|358:323,1,105.00000089407
203,227,80965,6,0,L|272:231,1,70.0000005960464,0|8,0:0|0:0,0:0:0:0:
268,308,81445,2,0,L|191:303,1,70.0000005960464,0|8,0:0|0:0,0:0:0:0:
131,264,81925,1,0,0:0:0:0:
51,180,82285,6,0,P|35:100|55:64,1,105.00000089407,0|8,0:0|0:0,0:0:0:0:
112,48,82885,1,0,0:0:0:0:
113,124,83125,1,8,0:0:0:0:
189,136,83365,2,0,L|213:56,1,70.0000005960464,0|8,0:0|0:0,0:0:0:0:
281,95,83845,2,0,L|305:19,1,70.0000005960464,0|8,0:0|0:0,0:0:0:0:
379,28,84325,6,0,P|431:48|495:48,2,105.00000089407,8|8|8,0:0|0:0|0:0,0:0:0:0:
359,102,85285,2,0,L|336:176,2,70.0000005960464,8|8|8,0:0|0:0|0:3,0:0:0:0:
430,192,86125,6,0,P|401:244|346:264,1,105.00000089407,0|8,0:0|0:0,0:0:0:0:
287,241,86725,2,0,L|215:221,1,70.0000005960464,2|8,0:0|0:0,0:0:0:0:
149,254,87205,2,0,P|101:284|57:290,2,70.0000005960464,2|8|2,0:0|0:0|0:0,0:0:0:0:
66,173,88045,6,0,L|45:67,1,105.00000089407,0|8,0:0|0:0,0:0:0:0:
99,14,88645,1,2,0:0:0:0:
175,12,88885,1,8,0:0:0:0:
197,85,89125,2,0,L|213:169,2,70.0000005960464,2|8|2,0:0|0:0|0:0,0:0:0:0:
312,89,89965,6,0,L|296:209,1,105.00000089407,0|8,0:0|0:0,0:0:0:0:
227,223,90565,1,2,0:0:0:0:
272,284,90805,1,8,0:0:0:0:
343,255,91045,1,2,0:0:0:0:
306,105,91525,1,2,0:0:0:0:
192,126,91885,6,0,B|141:133|141:133|92:158,1,105.00000089407,2|8,0:0|0:0,0:0:0:0:
71,231,92485,2,0,L|87:299,1,70.0000005960464,2|8,0:0|0:0,0:0:0:0:
143,352,92965,2,0,B|177:366|177:366|215:360,1,70.0000005960464,2|8,0:0|0:0,0:0:0:0:
276,322,93445,2,0,P|337:296|391:315,1,105.00000089407,8|4,0:0|0:0,0:0:0:0:
485,275,94165,5,8,0:0:0:0:
422,229,94405,2,0,B|418:147,1,70.0000005960464,2|8,0:0|0:0,0:0:0:0:
465,98,94885,2,0,P|426:52|351:47,1,140.000001192093,2|2,0:0|0:0,0:0:0:0:
292,147,95725,6,0,B|296:202|296:202|261:262,1,105.00000089407,0|8,0:0|0:0,0:0:0:0:
193,242,96325,1,2,0:0:0:0:
134,192,96565,1,8,0:0:0:0:
105,119,96805,2,0,B|157:103|157:103|183:75|183:75|246:62,1,140.000001192093,2|2,0:0|0:0,0:0:0:0:
381,88,97765,5,2,0:0:0:0:
458,221,98245,1,0,0:0:0:0:
353,333,98725,1,2,0:0:0:0:
220,254,99205,1,0,0:0:0:0:
330,221,99565,6,0,B|346:169|346:169|330:101,1,105.00000089407,2|8,0:0|0:0,0:0:0:0:
297,51,100165,1,2,0:0:0:0:
250,113,100405,1,8,0:0:0:0:
184,64,100645,2,0,L|136:0,2,70.0000005960464,2|8|2,0:0|0:0|0:0,0:0:0:0:
135,123,101365,1,8,0:0:0:0:
58,112,101605,6,0,B|26:156|26:156|22:224,2,105.00000089407,8|0|8,0:0|0:0|0:0,0:0:0:0:
135,123,102565,1,8,0:0:0:0:
210,137,102805,1,8,0:0:0:0:
293,155,103045,1,8,0:0:0:0:
293,155,103405,6,0,B|301:191|301:191|281:223|281:223|301:267,1,105.00000089407,4|8,0:0|0:0,0:0:0:0:
228,291,104005,1,2,0:0:0:0:
287,340,104245,1,8,0:0:0:0:
355,305,104485,2,0,P|411:305|455:233,1,140.000001192093,2|2,0:0|0:0,0:0:0:0:
441,116,105325,2,0,B|405:120|405:120|373:140|373:140|325:152,1,105.00000089407,0|8,0:0|0:0,0:0:0:0:
267,165,105925,1,2,0:0:0:0:
192,145,106165,1,8,0:0:0:0:
153,78,106405,2,0,L|157:5,2,70.0000005960464,2|8|0,0:0|0:0|0:0,0:0:0:0:
77,166,107245,6,0,B|105:230|105:230|157:250,1,105.00000089407,4|8,0:0|0:0,0:0:0:0:
210,270,107845,2,0,P|242:243|278:238,1,70.0000005960464,2|8,0:0|0:0,0:0:0:0:
274,314,108325,1,2,0:0:0:0:
427,301,108805,2,0,P|451:261|451:209,1,70.0000005960464,2|8,0:0|0:0,0:0:0:0:
436,204,109165,6,0,P|412:152|412:96,1,105.00000089407,0|8,0:0|0:0,0:0:0:0:
378,34,109765,1,2,0:0:0:0:
270,78,110125,2,0,P|266:122|218:186,1,105.00000089407,0|12,0:0|0:0,0:0:0:0:
263,244,110725,1,12,0:0:0:0:
171,315,111085,6,0,B|119:283|119:283|103:235|107:227,1,105.00000089407,4|8,0:0|0:0,0:0:0:0:
92,164,111685,2,0,L|80:76,1,70.0000005960464,2|8,0:0|0:0,0:0:0:0:
159,85,112165,2,0,B|171:157|171:157|239:197,1,140.000001192093,2|2,0:0|0:0,0:0:0:0:
285,90,113005,6,0,P|337:66|401:82,1,105.00000089407,0|8,0:0|0:0,0:0:0:0:
445,116,113605,1,2,0:0:0:0:
448,192,113845,1,8,0:0:0:0:
392,245,114085,2,0,L|321:225,1,70.0000005960464,2|0,0:0|0:0,0:0:0:0:
269,171,114565,1,0,0:0:0:0:
214,272,114925,6,0,P|168:233|156:181,1,105.00000089407,0|8,0:0|0:0,0:0:0:0:
102,135,115525,1,2,0:0:0:0:
132,64,115765,1,8,0:0:0:0:
205,41,116005,2,0,L|305:21,1,70.0000005960464,2|8,0:0|0:0,0:0:0:0:
346,53,116485,2,0,B|370:157,1,105.00000089407,2|8,0:0|0:0,0:0:0:0:
256,192,116965,12,4,119011,0:0:0:0:
256,192,120054,5,8,0:0:0:0:
256,192,121097,2,0,B|207:193|164:144|164:144|138:208|55:215,1,210.000009799004,8|2,0:0|0:0,0:0:0:0:
70,108,122663,1,2,0:0:0:0:
157,50,123184,6,0,B|223:37|223:37|291:47|291:47|385:8,2,210.000009799004,8|2|2,0:0|0:0|0:0,0:0:0:0:
97,136,125793,1,0,0:0:0:0:
168,213,126315,1,2,0:0:0:0:
270,190,126837,1,2,0:0:0:0:
342,265,127358,6,0,B|289:287|290:349|290:349|234:302|188:321,1,210.000009799004,2|2,0:0|0:0,0:0:0:0:
170,119,129445,2,0,B|223:97|222:35|222:35|278:82|324:63,1,210.000009799004,8|2,0:0|0:0,0:0:0:0:
419,41,131011,1,2,0:0:0:0:
478,127,131532,6,0,L|493:238,1,105.000004899502,8|0,0:0|0:0,0:0:0:0:
395,188,132576,2,0,L|376:299,1,105.000004899502,2|0,0:0|0:0,0:0:0:0:
276,322,133619,2,0,P|240:314|316:238,1,210.000001788139,2|2,0:0|0:0,0:0:0:0:
152,371,135706,6,0,B|112:270|112:270|154:153,1,210.000009799004,4|2,0:0|0:0,0:0:0:0:
183,76,137271,1,2,0:3:0:0:
270,133,137793,2,0,B|373:157|373:157|483:111,1,210.000009799004,2|2,0:0|0:0,0:0:0:0:
458,12,139358,1,2,0:3:0:0:
369,68,139880,6,0,B|373:116|373:116|408:199|408:199|418:286,2,210.000009799004,8|2|8,0:0|0:0|0:0,0:0:0:0:
277,15,142489,1,0,0:0:0:0:
178,52,143011,1,2,0:0:0:0:
148,152,143532,1,2,0:3:0:0:
213,234,144054,6,0,P|278:281|394:232,1,210.000009799004,2|2,0:0|0:0,0:0:0:0:
303,178,145619,1,0,0:0:0:0:
278,75,146141,2,0,B|211:54|211:54|122:113|50:40,1,210.000009799004,8|2,0:0|0:0,0:0:0:0:
8,137,147706,1,8,0:0:0:0:
72,216,148228,5,2,0:0:0:0:
184,300,149349,1,0,0:0:0:0:
328,300,150470,1,0,0:0:0:0:
440,216,151592,1,0,0:0:0:0:
380,96,152768,6,0,P|332:52|255:48,1,140.000001192093,2|0,0:0|0:0,0:0:0:0:
156,124,155319,6,0,P|128:168|160:256,1,133.5,0|0,0:0|0:0,0:0:0:0:
252,244,158136,5,0,0:0:0:0:
260,140,162091,6,0,P|220:148|144:88,3,140.000001192093,12|12|0|0,0:3|0:3|0:0|0:0,0:0:0:0:
39,139,163891,6,0,L|47:255,1,105.00000089407,4|8,0:0|0:0,0:0:0:0:
107,290,164491,1,2,0:0:0:0:
183,286,164731,1,8,0:0:0:0:
228,224,164971,2,0,P|236:184|236:136,2,70.0000005960464,2|8|2,0:0|0:0|0:0,0:0:0:0:
284,324,165811,6,0,P|336:344|372:348,1,70.0000005960464
388,344,166171,2,0,P|436:320|464:284,1,70.0000005960464,8|2,0:0|0:0,0:0:0:0:
481,239,166651,1,8,0:0:0:0:
445,170,166891,2,0,L|417:102,2,70.0000005960464,2|8|2,0:0|0:0|0:0,0:0:0:0:
372,195,167611,1,8,0:0:0:0:
297,214,167851,6,0,P|265:186|240:92,1,140.000001192093,2|2,0:0|0:0,0:0:0:0:
297,44,168571,1,8,0:0:0:0:
225,15,168811,2,0,L|138:11,1,70.0000005960464,2|8,0:0|0:0,0:0:0:0:
156,89,169291,2,0,L|72:85,1,70.0000005960464,2|8,0:0|0:0,0:0:0:0:
23,130,169771,6,0,P|3:202|39:266,1,140.000001192093,2|2,0:0|0:0,0:0:0:0:
154,348,170731,2,0,B|186:363|186:363|238:372,1,70.0000005960464,10|8,0:0|0:0,0:0:0:0:
267,308,171211,2,0,P|310:283|362:300,1,105.00000089407,0|4,0:0|0:0,0:0:0:0:
475,307,171931,1,8,0:0:0:0:
473,230,172171,2,0,L|465:150,1,70.0000005960464,2|8,0:0|0:0,0:0:0:0:
454,83,172651,2,0,B|404:85|404:85|371:52|371:52|308:57,1,140.000001192093,2|0,0:0|0:0,0:0:0:0:
259,91,173371,1,8,0:0:0:0:
204,35,173611,6,0,P|160:31|120:43,1,70.0000005960464,2|8,0:0|0:0,0:0:0:0:
65,69,174091,2,0,L|81:161,1,70.0000005960464,2|8,0:0|0:0,0:0:0:0:
91,213,174571,2,0,B|144:227|144:227|176:210|176:210|238:221,1,140.000001192093,2|0,0:0|0:0,0:0:0:0:
261,328,175411,6,0,P|305:300|333:236,1,105.00000089407,0|8,0:0|0:0,0:0:0:0:
392,210,176011,2,0,L|378:124,1,70.0000005960464,2|8,0:0|0:0,0:0:0:0:
351,69,176491,2,0,P|295:75|261:100,1,70.0000005960464,2|8,0:0|0:0,0:0:0:0:
226,134,176971,1,0,0:0:0:0:
196,245,177331,2,0,P|132:273|84:257,1,105.00000089407,0|8,0:0|0:0,0:0:0:0:
67,243,177811,6,0,B|51:219|51:219|59:173|59:173|44:130,1,105.00000089407
40,68,178411,1,2,0:0:0:0:
111,38,178651,1,8,0:0:0:0:
172,83,178891,2,0,L|256:73,1,70.0000005960464,2|8,0:0|0:0,0:0:0:0:
321,74,179371,6,0,B|349:94|345:134|345:134|365:162|365:162|355:187|361:202,3,140.000001192093,8|8|8|8,0:0|0:0|0:0|0:3,0:0:0:0:
359,198,181171,6,0,L|252:254,1,105.00000089407,4|8,0:0|0:0,0:0:0:0:
193,273,181771,1,2,0:0:0:0:
121,245,182011,1,8,0:0:0:0:
92,173,182251,2,0,P|84:111|130:40,1,140.000001192093,2|2,0:0|0:0,0:0:0:0:
197,132,183091,6,0,B|234:143|234:143|268:138|268:138|304:148,1,105.00000089407,0|8,0:0|0:0,0:0:0:0:
360,99,183691,2,0,B|372:63|372:63|405:33,1,70.0000005960464,2|8,0:0|0:0,0:0:0:0:
471,55,184171,2,0,B|484:86|484:86|484:141,1,70.0000005960464,2|8,0:0|0:0,0:0:0:0:
419,164,184651,6,0,B|413:293,2,105.00000089407,10|0|8,0:0|0:0|0:0,0:0:0:0:
355,120,185611,2,0,P|318:110|280:119,1,70.0000005960464,2|8,0:0|0:0,0:0:0:0:
225,161,186091,1,2,0:0:0:0:
224,237,186331,1,8,0:0:0:0:
166,296,186571,6,0,B|142:345|90:302|58:371,2,105.00000089407,2|0|8,0:0|0:0|0:0,0:0:0:0:
238,322,187531,1,2,0:0:0:0:
303,249,187891,2,0,B|269:217|203:237|206:180,1,105.00000089407,0|10,0:0|0:0,0:0:0:0:
171,137,188491,1,10,0:0:0:0:
80,65,188851,6,0,P|55:115|61:173,1,105.00000089407,12|0,0:0|0:0,0:0:0:0:
110,218,189451,2,0,L|186:218,1,70.0000005960464,2|0,0:0|0:0,0:0:0:0:
253,241,189931,2,0,P|317:209|391:245,1,140.000001192093,2|2,0:0|0:0,0:0:0:0:
300,320,190771,6,0,P|261:335|191:303,1,105.00000089407,0|8,0:0|0:0,0:0:0:0:
184,241,191371,1,2,0:0:0:0:
182,164,191611,1,8,0:0:0:0:
105,165,191851,2,0,L|110:240,1,70.0000005960464,2|8,0:0|0:0,0:0:0:0:
109,312,192331,6,0,P|78:360|23:383,2,105.00000089407,2|0|8,0:0|0:0|0:0,0:0:0:0:
69,246,193291,1,0,0:0:0:0:
116,149,193651,2,0,L|230:149,1,105.00000089407,0|8,0:0|0:0,0:0:0:0:
291,116,194251,1,0,0:0:0:0:
385,144,194611,6,0,P|382:266|272:283,1,245.000002086162
211,249,195691,2,0,L|128:271,1,70.0000005960464,8|0,0:0|0:0,0:0:0:0:
118,194,196171,2,0,L|230:167,1,105.00000089407,8|4,0:0|0:1,0:0:0:0:
