osu file format v14

[General]
AudioFilename: TIME to say goodbye.mp3
AudioLeadIn: 0
PreviewTime: 103045
Countdown: 0
SampleSet: Soft
StackLeniency: 0.8
Mode: 0
LetterboxInBreaks: 0
EpilepsyWarning: 1
WidescreenStoryboard: 1

[Editor]
Bookmarks: 18085,18325,18565,18805,18925,22765,24685,26245,26365,26485,26605,32365,34405,34885,35365,35485,35605,35725,35845,36205,38125,40045,41965,42925,43885,45805,47725,49645,51565,55405,57325,59245,63085,70765,82285,84325,84685,85045,85285,85525,86125,89965,93805,97645,101605,102085,102565,102805,103045,103405,107245,109165,110125,111085,114925,163891,171571,175411,179371,179851,180331,180571,181171,185011,186931,188251,188491,188611,188731,188851,190771,192691,194611,195691,195931,196171,196411,196531
DistanceSpacing: 1.7
BeatDivisor: 4
GridSize: 32
TimelineZoom: 1

[Metadata]
Title:Time to say Goodbye (feat. Casey Lee Williams)
TitleUnicode:Time to say Goodbye (feat. Casey Lee Williams)
Artist:Jeff Williams
ArtistUnicode:Jeff Williams
Creator:Pho
Version:Hyper
Source:RWBY
Tags:rwby volume 2 opening full ver appleeaterx super kawaii milan- mao okoratu
BeatmapID:628995
BeatmapSetID:237854

[Difficulty]
HPDrainRate:5
CircleSize:4
OverallDifficulty:6
ApproachRate:8
SliderMultiplier:1.30000000596046
SliderTickRate:1

[Events]
//Background and Video events
0,0,"bg.jpg",0,0
//Break Periods
//Storyboard Layer 0 (Background)
//Storyboard Layer 1 (Fail)
//Storyboard Layer 2 (Pass)
//Storyboard Layer 3 (Foreground)
Sprite,Foreground,Centre,"SB/ring.png",320,240 S,0,18865,18985,0,0.6 M,0,18925,,178,359 P,0,18925,19705,A S,0,18985,19705,0.6,0.8 F,0,19225,19705,0.5,0
Sprite,Foreground,Centre,"SB/ring.png",320,240 S,0,22705,22825,0,0.6 M,0,22765,,393,289 P,0,22765,23545,A S,0,22825,23545,0.6,0.8 F,0,23065,23545,0.5,0
Sprite,Foreground,Centre,"SB/ring.png",320,240 S,0,24625,24745,0,0.6 M,0,24685,,479,342 P,0,24685,25465,A S,0,24745,25465,0.6,0.8 F,0,24985,25465,0.5,0
Sprite,Foreground,Centre,"SB/ring.png",320,240 S,0,26545,26665,0,0.6 M,0,26605,,307,410 P,0,26605,27385,A S,0,26665,27385,0.6,0.8 F,0,26905,27385,0.5,0
Sprite,Foreground,Centre,"SB/ring.png",320,240 S,0,30385,30505,0,0.6 M,0,30445,,537,239 P,0,30445,31225,A S,0,30505,31225,0.6,0.8 F,0,30745,31225,0.5,0
Sprite,Foreground,Centre,"SB/ring.png",320,240 S,0,32305,32425,0,0.6 M,0,32365,,241,76 P,0,32365,33145,A S,0,32425,33145,0.6,0.8 F,0,32665,33145,0.5,0
Sprite,Foreground,Centre,"SB/ring.png",320,240 S,0,34345,34465,0,0.6 M,0,34405,,290,306 P,0,34405,35185,A S,0,34465,35185,0.6,0.8 F,0,34705,35185,0.5,0
Sprite,Foreground,Centre,"SB/ring.png",320,240 S,0,34825,34945,0,0.6 M,0,34885,,346,186 P,0,34885,35665,A S,0,34945,35665,0.6,0.8 F,0,35185,35665,0.5,0
Sprite,Foreground,Centre,"SB/ring.png",320,240 S,0,35305,35425,0,0.6 M,0,35365,,85,320 P,0,35365,36145,A S,0,35425,36145,0.6,0.8 F,0,35665,36145,0.5,0
Sprite,Foreground,Centre,"SB/ring.png",320,240 S,0,35545,35665,0,0.6 M,0,35605,,170,266 P,0,35605,36385,A S,0,35665,36385,0.6,0.8 F,0,35905,36385,0.5,0
Sprite,Foreground,Centre,"SB/ring.png",320,240 S,0,35785,35905,0,0.6 M,0,35845,,106,130 P,0,35845,36625,A S,0,35905,36625,0.6,0.8 F,0,36145,36625,0.5,0
Sprite,Foreground,Centre,"SB/ring.png",320,240 S,0,36145,36265,0,0.6 M,0,36205,,283,179 P,0,36205,36985,A S,0,36265,36985,0.6,0.8 F,0,36505,36985,0.5,0
Sprite,Foreground,Centre,"SB/ring.png",320,240 S,0,38065,38185,0,0.6 M,0,38125,,135,178 P,0,38125,38905,A S,0,38185,38905,0.6,0.8 F,0,38425,38905,0.5,0
Sprite,Foreground,Centre,"SB/ring.png",320,240 S,0,39985,40105,0,0.6 M,0,40045,,424,273 P,0,40045,40825,A S,0,40105,40825,0.6,0.8 F,0,40345,40825,0.5,0
Sprite,Foreground,Centre,"SB/ring.png",320,240 S,0,41905,42025,0,0.6 M,0,41965,,189,266 P,0,41965,42745,A S,0,42025,42745,0.6,0.8 F,0,42265,42745,0.5,0
Sprite,Foreground,Centre,"SB/ring.png",320,240 S,0,42865,42985,0,0.6 M,0,42925,,315,101 P,0,42925,43705,A S,0,42985,43705,0.6,0.8 F,0,43225,43705,0.5,0
Sprite,Foreground,Centre,"SB/ring.png",320,240 S,0,43225,43345,0,0.6 M,0,43285,,511,161 P,0,43285,44065,A S,0,43345,44065,0.6,0.8 F,0,43585,44065,0.5,0
Sprite,Foreground,Centre,"SB/ring.png",320,240 S,0,43465,43585,0,0.6 M,0,43525,,429,314 P,0,43525,44305,A S,0,43585,44305,0.6,0.8 F,0,43825,44305,0.5,0
Sprite,Foreground,Centre,"SB/ring.png",320,240 S,0,43825,43945,0,0.6 M,0,43885,,379,414 P,0,43885,44665,A S,0,43945,44665,0.6,0.8 F,0,44185,44665,0.5,0
Sprite,Foreground,Centre,"SB/ring.png",320,240 S,0,47665,47785,0,0.6 M,0,47725,,236,105 P,0,47725,48505,A S,0,47785,48505,0.6,0.8 F,0,48025,48505,0.5,0
Sprite,Foreground,Centre,"SB/ring.png",320,240 S,0,49585,49705,0,0.6 M,0,49645,,186,177 P,0,49645,50425,A S,0,49705,50425,0.6,0.8 F,0,49945,50425,0.5,0
Sprite,Foreground,Centre,"SB/ring.png",320,240 S,0,55345,55465,0,0.6 M,0,55405,,568,252 P,0,55405,56185,A S,0,55465,56185,0.6,0.8 F,0,55705,56185,0.5,0
Sprite,Foreground,Centre,"SB/ring.png",320,240 S,0,57265,57385,0,0.6 M,0,57325,,195,349 P,0,57325,58105,A S,0,57385,58105,0.6,0.8 F,0,57625,58105,0.5,0
Sprite,Foreground,Centre,"SB/ring.png",320,240 S,0,59185,59305,0,0.6 M,0,59245,,403,410 P,0,59245,60025,A S,0,59305,60025,0.6,0.8 F,0,59545,60025,0.5,0
Sprite,Foreground,Centre,"SB/ring.png",320,240 S,0,63025,63145,0,0.6 M,0,63085,,331,361 P,0,63085,63865,A S,0,63145,63865,0.6,0.8 F,0,63385,63865,0.5,0
Sprite,Foreground,Centre,"SB/ring.png",320,240 S,0,65065,65185,0,0.6 M,0,65125,,129,191 P,0,65125,65905,A S,0,65185,65905,0.6,0.8 F,0,65425,65905,0.5,0
Sprite,Foreground,Centre,"SB/ring.png",320,240 S,0,86065,86185,0,0.6 M,0,86125,,206,333 P,0,86125,86905,A S,0,86185,86905,0.6,0.8 F,0,86425,86905,0.5,0
Sprite,Foreground,Centre,"SB/ring.png",320,240 S,0,89905,90025,0,0.6 M,0,89965,,202,227 P,0,89965,90745,A S,0,90025,90745,0.6,0.8 F,0,90265,90745,0.5,0
Sprite,Foreground,Centre,"SB/ring.png",320,240 S,0,93745,93865,0,0.6 M,0,93805,,473,246 P,0,93805,94585,A S,0,93865,94585,0.6,0.8 F,0,94105,94585,0.5,0
Sprite,Foreground,Centre,"SB/ring.png",320,240 S,0,97585,97705,0,0.6 M,0,97645,,262,354 P,0,97645,98425,A S,0,97705,98425,0.6,0.8 F,0,97945,98425,0.5,0
Sprite,Foreground,Centre,"SB/ring.png",320,240 S,0,103345,103465,0,0.6 M,0,103405,,433,132 P,0,103405,104185,A S,0,103465,104185,0.6,0.8 F,0,103705,104185,0.5,0
Sprite,Foreground,Centre,"SB/ring.png",320,240 S,0,107185,107305,0,0.6 M,0,107245,,222,70 P,0,107245,108025,A S,0,107305,108025,0.6,0.8 F,0,107545,108025,0.5,0
Sprite,Foreground,Centre,"SB/ring.png",320,240 S,0,109105,109225,0,0.6 M,0,109165,,478,136 P,0,109165,109945,A S,0,109225,109945,0.6,0.8 F,0,109465,109945,0.5,0
Sprite,Foreground,Centre,"SB/ring.png",320,240 S,0,110065,110185,0,0.6 M,0,110125,,184,192 P,0,110125,110905,A S,0,110185,110905,0.6,0.8 F,0,110425,110905,0.5,0
Sprite,Foreground,Centre,"SB/ring.png",320,240 S,0,110665,110785,0,0.6 M,0,110725,,177,359 P,0,110725,111505,A S,0,110785,111505,0.6,0.8 F,0,111025,111505,0.5,0
Sprite,Foreground,Centre,"SB/ring.png",320,240 S,0,111025,111145,0,0.6 M,0,111085,,247,324 P,0,111085,111865,A S,0,111145,111865,0.6,0.8 F,0,111385,111865,0.5,0
Sprite,Foreground,Centre,"SB/ring.png",320,240 S,0,114865,114985,0,0.6 M,0,114925,,318,310 P,0,114925,115705,A S,0,114985,115705,0.6,0.8 F,0,115225,115705,0.5,0
Sprite,Foreground,Centre,"SB/ring.png",320,240 S,0,116785,116905,0,0.6 M,0,116845,,98,276 P,0,116845,117625,A S,0,116905,117625,0.6,0.8 F,0,117145,117625,0.5,0
Sprite,Foreground,Centre,"SB/ring.png",320,240 S,0,163831,163951,0,0.6 M,0,163891,,351,408 P,0,163891,164671,A S,0,163951,164671,0.6,0.8 F,0,164191,164671,0.5,0
Sprite,Foreground,Centre,"SB/ring.png",320,240 S,0,171511,171631,0,0.6 M,0,171571,,301,347 P,0,171571,172351,A S,0,171631,172351,0.6,0.8 F,0,171871,172351,0.5,0
Sprite,Foreground,Centre,"SB/ring.png",320,240 S,0,175351,175471,0,0.6 M,0,175411,,353,264 P,0,175411,176191,A S,0,175471,176191,0.6,0.8 F,0,175711,176191,0.5,0
Sprite,Foreground,Centre,"SB/ring.png",320,240 S,0,181111,181231,0,0.6 M,0,181171,,318,289 P,0,181171,181951,A S,0,181231,181951,0.6,0.8 F,0,181471,181951,0.5,0
Sprite,Foreground,Centre,"SB/ring.png",320,240 S,0,184951,185071,0,0.6 M,0,185011,,200,143 P,0,185011,185791,A S,0,185071,185791,0.6,0.8 F,0,185311,185791,0.5,0
Sprite,Foreground,Centre,"SB/ring.png",320,240 S,0,186871,186991,0,0.6 M,0,186931,,344,126 P,0,186931,187711,A S,0,186991,187711,0.6,0.8 F,0,187231,187711,0.5,0
Sprite,Foreground,Centre,"SB/ring.png",320,240 S,0,187831,187951,0,0.6 M,0,187891,,176,208 P,0,187891,188671,A S,0,187951,188671,0.6,0.8 F,0,188191,188671,0.5,0
Sprite,Foreground,Centre,"SB/ring.png",320,240 S,0,188191,188311,0,0.6 M,0,188251,,294,370 P,0,188251,189031,A S,0,188311,189031,0.6,0.8 F,0,188551,189031,0.5,0
Sprite,Foreground,Centre,"SB/ring.png",320,240 S,0,188431,188551,0,0.6 M,0,188491,,433,398 P,0,188491,189271,A S,0,188551,189271,0.6,0.8 F,0,188791,189271,0.5,0
Sprite,Foreground,Centre,"SB/ring.png",320,240 S,0,188551,188671,0,0.6 M,0,188611,,508,378 P,0,188611,189391,A S,0,188671,189391,0.6,0.8 F,0,188911,189391,0.5,0
Sprite,Foreground,Centre,"SB/ring.png",320,240 S,0,188671,188791,0,0.6 M,0,188731,,540,306 P,0,188731,189511,A S,0,188791,189511,0.6,0.8 F,0,189031,189511,0.5,0
Sprite,Foreground,Centre,"SB/ring.png",320,240 S,0,188791,188911,0,0.6 M,0,188851,,3511,228 P,0,188851,189631,A S,0,188911,189631,0.6,0.8 F,0,189151,189631,0.5,0
Sprite,Foreground,Centre,"SB/ring.png",320,240 S,0,192631,192751,0,0.6 M,0,192691,,152,270 P,0,192691,193471,A S,0,192751,193471,0.6,0.8 F,0,192991,193471,0.5,0
Sprite,Foreground,Centre,"SB/highlight.png",320,240 M,0,101575,,359,206 C,0,101575,,221,0,0 F,0,101575,101605,0,1 M,0,101605,,359,206 M,0,101605,101685,359,206,380,166 P,0,101605,102485,A P,0,101605,102485,A P,0,101605,102485,A P,0,101605,102485,A P,0,101605,102485,A P,0,101605,102485,A M,0,101685,,380,166 M,0,101685,101765,380,166,359,206 M,0,101765,,359,206 M,0,101765,101845,359,206,380,166 M,0,101845,,380,166 M,0,101845,101925,380,166,359,206 M,0,101925,,359,206 M,0,101925,102005,359,206,380,166 F,0,102005,102485,1,0
Sprite,Foreground,Centre,"SB/highlight.png",320,240 M,0,102055,,281,206 C,0,102055,,221,0,0 F,0,102055,102085,0,1 M,0,102085,,281,206 M,0,102085,102165,281,206,258,165 P,0,102085,102965,A P,0,102085,102965,A P,0,102085,102965,A P,0,102085,102965,A P,0,102085,102965,A P,0,102085,102965,A M,0,102165,,258,165 M,0,102165,102245,258,165,281,206 M,0,102245,,281,206 M,0,102245,102325,281,206,258,165 M,0,102325,,258,165 M,0,102325,102405,258,165,281,206 M,0,102405,,281,206 M,0,102405,102485,281,206,258,165 F,0,102485,102965,1,0
Sprite,Foreground,Centre,"SB/highlight.png",320,240 M,0,102535,,319,268 C,0,102535,,225,243,247 F,0,102535,102565,0,1 M,0,102565,,319,268 M,0,102565,102625,319,268,318,300 P,0,102565,103525,A P,0,102565,103525,A P,0,102565,103525,A P,0,102565,103525,A P,0,102565,103525,A P,0,102565,103525,A P,0,102565,103525,A P,0,102565,103525,A P,0,102565,103525,A M,0,102625,,318,300 M,0,102625,102685,318,300,319,268 M,0,102685,,319,268 M,0,102685,102745,319,268,318,300 M,0,102745,,318,300 M,0,102745,102805,318,300,319,268 M,0,102805,,319,268 M,0,102805,102865,319,268,318,300 M,0,102865,,318,300 M,0,102865,102925,318,300,319,268 M,0,102925,,319,268 M,0,102925,102985,319,268,318,300 M,0,102985,,318,300 M,0,102985,103045,318,300,319,268 F,0,103045,103525,1,0
Sprite,Foreground,Centre,"SB/highlight.png",320,240 M,0,162101,,258,289 C,0,162101,,225,243,247 F,0,162101,162131,0,1 M,0,162131,,258,289 M,0,162131,162211,258,289,250,242 P,0,162131,162731,A P,0,162131,162731,A P,0,162131,162731,A M,0,162211,,250,242 M,0,162211,162291,250,242,258,289 F,0,162251,162731,1,0
Sprite,Foreground,Centre,"SB/highlight.png",320,240 M,0,162301,,327,248 C,0,162301,,225,243,247 F,0,162301,162331,0,1 M,0,162331,,327,248 M,0,162331,162411,327,248,318,203 P,0,162331,162971,A P,0,162331,162971,A P,0,162331,162971,A M,0,162411,,318,203 M,0,162411,162491,318,203,327,248 F,0,162491,162971,1,0
Sprite,Foreground,Centre,"SB/highlight.png",320,240 M,0,162541,,394,212 C,0,162541,,225,243,247 F,0,162541,162571,0,1 M,0,162571,,394,212 M,0,162571,162651,394,212,385,166 P,0,162571,163211,A P,0,162571,163211,A P,0,162571,163211,A M,0,162651,,385,166 M,0,162651,162731,385,166,394,212 F,0,162731,163211,1,0
Sprite,Foreground,Centre,"SB/highlight.png",320,240 M,0,162781,,465,183 C,0,162781,,225,243,247 F,0,162781,162811,0,1 M,0,162811,,465,183 M,0,162811,162891,465,183,456,138 P,0,162811,163451,A P,0,162811,163451,A P,0,162811,163451,A M,0,162891,,456,138 M,0,162891,162971,456,138,465,183 F,0,162971,163451,1,0
Sprite,Foreground,Centre,"SB/highlight.png",320,240 M,0,163021,,512,249 C,0,163021,,105,105,105 F,0,163021,163051,0,1 M,0,163051,,512,249 M,0,163051,163131,512,249,552,260 P,0,163051,163691,A P,0,163051,163691,A P,0,163051,163691,A M,0,163131,,552,260 M,0,163131,163211,552,260,512,249 F,0,163211,163691,1,0
Sprite,Foreground,Centre,"SB/highlight.png",320,240 M,0,163261,,464,318 C,0,163261,,105,105,105 F,0,163261,163291,0,1 M,0,163291,,464,318 M,0,163291,163371,464,318,422,328 P,0,163291,163931,A P,0,163291,163931,A P,0,163291,163931,A M,0,163371,,422,328 M,0,163371,163451,422,328,464,318 F,0,163451,163931,1,0
Sprite,Foreground,Centre,"SB/highlight.png",320,240 M,0,163501,,517,384 C,0,163501,,105,105,105 F,0,163501,163531,0,1 M,0,163531,,517,384 M,0,163531,163611,517,384,472,394 P,0,163531,164251,A P,0,163531,164251,A P,0,163531,164251,A P,0,163531,164251,A M,0,163611,,472,394 M,0,163611,163691,472,394,517,384 M,0,163691,,517,384 M,0,163691,163771,517,384,472,394 F,0,163771,164251,1,0
Sprite,Foreground,Centre,"SB/highlight.png",320,240 M,0,179341,,383,316 C,0,179341,,221,0,0 F,0,179341,179371,0,1 M,0,179371,,383,316 M,0,179371,179451,383,316,367,353 P,0,179371,180251,A P,0,179371,180251,A P,0,179371,180251,A P,0,179371,180251,A P,0,179371,180251,A P,0,179371,180251,A M,0,179451,,367,353 M,0,179451,179531,367,353,383,316 M,0,179531,,383,316 M,0,179531,179611,383,316,367,353 M,0,179611,,367,353 M,0,179611,179691,367,353,383,316 M,0,179691,,383,316 M,0,179691,179771,383,316,367,353 F,0,179771,180251,1,0
Sprite,Foreground,Centre,"SB/highlight.png",320,240 M,0,179821,,274,355 C,0,179821,,221,0,0 F,0,179821,179851,0,1 M,0,179851,,274,355 M,0,179851,179931,274,355,257,316 P,0,179851,180731,A P,0,179851,180731,A P,0,179851,180731,A P,0,179851,180731,A P,0,179851,180731,A P,0,179851,180731,A M,0,179931,,257,316 M,0,179931,180011,257,316,274,355 M,0,180011,,274,355 M,0,180011,180091,274,355,257,316 M,0,180091,,257,316 M,0,180091,180171,257,316,274,355 M,0,180171,,274,355 M,0,180171,180251,274,355,257,316 F,0,180251,180731,1,0
Sprite,Foreground,Centre,"SB/highlight.png",320,240 M,0,180301,,320,289 C,0,180301,,225,243,247 F,0,180301,180331,0,1 M,0,180331,,320,289 M,0,180331,180391,320,289,319,255 P,0,180331,181291,A P,0,180331,181291,A P,0,180331,181291,A P,0,180331,181291,A P,0,180331,181291,A P,0,180331,181291,A P,0,180331,181291,A P,0,180331,181291,A P,0,180331,181291,A M,0,180391,,319,255 M,0,180391,180451,319,255,320,289 M,0,180451,,320,289 M,0,180451,180511,320,289,319,255 M,0,180511,,319,255 M,0,180511,180571,319,255,320,289 M,0,180571,,320,289 M,0,180571,180631,320,289,319,255 M,0,180631,,319,255 M,0,180631,180691,319,255,320,289 M,0,180691,,320,289 M,0,180691,180751,320,289,319,255 M,0,180751,,319,255 M,0,180751,180811,319,255,320,289 F,0,180811,181291,1,0
//Storyboard Sound Samples

[TimingPoints]
1611,600,4,1,1,60,1,0
10911,266.666666666667,4,1,1,60,1,8
11041,266.666666666667,4,1,1,60,1,0
12107,260.869565217391,4,1,1,60,1,0
13150,255.31914893617,4,1,1,60,1,0
14171,250,4,1,1,60,1,0
16171,240,4,1,1,60,1,0
17038,262.008733624454,4,1,1,60,1,0
18085,240,4,1,1,80,1,0
18925,-100,4,1,1,70,0,0
30565,-100,4,1,1,75,0,0
31045,-100,4,1,1,80,0,0
31525,-100,4,1,1,85,0,0
32005,-100,4,1,1,75,0,0
35365,-100,4,1,1,80,0,0
36205,-100,4,1,1,80,0,1
51565,-100,4,1,1,70,0,0
68965,-100,4,1,1,50,0,0
69445,-100,4,3,1,70,0,0
70725,-100,4,1,1,80,0,0
71005,-100,4,1,1,80,0,0
72685,-100,4,1,1,80,0,0
72925,-100,4,1,1,80,0,0
74605,-100,4,1,1,60,0,0
76525,-100,4,1,1,70,0,0
77605,-100,4,1,1,70,0,0
78445,-100,4,1,1,75,0,0
80365,-100,4,1,1,80,0,0
86125,-100,4,1,1,85,0,0
86365,-100,4,1,1,75,0,0
88045,-100,4,1,1,70,0,0
93445,-100,4,3,1,70,0,0
93805,-100,4,1,1,70,0,0
101605,-100,4,3,1,75,0,0
102085,-100,4,3,1,80,0,0
102565,-100,4,1,1,50,0,0
102805,-100,4,1,1,60,0,0
103045,-100,4,1,1,70,0,0
103405,-100,4,1,1,90,0,1
103645,-100,4,1,1,80,0,1
113125,-100,4,1,1,70,0,1
113365,-100,4,1,1,65,0,1
113605,-100,4,1,1,55,0,1
113845,-100,4,1,1,50,0,1
114085,-100,4,1,1,40,0,1
114325,-100,4,1,1,35,0,1
114565,-100,4,1,1,80,0,1
117325,-100,4,1,1,60,0,1
117805,-100,4,1,1,50,0,1
118285,-100,4,1,1,45,0,1
119011,521.739130434783,4,2,2,40,1,0
119011,-83.3333333333333,4,2,2,40,0,0
137271,-83.3333333333333,4,2,2,30,0,0
137793,-83.3333333333333,4,2,2,40,0,0
139358,-83.3333333333333,4,2,2,30,0,0
139880,-83.3333333333333,4,2,2,40,0,0
141445,-83.3333333333333,4,2,2,30,0,0
141967,-83.3333333333333,4,2,2,40,0,0
143532,-83.3333333333333,4,2,2,30,0,0
144054,-83.3333333333333,4,2,2,40,0,0
148228,560.747663551402,4,2,2,45,1,0
151592,588.235294117647,4,2,2,40,1,8
152768,594.059405940594,4,2,2,35,1,0
153956,681.818181818182,4,2,2,30,1,8
155319,750,4,2,2,25,1,0
156069,681.818181818182,4,2,2,25,1,8
156750,705.882352941176,4,2,2,25,1,8
157455,681.818181818182,4,2,2,25,1,8
158136,1153.84615384615,4,2,2,20,1,0
159289,-100,4,2,2,5,0,0
160051,240,4,2,1,20,1,8
162091,240,4,1,1,65,1,0
162571,-100,4,3,1,45,0,0
163051,-100,4,3,1,65,0,0
163891,-100,4,1,1,70,0,0
179371,-100,4,3,1,70,0,0
179971,-100,4,3,1,75,0,0
180331,-100,4,3,1,75,0,0
180811,-100,4,1,1,70,0,0
181171,-100,4,1,1,90,0,1
194611,-153.846153846153,4,1,1,90,0,0
194731,-153.846153846153,4,1,1,70,0,0
194971,-153.846153846153,4,1,1,50,0,0
195211,-153.846153846153,4,1,1,35,0,0
195451,-100,4,1,1,5,0,0
195691,-100,4,2,2,30,0,0
195811,-100,4,2,2,40,0,0
195931,-100,4,2,2,50,0,0
196051,-100,4,2,2,60,0,0
196171,-100,4,2,2,70,0,0
196291,-100,4,2,2,80,0,0
196411,-100,4,2,2,90,0,0
196531,-100,4,2,2,100,0,1
196591,-100,4,2,2,100,0,0

[Colours]
Combo1 : 187,187,0
Combo2 : 221,0,0
Combo3 : 225,243,247
Combo4 : 105,105,105

[HitObjects]
136,125,18085,6,0,P|163:133|208:125,1,65.000000298023,8|8,0:0|0:0,0:0:0:0:
170,43,18325,2,0,P|134:36|102:43,1,65.000000298023,8|8,0:0|0:0,0:0:0:0:
36,100,18565,2,0,B|13:157|65:189|25:251,1,130.000000596046,8|8,0:0|0:0,0:0:0:0:
116,305,18925,6,0,P|187:311|253:281,1,130.000000596046
268,216,19285,2,0,P|305:197|351:206,1,65.000000298023,8|0,0:0|0:0,0:0:0:0:
368,264,19525,2,0,P|393:280|444:278,1,65.000000298023,2|0,0:0|0:0,0:0:0:0:
483,228,19765,2,0,P|487:187|485:147,1,65.000000298023,8|0,0:0|0:0,0:0:0:0:
447,95,20005,2,0,L|471:16,2,65.000000298023,2|0|8,0:0|0:0|0:0,0:0:0:0:
375,61,20365,1,0,0:0:0:0:
309,103,20485,2,0,P|213:93|175:56,1,130.000000596046,2|8,0:0|0:0,0:0:0:0:
71,54,20845,6,0,B|19:76|22:115|22:115|45:174,1,130.000000596046
75,227,21205,2,0,L|153:215,1,65.000000298023,8|0,0:0|0:0,0:0:0:0:
226,191,21445,2,0,L|245:112,2,65.000000298023,2|0|0,0:0|0:0|0:0,0:0:0:0:
202,265,21805,1,0,0:0:0:0:
219,340,21925,2,0,P|255:357|301:342,1,65.000000298023,2|8,0:0|0:0,0:0:0:0:
346,313,22165,2,0,P|378:311|411:325,1,65.000000298023,8|8,0:0|0:0,0:0:0:0:
483,299,22405,1,2,0:0:0:0:
331,235,22645,1,8,0:0:0:0:
331,235,22765,6,0,B|290:210|290:210|257:207|257:207|199:171,1,130.000000596046,4|0,0:0|0:0,0:0:0:0:
202,103,23125,1,8,0:0:0:0:
48,132,23365,2,0,P|44:96|53:64,2,65.000000298023,2|0|8,0:0|0:0|0:0,0:0:0:0:
104,186,23725,1,0,0:0:0:0:
47,240,23845,2,0,L|33:319,1,65.000000298023,10|0,0:0|0:0,0:0:0:0:
114,298,24085,2,0,L|103:362,1,65.000000298023,8|0,0:0|0:0,0:0:0:0:
195,320,24325,1,2,0:0:0:0:
418,288,24565,1,8,0:0:0:0:
417,288,24685,6,0,B|417:236|417:236|444:203|444:203|443:149,1,130.000000596046,4|0,0:0|0:0,0:0:0:0:
413,94,25045,2,0,P|405:64|364:30,1,65.000000298023,8|0,0:0|0:0,0:0:0:0:
330,97,25285,2,0,P|299:62|265:45,1,65.000000298023,10|0,0:0|0:0,0:0:0:0:
249,122,25525,2,0,P|214:106|173:101,1,65.000000298023,8|0,0:0|0:0,0:0:0:0:
109,147,25765,2,0,P|87:179|58:193,1,65.000000298023,10|0,0:0|0:0,0:0:0:0:
175,205,26005,2,0,P|198:238|243:259,1,65.000000298023,8|0,0:0|0:0,0:0:0:0:
131,300,26245,2,0,P|94:314|58:311,2,65.000000298023,10|8|8,0:0|0:0|0:0,0:0:0:0:
245,356,26605,6,0,P|312:383|385:321,1,130.000000596046,4|0,0:0|0:0,0:0:0:0:
375,284,26965,2,0,L|325:211,1,65.000000298023,8|0,0:0|0:0,0:0:0:0:
263,207,27205,2,0,L|218:144,1,65.000000298023,2|0,0:0|0:0,0:0:0:0:
278,96,27445,2,0,L|315:148,1,65.000000298023,8|0,0:0|0:0,0:0:0:0:
365,206,27685,2,0,B|402:205|402:205|440:232|440:232|502:233,1,130.000000596046,2|8,0:0|0:0,0:0:0:0:
473,97,28165,2,0,L|473:32,2,65.000000298023,2|0|8,0:0|0:0|0:0,0:0:0:0:
401,125,28525,6,0,B|340:125|340:125|274:94,1,130.000000596046
195,54,28885,2,0,P|183:81|198:137,1,65.000000298023,8|0,0:0|0:0,0:0:0:0:
265,227,29125,2,0,P|271:187|259:146,1,65.000000298023,2|0,0:0|0:0,0:0:0:0:
141,187,29365,2,0,P|136:228|147:268,1,65.000000298023,8|0,0:0|0:0,0:0:0:0:
200,315,29605,1,2,0:0:0:0:
353,340,29845,1,8,0:0:0:0:
321,187,30085,1,2,0:0:0:0:
472,180,30325,1,8,0:0:0:0:
475,185,30445,1,4,0:0:0:0:
490,109,30565,6,0,P|500:84|492:35,1,65.000000298023,2|0,0:0|0:0,0:0:0:0:
400,150,30805,2,0,P|391:187|398:224,1,65.000000298023,8|0,0:0|0:0,0:0:0:0:
309,274,31045,2,0,L|232:273,1,65.000000298023,2|0,0:0|0:0,0:0:0:0:
177,363,31285,2,0,L|242:363,1,65.000000298023,8|0,0:0|0:0,0:0:0:0:
309,274,31525,6,0,P|321:222|292:168,1,65.000000298023,2|0,0:0|0:0,0:0:0:0:
223,179,31765,2,0,P|215:149|223:108,1,65.000000298023,8|0,0:0|0:0,0:0:0:0:
179,22,32005,1,2,0:0:0:0:
179,22,32125,1,0,0:0:0:0:
179,22,32245,1,8,0:0:0:0:
179,22,32365,6,0,P|81:54|74:181,1,195.000000894069,0|8,0:0|0:0,0:0:0:0:
200,285,32965,2,0,P|208:321|200:350,2,65.000000298023,2|0|8,0:0|0:0|0:0,0:0:0:0:
156,219,33325,1,0,0:0:0:0:
188,148,33445,2,0,P|215:123|244:115,2,65.000000298023,2|0|8,0:0|0:0|0:0,0:0:0:0:
156,219,33805,1,0,0:0:0:0:
78,221,33925,2,0,P|42:209|21:188,2,65.000000298023,2|0|8,0:0|0:0|0:0,0:0:0:0:
156,219,34285,1,0,0:0:0:0:
228,252,34405,6,0,B|262:284|262:284|303:291|303:291|337:314,1,130.000000596046,10|0,0:0|0:0,0:0:0:0:
284,132,34885,2,0,B|249:99|249:99|208:92|208:92|174:69,1,130.000000596046,2|8,0:0|0:0,0:0:0:0:
23,266,35365,6,0,L|16:339,1,65.000000298023,10|8,0:0|0:0,0:0:0:0:
108,212,35605,2,0,L|115:139,1,65.000000298023,10|8,0:0|0:0,0:0:0:0:
44,76,35845,1,0,0:0:0:0:
221,125,36085,1,0,0:0:0:0:
221,125,36205,6,0,B|284:132|284:132|327:194|327:194|405:213,1,195.000000894069,0|8,0:0|0:0,0:0:0:0:
498,84,36805,2,0,L|509:14,1,65.000000298023,2|0,0:0|0:0,0:0:0:0:
424,34,37045,2,0,L|412:113,1,65.000000298023,8|0,0:0|0:0,0:0:0:0:
401,181,37285,2,0,B|357:173|357:173|317:185|317:185|261:177,1,130.000000596046,2|8,0:0|0:0,0:0:0:0:
191,160,37645,1,0,0:0:0:0:
168,78,37765,2,0,L|179:5,2,65.000000298023,2|0|8,0:0|0:0|0:0,0:0:0:0:
73,124,38125,6,0,P|41:223|63:320,1,195.000000894069,0|8,0:0|0:0,0:0:0:0:
183,253,38725,2,0,L|187:184,2,65.000000298023,2|0|8,0:0|0:0|0:0,0:0:0:0:
217,331,39085,1,0,0:0:0:0:
295,300,39205,2,0,B|333:291|333:291|395:312|395:312|435:304,1,130.000000596046,2|8,0:0|0:0,0:0:0:0:
492,263,39565,1,0,0:0:0:0:
484,178,39685,2,0,L|486:107,2,65.000000298023,2|0|8,0:0|0:0|0:0,0:0:0:0:
369,226,40045,6,0,P|343:160|361:37,1,195.000000894069,0|8,0:0|0:0,0:0:0:0:
359,39,40525,1,0,0:0:0:0:
359,39,40645,2,0,L|285:40,1,65.000000298023,2|0,0:0|0:0,0:0:0:0:
247,110,40885,2,0,L|181:110,1,65.000000298023,8|0,0:0|0:0,0:0:0:0:
127,45,41125,2,0,P|80:33|21:129,1,130.000000596046,2|8,0:0|0:0,0:0:0:0:
50,247,41605,2,0,L|48:321,2,65.000000298023,2|0|8,0:0|0:0|0:0,0:0:0:0:
127,212,41965,6,0,B|159:211|159:211|224:254|224:254|278:253,1,130.000000596046
293,185,42325,2,0,P|299:139|288:101,1,65.000000298023,8|0,0:0|0:0,0:0:0:0:
253,47,42565,1,2,0:0:0:0:
253,47,42685,1,0,0:0:0:0:
253,47,42805,1,8,0:0:0:0:
253,47,42925,6,0,P|325:28|420:76,1,130.000000596046,0|0,0:0|0:0,0:0:0:0:
449,107,43285,2,0,P|459:147|450:183,1,65.000000298023,8|0,0:0|0:0,0:0:0:0:
367,260,43525,2,0,P|360:231|367:195,2,65.000000298023,10|0|8,0:0|0:0|0:0,0:0:0:0:
317,360,43885,6,0,P|252:384|174:346,1,130.000000596046
111,317,44245,2,0,L|33:276,1,65.000000298023,8|0,0:0|0:0,0:0:0:0:
188,247,44485,2,0,L|260:217,1,65.000000298023,2|0,0:0|0:0,0:0:0:0:
111,177,44725,2,0,L|47:157,1,65.000000298023,8|0,0:0|0:0,0:0:0:0:
42,73,44965,1,2,0:0:0:0:
35,54,45085,1,0,0:0:0:0:
111,18,45205,1,8,0:0:0:0:
119,35,45325,1,0,0:0:0:0:
180,95,45445,2,0,P|249:121|310:93,1,130.000000596046,2|8,0:0|0:0,0:0:0:0:
385,41,45805,6,0,B|405:75|405:75|398:118|398:118|422:173,1,130.000000596046
440,235,46165,2,0,P|414:276|386:287,1,65.000000298023,8|0,0:0|0:0,0:0:0:0:
359,216,46405,2,0,P|312:230|284:221,1,65.000000298023,2|0,0:0|0:0,0:0:0:0:
300,148,46645,2,0,P|255:129|239:103,1,65.000000298023,8|0,0:0|0:0,0:0:0:0:
168,171,46885,2,0,L|176:248,1,65.000000298023,2|0,0:0|0:0,0:0:0:0:
73,153,47125,2,0,L|68:81,1,65.000000298023,8|0,0:0|0:0,0:0:0:0:
174,51,47365,1,2,0:0:0:0:
174,51,47485,1,0,0:0:0:0:
174,51,47605,1,8,0:0:0:0:
174,51,47725,6,0,P|239:20|368:66,1,195.000000894069,0|8,0:0|0:0,0:0:0:0:
453,171,48325,2,0,L|462:106,2,65.000000298023,2|0|8,0:0|0:0|0:0,0:0:0:0:
452,171,48685,2,0,P|384:206|266:198,1,195.000000894069,0|8,0:0|0:0,0:0:0:0:
124,123,49285,1,2,0:0:0:0:
124,123,49405,1,0,0:0:0:0:
124,123,49525,1,8,0:0:0:0:
124,123,49645,6,0,P|84:175|89:255,1,130.000000596046,0|0,0:0|0:0,0:0:0:0:
116,307,50005,2,0,L|199:308,1,65.000000298023,8|0,0:0|0:0,0:0:0:0:
293,240,50245,2,0,L|228:240,1,65.000000298023,2|0,0:0|0:0,0:0:0:0:
340,306,50485,2,0,L|421:306,1,65.000000298023,8|0,0:0|0:0,0:0:0:0:
458,248,50725,2,0,P|473:212|466:164,1,65.000000298023,10|0,0:0|0:0,0:0:0:0:
390,196,50965,2,0,P|392:139|367:105,1,65.000000298023,8|0,0:0|0:0,0:0:0:0:
307,158,51205,2,0,P|276:175|219:166,2,65.000000298023,10|8|8,0:0|0:0|0:0,0:0:0:0:
256,99,51565,6,0,B|190:92|154:37|154:37|159:186|79:189|79:189|48:192|20:165|39:133|39:133|47:116|84:105|91:157,1,455.000002086161,0|8,0:0|0:0,0:0:0:0:
84,133,52525,2,0,B|84:188|52:217|52:217|83:248|83:248|39:296|67:351|113:352|113:352|150:351|177:318|170:271|170:271|191:249|246:247,1,455.000002086161,0|8,0:0|0:0,0:0:0:0:
231,248,53485,6,0,B|266:187|266:187|210:168|168:190|168:190|156:138|176:91|212:87|212:87|238:82|263:93|263:93|303:109|350:87|282:7|271:92,1,455.000002086161,0|8,0:0|0:0,0:0:0:0:
280,63,54445,2,0,B|350:109|414:62|414:62|432:111|376:171|387:203|411:234|411:234|429:252|461:267|515:250|506:171,1,455.000002086161,0|8,0:0|0:0,0:0:0:0:
506,198,55405,6,0,B|434:161|369:182|353:238|353:238|268:262|225:204|229:85|117:126,1,455.000002086161,4|8,0:0|0:0,0:0:0:0:
133,121,56365,2,0,B|145:157|125:192|125:192|73:275|29:274|3:248|3:223|3:223|6:197|24:171|83:168|125:268|125:268|138:300|134:327,1,455.000002086161,0|8,0:0|0:0,0:0:0:0:
133,295,57325,6,0,B|80:336|31:330|31:330|47:345|109:373|173:326|232:350|232:350|179:280|213:201,1,455.000002086161,4|0,0:0|0:0,0:0:0:0:
215,128,58285,2,0,P|250:62|320:45,1,130.000000596046,0|8,0:0|0:0,0:0:0:0:
349,119,58645,2,0,P|355:159|343:194,1,65.000000298023,8|8,0:0|0:0,0:0:0:0:
284,287,58885,2,0,P|278:247|290:212,2,65.000000298023,8|8|4,0:0|0:3|0:3,0:0:0:0:
341,356,59245,6,0,B|443:404|495:267|414:222|414:222|446:162|413:77|413:77|453:71|479:37,1,455.000002086161,4|8,0:0|0:0,0:0:0:0:
468,48,60205,2,0,B|418:9|343:15|343:15|354:61|339:103|295:110|295:110|265:116|230:92|236:49|236:49|173:70|126:18,1,455.000002086161,0|8,0:0|0:0,0:0:0:0:
141,33,61165,6,0,B|108:107|52:117|52:117|74:148|74:148|54:168|54:168|74:192|74:192|55:221|55:221|74:255|108:295|73:319|73:319|26:342|9:299|75:270,1,455.000002086161,0|8,0:0|0:0,0:0:0:0:
49,284,62125,2,0,B|160:306|114:186|252:195,1,195.000000894069,0|10,0:0|0:0,0:0:0:0:
350,202,62725,2,0,L|346:266,2,65.000000298023,10|8|10,0:0|0:0|0:0,0:0:0:0:
269,307,63085,6,0,P|331:353|428:301,1,195.000000894069,4|0,0:0|0:0,0:0:0:0:
350,202,63685,1,2,0:2:0:0:
455,119,63925,1,0,0:0:0:0:
375,9,64165,2,0,B|294:10|294:10|217:66|217:66|110:66,1,260.000001192092,2|2,0:2|0:2,0:0:0:0:
10,21,64885,1,0,0:0:0:0:
67,137,65125,6,0,L|80:276,1,130.000000596046,2|0,0:2|0:0,0:0:0:0:
207,288,65605,2,0,L|191:145,1,130.000000596046,2|0,0:2|0:0,0:0:0:0:
239,38,66085,2,0,P|313:21|337:182,1,260.000001192092,2|2,0:2|0:2,0:0:0:0:
230,155,66805,1,0,0:0:0:0:
358,164,67045,6,0,L|503:162,1,130.000000596046,2|8,0:2|0:1,0:0:0:0:
385,242,67525,2,0,P|325:272|252:257,1,130.000000596046,2|8,0:2|0:1,0:0:0:0:
137,173,68005,2,0,P|157:269|126:317,1,130.000000596046,2|8,0:2|0:1,0:0:0:0:
47,209,68485,2,0,B|48:164|48:164|26:132|26:132|26:84,1,130.000000596046,2|8,0:2|0:1,0:0:0:0:
135,22,68965,6,0,L|198:32,5,43.3333335320153,14|12|12|14|12|12,0:3|0:3|0:3|0:3|0:3|0:3,0:0:0:0:
214,65,69445,2,0,L|281:56,5,43.3333335320153,8|0|0|8|0|0,0:0|0:0|0:0|0:0|0:0|0:0,0:0:0:0:
295,24,69925,6,0,L|358:34,5,43.3333335320153,8|0|0|8|0|0,0:0|0:0|0:0|0:0|0:0|0:0,0:0:0:0:
350,73,70405,2,0,P|398:138|448:134,1,130.000000596046
485,123,70765,6,0,P|502:193|440:321,1,195.000000894069,4|8,0:1|0:0,0:0:0:0:
458,304,71365,2,0,L|382:305,1,65.000000298023
337,250,71605,2,0,L|265:251,1,65.000000298023,8|0,0:0|0:0,0:0:0:0:
226,314,71845,2,0,L|154:315,1,65.000000298023
82,305,72085,1,8,0:0:0:0:
104,230,72205,2,0,P|120:177|65:84,1,130.000000596046,0|0,0:0|0:0,0:0:0:0:
21,86,72565,1,8,0:0:0:0:
113,34,72685,6,0,B|145:32|176:19|176:19|192:37|192:37|220:30|220:30|250:62|302:68,1,195.000000894069,0|8,0:0|0:0,0:0:0:0:
287,66,73285,2,0,L|362:67,1,65.000000298023,0|0,0:0|0:0,0:0:0:0:
448,133,73525,2,0,L|383:133,1,65.000000298023,8|0,0:0|0:0,0:0:0:0:
286,201,73765,2,0,L|350:201,1,65.000000298023,0|0,0:0|0:0,0:0:0:0:
446,270,74005,2,0,L|381:269,1,65.000000298023,8|0,0:0|0:0,0:0:0:0:
274,314,74245,2,0,B|237:315|237:315|194:349|194:349|153:349,1,130.000000596046,0|8,0:0|0:0,0:0:0:0:
70,269,74605,6,0,B|59:225|66:208|66:208|81:186|81:186|65:165|65:165|81:146|81:146|66:118|66:118|87:87|74:40,1,195.000000894069,0|8,0:0|0:0,0:0:0:0:
106,24,75085,1,0,0:0:0:0:
176,63,75205,2,0,L|248:96,1,65.000000298023,0|0,0:0|0:0,0:0:0:0:
366,86,75445,2,0,L|307:61,1,65.000000298023,8|0,0:0|0:0,0:0:0:0:
442,63,75685,6,0,P|461:138|436:198,1,130.000000596046,0|8,0:0|0:0,0:0:0:0:
371,214,76045,1,0,0:0:0:0:
296,192,76165,2,0,P|230:216|211:274,1,130.000000596046,0|8,0:0|0:0,0:0:0:0:
185,342,76525,5,0,0:0:0:0:
110,318,76645,2,0,L|30:284,1,65.000000298023
93,226,76885,2,0,L|173:192,1,65.000000298023,8|0,0:0|0:0,0:0:0:0:
115,131,77125,2,0,L|35:97,1,65.000000298023
103,43,77365,2,0,L|183:9,1,65.000000298023,8|0,0:0|0:0,0:0:0:0:
262,49,77605,6,0,L|248:134,1,65.000000298023
251,231,77845,2,0,L|278:312,1,65.000000298023,8|0,0:0|0:0,0:0:0:0:
386,343,78085,2,0,L|385:276,2,65.000000298023,8|8|8,0:0|0:0|0:0,0:0:0:0:
484,249,78445,6,0,B|482:222|495:189|495:189|476:150|476:150|498:115|480:60,1,195.000000894069,0|8,0:0|0:0,0:0:0:0:
480,62,79045,2,0,L|413:88,1,65.000000298023,0|0,0:0|0:0,0:0:0:0:
340,90,79285,2,0,L|234:47,1,65.000000298023,8|0,0:0|0:0,0:0:0:0:
201,64,79525,2,0,L|133:89,1,65.000000298023
157,163,79765,1,0,0:0:0:0:
255,158,79885,2,0,P|284:223|239:287,1,130.000000596046
185,292,80245,1,8,0:0:0:0:
211,220,80365,6,0,B|273:209|273:209|338:233|338:233|419:225,1,195.000000894069,0|8,0:0|0:0,0:0:0:0:
400,226,80965,2,0,L|413:158,1,65.000000298023,0|0,0:0|0:0,0:0:0:0:
338,135,81205,2,0,L|336:69,1,65.000000298023,8|0,0:0|0:0,0:0:0:0:
257,78,81445,2,0,L|229:13,1,65.000000298023,0|0,0:0|0:0,0:0:0:0:
164,60,81685,2,0,L|94:41,1,65.000000298023,8|0,0:0|0:0,0:0:0:0:
51,102,81925,2,0,P|30:166|53:257,1,130.000000596046,0|8,0:0|0:0,0:0:0:0:
114,208,82285,6,0,P|193:216|182:317,1,195.000000894069,0|8,0:0|0:0,0:0:0:0:
188,312,82765,1,0,0:0:0:0:
188,312,82885,2,0,L|119:313,1,65.000000298023,0|0,0:0|0:0,0:0:0:0:
115,207,83125,2,0,L|183:208,1,65.000000298023,8|0,0:0|0:0,0:0:0:0:
333,207,83365,6,0,L|398:207,1,65.000000298023,0|0,0:0|0:0,0:0:0:0:
389,312,83606,2,0,L|324:312,1,65.000000298023,8|0,0:0|0:0,0:0:0:0:
255,242,83845,2,0,B|233:179|283:170|243:74,1,130.000000596046,0|8,0:0|0:0,0:0:0:0:
255,113,84325,6,0,L|191:147,2,65.000000298023,8|0|0,0:0|0:0|0:0,0:0:0:0:
272,36,84685,2,0,L|347:7,2,65.000000298023,8|0|0,0:0|0:0|0:0,0:0:0:0:
198,11,85045,2,0,L|131:45,1,65.000000298023,8|0,0:0|0:0,0:0:0:0:
69,75,85285,1,8,0:0:0:0:
1,271,85525,1,8,0:0:0:0:
202,233,85765,2,0,P|214:296|174:348,1,130.000000596046,8|8,0:3|0:3,0:0:0:0:
144,279,86125,6,0,P|130:231|186:160,1,130.000000596046,0|0,0:0|0:0,0:0:0:0:
232,131,86485,2,0,L|297:90,1,65.000000298023,8|0,0:0|0:0,0:0:0:0:
325,156,86725,2,0,L|264:195,1,65.000000298023,2|0,0:0|0:0,0:0:0:0:
308,251,86965,2,0,L|369:212,1,65.000000298023,8|0,0:0|0:0,0:0:0:0:
406,158,87205,2,0,P|393:111|323:75,1,130.000000596046,2|8,0:0|0:0,0:0:0:0:
187,74,87685,2,0,P|128:98|106:158,1,130.000000596046,2|0,0:0|0:0,0:0:0:0:
116,228,88045,6,0,B|133:274|133:274|172:298|172:298|185:336,1,130.000000596046,0|0,0:0|0:0,0:0:0:0:
259,348,88405,1,8,0:0:0:0:
319,298,88525,1,0,0:0:0:0:
392,323,88645,2,0,L|463:260,1,65.000000298023,2|0,0:0|0:0,0:0:0:0:
371,244,88885,2,0,L|304:190,1,65.000000298023,8|0,0:0|0:0,0:0:0:0:
218,139,89125,6,0,P|175:77|187:23,1,130.000000596046,2|8,0:0|0:0,0:0:0:0:
327,27,89605,2,0,P|334:90|294:139,1,130.000000596046,2|0,0:0|0:0,0:0:0:0:
144,177,89965,6,0,P|97:200|105:301,1,130.000000596046,0|0,0:0|0:0,0:0:0:0:
83,271,90325,2,0,L|153:303,1,65.000000298023,8|0,0:0|0:0,0:0:0:0:
156,375,90565,2,0,L|235:345,1,65.000000298023,2|0,0:0|0:0,0:0:0:0:
295,351,90805,2,0,L|356:375,1,65.000000298023,8|0,0:0|0:0,0:0:0:0:
369,298,91045,2,0,L|428:271,1,65.000000298023,2|0,0:0|0:0,0:0:0:0:
371,216,91285,2,0,L|398:157,1,65.000000298023,8|0,0:0|0:0,0:0:0:0:
331,80,91525,2,0,P|265:52|187:78,1,130.000000596046,2|0,0:0|0:0,0:0:0:0:
46,130,91885,6,0,P|112:158|190:132,1,130.000000596046,2|0,0:0|0:0,0:0:0:0:
210,63,92245,1,8,0:0:0:0:
119,70,92365,1,0,0:0:0:0:
167,147,92485,2,0,L|216:291,1,130.000000596046,2|8,0:0|0:0,0:0:0:0:
273,216,92845,1,0,0:0:0:0:
241,137,92965,2,0,P|264:75|337:88,1,130.000000596046,2|8,0:0|0:0,0:0:0:0:
367,135,93325,1,0,0:0:0:0:
422,80,93445,2,0,L|495:49,2,65.000000298023,8|8|4,0:0|0:0|0:0,0:0:0:0:
411,192,93805,6,0,B|417:241|417:241|449:278|449:278|454:328,1,130.000000596046,4|0,0:0|0:0,0:0:0:0:
373,310,94165,2,0,L|308:364,1,65.000000298023,8|0,0:0|0:0,0:0:0:0:
303,276,94405,2,0,L|283:350,1,65.000000298023,2|0,0:0|0:0,0:0:0:0:
225,282,94645,2,0,L|250:361,1,65.000000298023,8|0,0:0|0:0,0:0:0:0:
155,326,94885,2,0,L|19:295,1,130.000000596046,2|8,0:0|0:0,0:0:0:0:
1,223,95245,1,0,0:0:0:0:
78,231,95365,2,0,P|126:173|122:104,1,130.000000596046,2|8,0:0|0:0,0:0:0:0:
229,51,95725,6,0,P|252:131|246:220,1,130.000000596046,0|0,0:0|0:0,0:0:0:0:
245,255,96085,2,0,P|206:253|174:273,1,65.000000298023,8|0,0:0|0:0,0:0:0:0:
314,219,96325,2,0,P|329:188|328:153,1,65.000000298023,2|0,0:0|0:0,0:0:0:0:
311,296,96565,2,0,P|331:323|376:342,1,65.000000298023,8|0,0:0|0:0,0:0:0:0:
380,263,96805,6,0,P|411:182|399:120,1,130.000000596046,2|8,0:0|0:0,0:0:0:0:
105,140,97285,2,0,P|103:205|132:263,1,130.000000596046,2|0,0:0|0:0,0:0:0:0:
200,300,97645,1,0,0:0:0:0:
257,247,97765,6,0,B|256:211|262:195|262:195|246:152|246:152|272:102|255:42,1,195.000000894069,2|0,0:0|0:0,0:0:0:0:
141,87,98245,2,0,B|89:112|13:86|13:86|53:95|78:144,1,195.000000894069
14,238,98725,2,0,B|38:247|57:270|57:270|100:256|100:256|134:296|191:289,1,195.000000894069,2|0,0:0|0:0,0:0:0:0:
330,289,99205,2,0,B|382:296|416:256|416:256|459:270|459:270|478:247|502:238,1,195.000000894069,0|2,0:0|0:0,0:0:0:0:
256,192,99685,12,8,101365,0:0:0:0:
295,152,101605,6,0,L|327:94,5,43.3333335320153,8|0|0|8|0|0,0:0|0:0|0:0|0:0|0:0|0:0,0:0:0:0:
217,152,102085,2,0,L|185:94,5,43.3333335320153,8|0|0|8|0|0,0:0|0:0|0:0|0:0|0:0|0:0,0:0:0:0:
255,214,102565,6,0,L|256:257,8,32.5000001490115,8|8|8|8|8|8|8|8|8,0:0|0:0|0:0|0:0|0:0|0:0|0:0|0:0|0:0,0:0:0:0:
371,78,103405,6,0,P|411:107|416:194,1,130.000000596046,4|0,0:0|0:0,0:0:0:0:
394,263,103765,2,0,L|327:251,1,65.000000298023,8|0,0:0|0:0,0:0:0:0:
302,332,104005,2,0,L|235:320,1,65.000000298023,2|0,0:0|0:0,0:0:0:0:
132,261,104245,2,0,L|199:249,1,65.000000298023,8|0,0:0|0:0,0:0:0:0:
262,198,104485,2,0,P|260:121|213:90,1,130.000000596046,2|8,0:0|0:0,0:0:0:0:
142,62,104845,1,0,0:0:0:0:
132,147,104965,2,0,P|95:198|15:188,1,130.000000596046,2|0,0:0|0:0,0:0:0:0:
63,135,105325,6,0,L|149:274,1,130.000000596046
183,312,105685,2,0,L|162:379,1,65.000000298023,8|0,0:0|0:0,0:0:0:0:
246,254,105925,1,2,0:0:0:0:
246,254,106045,1,0,0:0:0:0:
305,312,106165,2,0,L|333:386,1,65.000000298023,8|0,0:0|0:0,0:0:0:0:
367,256,106405,2,0,P|369:222|382:193,1,65.000000298023,2|0,0:0|0:0,0:0:0:0:
453,147,106645,2,0,P|468:116|466:74,1,65.000000298023,8|0,0:0|0:0,0:0:0:0:
412,22,106885,2,0,L|337:-6,1,65.000000298023,10|8,0:0|0:0,0:0:0:0:
297,63,107125,1,8,0:0:0:0:
160,16,107245,6,0,P|76:18|59:137,1,195.000000894069,4|8,0:0|0:0,0:0:0:0:
120,148,107725,1,0,0:0:0:0:
114,232,107845,2,0,L|129:306,1,65.000000298023,2|0,0:0|0:0,0:0:0:0:
199,341,108085,1,8,0:0:0:0:
236,265,108205,2,0,B|275:253|275:253|364:265|364:265|438:242,1,195.000000894069,0|8,0:0|0:0,0:0:0:0:
423,89,108805,1,2,0:0:0:0:
423,89,108925,1,0,0:0:0:0:
423,89,109045,1,8,0:0:0:0:
423,89,109165,6,0,B|352:65|352:65|303:76|303:76|235:55,1,195.000000894069,0|8,0:0|0:0,0:0:0:0:
236,55,109645,1,0,0:0:0:0:
236,55,109765,2,0,L|208:133,1,65.000000298023,2|0,0:0|0:0,0:0:0:0:
185,196,110005,1,8,0:0:0:0:
122,138,110125,2,0,P|55:116|39:246,1,195.000000894069,0|12,0:0|0:0,0:0:0:0:
115,305,110725,2,0,L|134:370,2,65.000000298023,12|12|12,0:0|0:0|0:0,0:0:0:0:
185,270,111085,6,0,B|205:262|205:262|255:317|255:317|293:302,1,130.000000596046,4|0,0:0|0:0,0:0:0:0:
366,276,111445,2,0,L|457:236,1,65.000000298023,8|0,0:0|0:0,0:0:0:0:
328,196,111685,2,0,L|419:156,1,65.000000298023,2|0,0:0|0:0,0:0:0:0:
288,119,111925,2,0,L|379:79,1,65.000000298023,8|0,0:0|0:0,0:0:0:0:
306,13,112165,2,0,B|241:43|241:43|171:43,1,130.000000596046,2|8,0:0|0:0,0:0:0:0:
104,68,112525,1,0,0:0:0:0:
138,142,112645,2,0,P|157:211|106:264,1,130.000000596046,2|0,0:0|0:0,0:0:0:0:
73,196,113005,6,0,B|69:166|69:166|24:118|24:118|25:52,1,130.000000596046
24,84,113365,2,0,L|93:35,1,65.000000298023,8|0,0:0|0:0,0:0:0:0:
157,89,113605,2,0,L|225:39,1,65.000000298023,2|0,0:0|0:0,0:0:0:0:
288,96,113845,2,0,L|356:46,1,65.000000298023,8|0,0:0|0:0,0:0:0:0:
412,89,114085,2,0,L|420:172,1,65.000000298023,2|8,0:0|0:0,0:0:0:0:
357,202,114325,2,0,L|280:167,1,65.000000298023,0|8,0:0|0:0,0:0:0:0:
214,175,114565,2,0,L|155:202,2,65.000000298023,0|0|8,0:0|0:0|0:0,0:0:0:0:
256,256,114925,6,0,P|248:326|358:361,1,195.000000894069,0|8,0:0|0:0,0:0:0:0:
456,219,115525,1,2,0:0:0:0:
456,219,115645,1,0,0:0:0:0:
456,219,115765,1,8,0:0:0:0:
456,219,115885,2,0,P|361:173|342:61,1,195.000000894069,0|8,0:0|0:0,0:0:0:0:
177,92,116485,5,2,0:0:0:0:
159,161,116605,1,0,0:0:0:0:
106,208,116725,1,0,0:0:0:0:
36,222,116845,1,8,0:0:0:0:
256,192,116965,12,4,119011,0:0:0:0:
256,122,120054,5,8,0:0:0:0:
256,122,121097,2,0,P|197:157|118:156,1,116.999996965885,8|2,0:0|0:0,0:0:0:0:
149,162,121880,1,8,0:0:0:0:
56,56,122141,1,2,0:0:0:0:
149,162,122663,2,0,L|176:227,1,38.9999989886283,2|8,0:0|0:0,0:0:0:0:
93,231,122924,2,0,L|79:267,1,38.9999989886283,2|8,0:0|0:0,0:0:0:0:
149,300,123184,6,0,P|183:341|258:343,1,116.999996965885,8|2,0:0|0:0,0:0:0:0:
243,348,123967,1,8,0:0:0:0:
358,242,124228,1,2,0:0:0:0:
246,36,125011,1,8,0:0:0:0:
199,88,125141,1,8,0:0:0:0:
154,142,125271,6,0,P|122:210|125:237,1,77.9999979772566,2|0,0:0|0:0,0:0:0:0:
135,288,125663,1,8,0:0:0:0:
204,323,125793,2,0,L|273:323,1,38.9999989886283,0|0,0:0|0:0,0:0:0:0:
335,264,126054,2,0,L|266:264,1,38.9999989886283,8|0,0:0|0:0,0:0:0:0:
215,190,126315,2,0,L|215:250,1,38.9999989886283,2|0,0:0|0:0,0:0:0:0:
309,185,126576,2,0,L|309:125,1,38.9999989886283,0|0,0:0|0:0,0:0:0:0:
215,104,126837,2,0,L|170:104,1,38.9999989886283,2|0,0:0|0:0,0:0:0:0:
289,45,127097,2,0,L|334:45,1,38.9999989886283,2|8,0:0|0:0,0:0:0:0:
438,48,127358,6,0,P|464:113|442:180,1,116.999996965885,2|0,0:0|0:0,0:0:0:0:
455,157,128141,1,8,0:0:0:0:
287,119,128402,1,2,0:0:0:0:
287,119,129445,2,0,P|218:146|147:128,1,116.999996965885,8|2,0:0|0:0,0:0:0:0:
344,166,130228,1,2,0:0:0:0:
256,290,130489,1,2,0:0:0:0:
188,250,131011,6,0,L|131:212,1,38.9999989886283,2|8,0:0|0:0,0:0:0:0:
46,234,131271,2,0,L|103:272,1,38.9999989886283,2|8,0:0|0:0,0:0:0:0:
192,329,131532,2,0,P|235:362|312:338,1,116.999996965885,8|2,0:0|0:0,0:0:0:0:
294,353,132315,1,8,0:0:0:0:
445,313,132576,1,2,0:0:0:0:
445,313,133358,1,8,0:0:0:0:
445,313,133489,1,8,0:0:0:0:
382,236,133619,2,0,P|381:179|402:141,1,77.9999979772566,2|0,0:0|0:0,0:0:0:0:
426,78,134011,6,0,L|461:64,22,19.4999994943141,0|0|0|0|0|0|0|0|0|0|2|0|0|0|0|0|0|0|0|0|0|0|0,0:0|0:0|0:0|0:0|0:0|0:0|0:0|0:0|0:0|0:0|0:0|0:0|0:0|0:0|0:0|0:0|0:0|0:0|0:0|0:0|0:0|0:0|0:0,0:0:0:0:
305,102,135706,6,0,P|249:102|205:75,1,77.9999979772566,4|0,0:0|0:0,0:0:0:0:
167,46,136097,1,2,0:0:0:0:
61,170,136489,1,0,0:0:0:0:
167,46,136750,1,2,0:0:0:0:
145,132,137272,5,2,0:3:0:0:
145,132,137402,2,0,P|157:208|181:228,1,77.9999979772566,2|2,0:3|0:0,0:0:0:0:
231,348,137793,6,0,P|246:302|217:223,1,116.999996965885,2|2,0:0|0:0,0:0:0:0:
228,237,138576,1,8,0:0:0:0:
257,83,138837,1,2,0:0:0:0:
328,51,139358,6,0,L|375:28,1,38.9999989886283,2|2,0:3|0:3,0:0:0:0:
489,55,139619,2,0,L|442:78,1,38.9999989886283,2|2,0:3|0:3,0:0:0:0:
315,130,139880,6,0,P|350:164|429:172,1,116.999996965885,8|2,0:0|0:0,0:0:0:0:
415,175,140402,1,0,0:0:0:0:
329,235,140663,1,8,0:0:0:0:
394,87,140924,1,2,0:0:0:0:
118,87,141445,2,0,L|118:36,1,38.9999989886283,2|0,0:3|0:3,0:0:0:0:
40,147,141706,2,0,L|40:186,1,38.9999989886283,2|0,0:3|0:3,0:0:0:0:
112,245,141967,6,0,P|160:210|164:151,1,116.999996965885,8|2,0:0|0:0,0:0:0:0:
165,156,142619,1,0,0:0:0:0:
221,114,142749,1,8,0:0:0:0:
291,115,142880,1,0,0:0:0:0:
346,156,143011,2,0,P|353:212|400:245,1,116.999996965885,2|0,0:0|0:0,0:0:0:0:
471,262,143532,2,0,L|532:262,1,38.9999989886283,2|0,0:3|0:0,0:0:0:0:
420,321,143793,2,0,L|359:321,1,38.9999989886283,2|0,0:3|0:0,0:0:0:0:
307,262,144054,6,0,P|257:269|214:349,1,136.499996460199,2|0,0:0|0:0,0:0:0:0:
294,340,144837,5,0,0:0:0:0:
202,215,145097,1,2,0:0:0:0:
83,66,145620,5,0,0:0:0:0:
64,146,145750,2,0,P|117:140|144:115,1,77.9999979772566,0|0,0:0|0:0,0:0:0:0:
64,146,146141,6,0,P|36:206|62:279,1,116.999996965885,8|2,0:0|0:0,0:0:0:0:
44,254,146923,1,8,0:0:0:0:
176,191,147184,2,0,L|217:183,5,25.9999993257522,2|0|0|0|0|0,0:0|0:0|0:0|0:0|0:0|0:0,0:0:0:0:
279,129,147706,2,0,L|238:121,5,25.9999993257522,2|0|0|0|0|0,0:0|0:0|0:0|0:0|0:0|0:0,0:0:0:0:
219,43,148228,6,0,P|143:39|100:89,1,130.000000596046,2|0,0:0|0:0,0:0:0:0:
57,208,149349,2,0,B|94:239|94:239|136:239|136:239|172:258,1,130.000000596046,0|0,0:0|0:0,0:0:0:0:
340,258,150470,2,0,B|376:239|376:239|418:239|418:239|455:208,1,130.000000596046,0|0,0:0|0:0,0:0:0:0:
311,192,151592,2,0,P|274:166|196:199,1,130.000000596046,0|0,0:0|0:0,0:0:0:0:
83,352,152768,6,0,P|123:334|140:240,1,130.000000596046,2|0,0:0|0:0,0:0:0:0:
365,256,153956,2,0,P|375:318|429:352,1,130.000000596046,0|0,0:0|0:0,0:0:0:0:
443,146,155319,2,0,B|397:109|397:109|324:98,1,130.000000596046,0|0,0:0|0:0,0:0:0:0:
69,146,156750,2,0,B|115:109|115:109|187:100,1,130.000000596046,0|0,0:0|0:0,0:0:0:0:
320,235,158136,6,0,P|277:248|181:229,1,130.000000596046,0|0,0:0|0:0,0:0:0:0:
194,235,162091,6,0,L|183:171,2,43.3333335320153,12|12|12,0:3|0:3|0:3,0:0:0:0:
263,194,162331,2,0,L|252:130,2,43.3333335320153,12|12|12,0:3|0:3|0:3,0:0:0:0:
330,158,162571,2,0,L|319:94,2,43.3333335320153,12|12|12,0:3|0:3|0:3,0:0:0:0:
401,129,162811,2,0,L|390:65,2,43.3333335320153,12|12|12,0:3|0:3|0:3,0:0:0:0:
448,195,163051,6,0,L|502:210,2,43.3333335320153
400,264,163291,2,0,L|346:279,2,43.3333335320153
453,330,163531,2,0,L|388:346,3,43.3333335320153
293,358,163891,6,0,P|212:361|145:322,1,130.000000596046,4|0,0:0|0:0,0:0:0:0:
168,341,164251,2,0,L|167:254,1,65.000000298023,8|0,0:0|0:0,0:0:0:0:
233,169,164491,2,0,L|233:251,1,65.000000298023,2|0,0:0|0:0,0:0:0:0:
100,243,164731,2,0,L|36:222,1,65.000000298023,8|0,0:0|0:0,0:0:0:0:
20,146,164971,2,0,P|82:105|172:122,1,130.000000596046,2|8,0:0|0:0,0:0:0:0:
213,97,165331,1,0,0:0:0:0:
264,38,165451,2,0,L|323:0,2,65.000000298023,2|0|8,0:0|0:0|0:0,0:0:0:0:
306,173,165811,6,0,P|368:194|444:155,1,130.000000596046,0|0,0:0|0:0,0:0:0:0:
366,103,166171,1,8,0:0:0:0:
366,103,166291,1,0,0:0:0:0:
305,173,166411,2,0,L|249:229,1,65.000000298023,2|0,0:0|0:0,0:0:0:0:
136,235,166651,2,0,P|123:203|123:167,1,65.000000298023,8|0,0:0|0:0,0:0:0:0:
205,273,166891,2,0,P|265:308|357:280,1,130.000000596046,2|8,0:0|0:0,0:0:0:0:
391,263,167251,1,0,0:0:0:0:
438,201,167371,2,0,L|452:121,1,65.000000298023,2|0,0:0|0:0,0:0:0:0:
422,12,167611,2,0,L|404:79,1,65.000000298023,8|0,0:0|0:0,0:0:0:0:
337,113,167851,5,2,0:0:0:0:
259,110,167971,1,0,0:0:0:0:
193,68,168091,1,8,0:0:0:0:
115,69,168211,1,0,0:0:0:0:
66,129,168331,2,0,L|74:208,1,65.000000298023,2|0,0:0|0:0,0:0:0:0:
147,310,168571,2,0,L|139:231,1,65.000000298023,8|0,0:0|0:0,0:0:0:0:
192,187,168811,6,0,L|267:173,1,65.000000298023,2|0,0:0|0:0,0:0:0:0:
315,252,169051,2,0,L|252:264,1,65.000000298023,8|0,0:0|0:0,0:0:0:0:
309,345,169291,2,0,L|403:328,1,65.000000298023,2|0,0:0|0:0,0:0:0:0:
443,274,169531,6,0,P|466:248|482:210,2,65.000000298023,8|0|2,0:0|0:0|0:0,0:0:0:0:
390,199,169891,2,0,P|395:166|388:127,2,65.000000298023,0|8|0,0:0|0:0|0:0,0:0:0:0:
306,161,170251,2,0,P|287:129|244:107,1,65.000000298023,2|0,0:0|0:0,0:0:0:0:
185,102,170491,2,0,L|135:144,1,65.000000298023,8|0,0:0|0:0,0:0:0:0:
60,221,170731,2,0,P|49:273|106:342,1,130.000000596046,10|8,0:0|0:0,0:0:0:0:
125,265,171091,1,0,0:0:0:0:
187,218,171211,2,0,L|241:160,2,65.000000298023,10|8|8,0:0|0:0|0:0,0:0:0:0:
239,293,171571,6,0,P|323:321|430:246,1,195.000000894069,4|8,0:0|0:0,0:0:0:0:
425,121,172171,2,0,L|337:108,1,65.000000298023,2|0,0:0|0:0,0:0:0:0:
270,100,172411,2,0,L|182:87,1,65.000000298023,8|0,0:0|0:0,0:0:0:0:
114,82,172651,2,0,B|104:108|80:126|80:126|80:154|80:154|59:195|73:229,1,130.000000596046,2|0,0:0|0:0,0:0:0:0:
223,264,173131,1,0,0:0:0:0:
223,264,173251,2,0,B|260:275|260:275|297:317|297:317|356:341,1,130.000000596046
398,291,173611,6,0,L|428:223,1,65.000000298023,2|0,0:0|0:0,0:0:0:0:
333,239,173851,2,0,L|361:178,1,65.000000298023,8|0,0:0|0:0,0:0:0:0:
395,95,174091,2,0,P|300:64|237:106,1,130.000000596046,2|8,0:0|0:0,0:0:0:0:
212,170,174451,2,0,P|131:170|183:86,1,195.000000894069,0|0,0:0|0:0,0:0:0:0:
212,170,175051,2,0,L|190:242,2,65.000000298023,0|0|8,0:0|0:0|0:0,0:0:0:0:
291,210,175411,6,0,B|310:231|349:242|349:242|375:290|375:290|417:284|457:321,1,195.000000894069,0|8,0:0|0:0,0:0:0:0:
473,237,175891,1,0,0:0:0:0:
414,185,176011,2,0,L|373:109,1,65.000000298023,2|0,0:0|0:0,0:0:0:0:
403,7,176251,2,0,L|444:83,1,65.000000298023,0|0,0:0|0:0,0:0:0:0:
313,97,176491,2,0,L|238:98,1,65.000000298023,2|0,0:0|0:0,0:0:0:0:
121,166,176731,2,0,L|196:167,1,65.000000298023,8|0,0:0|0:0,0:0:0:0:
299,195,176971,2,0,P|320:240|316:270,2,65.000000298023,2|0|8,0:0|0:0|0:0,0:0:0:0:
239,248,177331,2,0,P|179:296|64:261,1,195.000000894069,0|8,0:0|0:0,0:0:0:0:
43,182,177811,6,0,B|32:149|32:149|50:121|50:121|27:91|27:91|51:54|51:54|43:-9,1,195.000000894069,0|0,0:0|0:0,0:0:0:0:
123,14,178291,1,0,0:0:0:0:
184,62,178411,2,0,L|249:82,1,65.000000298023
411,46,178651,2,0,L|348:26,1,65.000000298023
334,160,178891,2,0,L|424:188,1,65.000000298023
503,295,179131,2,0,L|425:270,1,65.000000298023
319,262,179371,6,0,L|298:311,5,43.3333335320153,8|0|8|0|8|0,0:0|0:0|0:0|0:0|0:0|0:0,0:0:0:0:
210,301,179851,2,0,L|193:262,5,43.3333335320153,8|0|8|0|8|0,0:0|0:0|0:0|0:0|0:0|0:0,0:0:0:0:
256,235,180331,6,0,L|256:192,8,32.5000001490115,8|0|0|8|0|0|8|0|0,0:0|0:0|0:0|0:0|0:0|0:0|0:3|0:0|0:0,0:0:0:0:
256,235,181171,6,0,B|196:235|196:235|120:205,1,130.000000596046,4|0,0:0|0:0,0:0:0:0:
68,162,181531,2,0,L|57:87,1,65.000000298023,8|0,0:0|0:0,0:0:0:0:
134,76,181771,2,0,L|145:151,1,65.000000298023,2|0,0:0|0:0,0:0:0:0:
218,159,182011,2,0,L|248:85,1,65.000000298023,8|0,0:0|0:0,0:0:0:0:
308,57,182251,2,0,L|373:80,1,65.000000298023,2|0,0:0|0:0,0:0:0:0:
401,150,182491,2,0,L|371:224,1,65.000000298023,8|0,0:0|0:0,0:0:0:0:
310,252,182731,2,0,L|246:228,1,65.000000298023,2|0,0:0|0:0,0:0:0:0:
379,327,183091,6,0,P|309:365|229:356,1,130.000000596046
201,310,183451,2,0,L|228:240,1,65.000000298023,8|0,0:0|0:0,0:0:0:0:
163,183,183691,1,2,0:0:0:0:
163,183,183811,1,0,0:0:0:0:
94,230,183931,2,0,L|112:316,1,65.000000298023,8|0,0:0|0:0,0:0:0:0:
12,192,184171,2,0,L|1:125,1,65.000000298023,2|0,0:0|0:0,0:0:0:0:
40,57,184411,2,0,L|106:12,1,65.000000298023,8|0,0:0|0:0,0:0:0:0:
175,20,184651,2,0,L|256:20,2,65.000000298023,10|8|10,0:0|0:0|0:0,0:0:0:0:
138,89,185011,6,0,P|198:162|261:155,1,130.000000596046,0|0,0:0|0:0,0:0:0:0:
274,102,185371,2,0,L|350:61,1,65.000000298023,8|0,0:0|0:0,0:0:0:0:
474,61,185611,2,0,L|404:97,1,65.000000298023,2|0,0:0|0:0,0:0:0:0:
361,146,185851,1,8,0:0:0:0:
361,224,185971,2,0,P|393:295|490:266,1,195.000000894069,0|8,0:0|0:0,0:0:0:0:
430,122,186571,1,2,0:0:0:0:
430,122,186691,1,0,0:0:0:0:
282,72,186931,6,0,P|200:112|147:109,1,130.000000596046,0|0,0:0|0:0,0:0:0:0:
88,86,187291,2,0,L|59:13,1,65.000000298023,8|0,0:0|0:0,0:0:0:0:
14,102,187531,2,0,L|49:180,2,65.000000298023,2|0|8,0:0|0:0|0:0,0:0:0:0:
114,154,187891,6,0,B|129:200|129:200|162:220|162:220|184:273,1,130.000000596046
232,316,188251,2,0,L|316:345,1,65.000000298023,10|0,0:0|0:0,0:0:0:0:
371,344,188491,1,10,0:0:0:0:
446,324,188611,1,8,0:0:0:0:
478,252,188731,1,8,0:0:0:0:
453,178,188851,6,0,P|376:124|320:133,1,130.000000596046,12|0,0:0|0:0,0:0:0:0:
343,125,189211,2,0,L|346:202,1,65.000000298023,0|0,0:0|0:0,0:0:0:0:
314,261,189451,2,0,P|283:264|246:261,1,65.000000298023,2|0,0:0|0:0,0:0:0:0:
212,193,189691,2,0,L|212:117,1,65.000000298023,0|0,0:0|0:0,0:0:0:0:
148,61,189931,2,0,L|63:35,1,65.000000298023,2|0,0:0|0:0,0:0:0:0:
13,98,190171,2,0,L|99:127,1,65.000000298023,8|0,0:0|0:0,0:0:0:0:
131,183,190411,2,0,P|117:281|57:314,1,130.000000596046,2|8,0:0|0:0,0:0:0:0:
97,298,190771,6,0,B|122:337|122:337|170:338|170:338|212:377,1,130.000000596046,0|0,0:0|0:0,0:0:0:0:
274,349,191131,2,0,L|361:317,1,65.000000298023,8|0,0:0|0:0,0:0:0:0:
368,241,191371,2,0,L|306:261,1,65.000000298023,2|0,0:0|0:0,0:0:0:0:
228,212,191611,2,0,P|265:200|310:168,1,65.000000298023,8|0,0:0|0:0,0:0:0:0:
291,109,191851,2,0,P|262:82|211:59,1,65.000000298023,2|0,0:0|0:0,0:0:0:0:
170,106,192091,2,0,P|161:143|167:199,1,65.000000298023,8|0,0:0|0:0,0:0:0:0:
162,248,192331,2,0,L|161:319,2,65.000000298023,2|0|8,0:0|0:0|0:0,0:0:0:0:
90,216,192691,6,0,P|82:146|128:32,1,195.000000894069,0|8,0:0|0:0,0:0:0:0:
259,93,193291,2,0,L|345:93,1,65.000000298023,2|0,0:0|0:0,0:0:0:0:
402,94,193531,1,8,0:0:0:0:
356,157,193651,2,0,P|302:241|345:343,1,195.000000894069,0|8,0:0|0:0,0:0:0:0:
411,254,194251,1,2,0:0:0:0:
411,254,194371,1,0,0:0:0:0:
411,254,194491,1,8,0:0:0:0:
411,254,194611,6,0,B|314:192|250:308|125:256,1,295.749987817645,0|0,0:0|0:0,0:0:0:0:
125,256,195691,2,0,L|115:180,1,65.000000298023,2|8,0:0|0:0,0:0:0:0:
199,93,195931,6,0,L|208:158,1,65.000000298023,2|8,0:0|0:0,0:0:0:0:
304,158,196171,6,0,L|312:93,2,65.000000298023,10|8|8,0:0|0:0|0:0,0:0:0:0:
395,191,196531,5,8,0:0:0:0:
