osu file format v14

[General]
AudioFilename: TIME to say goodbye.mp3
AudioLeadIn: 0
PreviewTime: 103045
Countdown: 0
SampleSet: Normal
StackLeniency: 0.8
Mode: 0
LetterboxInBreaks: 0
EpilepsyWarning: 1
WidescreenStoryboard: 1

[Editor]
Bookmarks: 18085,18325,18565,18685,18805,18925,22765,24685,26245,26365,26485,26605,30505,32365,34405,34765,35125,35365,35485,35605,35725,35845,36205,38125,40045,41965,42925,43885,45805,47725,49645,51565,55405,57325,58165,59245,63085,70765,82285,84325,84685,85045,85285,85525,86125,89965,93805,97645,101605,102085,102565,102805,103045,103405,107245,109165,110125,111085,114925,163891,171571,175411,179371,179851,180331,180571,181171,185011,186931,188011,188251,188491,188611,188731,188851,190771,192691,194611,195691,195931,196171,196411,196531
DistanceSpacing: 0.5
BeatDivisor: 4
GridSize: 4
TimelineZoom: 4.099998

[Metadata]
Title:Time to say Goodbye (feat. Casey Lee Williams)
TitleUnicode:Time to say Goodbye (feat. Casey Lee Williams)
Artist:Jeff Williams
ArtistUnicode:Jeff Williams
Creator:Pho
Version:Farewell
Source:RWBY
Tags:rwby volume 2 opening full ver appleeaterx super kawaii milan- mao okoratu
BeatmapID:733943
BeatmapSetID:237854

[Difficulty]
HPDrainRate:7
CircleSize:4.5
OverallDifficulty:8.5
ApproachRate:9.5
SliderMultiplier:1.7
SliderTickRate:1

[Events]
//Background and Video events
0,0,"bg.jpg",0,0
//Break Periods
//Storyboard Layer 0 (Background)
//Storyboard Layer 1 (Fail)
//Storyboard Layer 2 (Pass)
//Storyboard Layer 3 (Foreground)
Sprite,Foreground,Centre,"SB/ring.png",320,240 S,0,18865,18985,0,0.6 M,0,18925,,357,80 P,0,18925,19705,A S,0,18985,19705,0.6,0.8 F,0,19225,19705,0.5,0
Sprite,Foreground,Centre,"SB/ring.png",320,240 S,0,22705,22825,0,0.6 M,0,22765,,358,222 P,0,22765,23545,A S,0,22825,23545,0.6,0.8 F,0,23065,23545,0.5,0
Sprite,Foreground,Centre,"SB/ring.png",320,240 S,0,24625,24745,0,0.6 M,0,24685,,359,247 P,0,24685,25465,A S,0,24745,25465,0.6,0.8 F,0,24985,25465,0.5,0
Sprite,Foreground,Centre,"SB/ring.png",320,240 S,0,26545,26665,0,0.6 M,0,26605,,286,103 P,0,26605,27385,A S,0,26665,27385,0.6,0.8 F,0,26905,27385,0.5,0
Sprite,Foreground,Centre,"SB/ring.png",320,240 S,0,30385,30505,0,0.6 M,0,30445,,486,369 P,0,30445,31225,A S,0,30505,31225,0.6,0.8 F,0,30745,31225,0.5,0
Sprite,Foreground,Centre,"SB/ring.png",320,240 S,0,32305,32425,0,0.6 M,0,32365,,261,89 P,0,32365,33145,A S,0,32425,33145,0.6,0.8 F,0,32665,33145,0.5,0
Sprite,Foreground,Centre,"SB/ring.png",320,240 S,0,34345,34465,0,0.6 M,0,34405,,409,92 P,0,34405,35185,A S,0,34465,35185,0.6,0.8 F,0,34705,35185,0.5,0
Sprite,Foreground,Centre,"SB/ring.png",320,240 S,0,34705,34825,0,0.6 M,0,34765,,204,249 P,0,34765,35545,A S,0,34825,35545,0.6,0.8 F,0,35065,35545,0.5,0
Sprite,Foreground,Centre,"SB/ring.png",320,240 S,0,35065,35185,0,0.6 M,0,35125,,439,405 P,0,35125,35905,A S,0,35185,35905,0.6,0.8 F,0,35425,35905,0.5,0
Sprite,Foreground,Centre,"SB/ring.png",320,240 S,0,35305,35425,0,0.6 M,0,35365,,204,249 P,0,35365,36145,A S,0,35425,36145,0.6,0.8 F,0,35665,36145,0.5,0
Sprite,Foreground,Centre,"SB/ring.png",320,240 S,0,35425,35545,0,0.6 M,0,35485,,368,156 P,0,35485,36265,A S,0,35545,36265,0.6,0.8 F,0,35785,36265,0.5,0
Sprite,Foreground,Centre,"SB/ring.png",320,240 S,0,35545,35665,0,0.6 M,0,35605,,299,328 P,0,35605,36385,A S,0,35665,36385,0.6,0.8 F,0,35905,36385,0.5,0
Sprite,Foreground,Centre,"SB/ring.png",320,240 S,0,35665,35785,0,0.6 M,0,35725,,243,149 P,0,35725,36505,A S,0,35785,36505,0.6,0.8 F,0,36025,36505,0.5,0
Sprite,Foreground,Centre,"SB/ring.png",320,240 S,0,35785,35905,0,0.6 M,0,35845,,396,262 P,0,35845,36625,A S,0,35905,36625,0.6,0.8 F,0,36145,36625,0.5,0
Sprite,Foreground,Centre,"SB/ring.png",320,240 S,0,36145,36265,0,0.6 M,0,36205,,204,249 P,0,36205,36985,A S,0,36265,36985,0.6,0.8 F,0,36505,36985,0.5,0
Sprite,Foreground,Centre,"SB/ring.png",320,240 S,0,38065,38185,0,0.6 M,0,38125,,358,273 P,0,38125,38905,A S,0,38185,38905,0.6,0.8 F,0,38425,38905,0.5,0
Sprite,Foreground,Centre,"SB/ring.png",320,240 S,0,39985,40105,0,0.6 M,0,40045,,199,98 P,0,40045,40825,A S,0,40105,40825,0.6,0.8 F,0,40345,40825,0.5,0
Sprite,Foreground,Centre,"SB/ring.png",320,240 S,0,41905,42025,0,0.6 M,0,41965,,309,66 P,0,41965,42745,A S,0,42025,42745,0.6,0.8 F,0,42265,42745,0.5,0
Sprite,Foreground,Centre,"SB/ring.png",320,240 S,0,42865,42985,0,0.6 M,0,42925,,461,221 P,0,42925,43705,A S,0,42985,43705,0.6,0.8 F,0,43225,43705,0.5,0
Sprite,Foreground,Centre,"SB/ring.png",320,240 S,0,43225,43345,0,0.6 M,0,43285,,343,340 P,0,43285,44065,A S,0,43345,44065,0.6,0.8 F,0,43585,44065,0.5,0
Sprite,Foreground,Centre,"SB/ring.png",320,240 S,0,43465,43585,0,0.6 M,0,43525,,202,378 P,0,43525,44305,A S,0,43585,44305,0.6,0.8 F,0,43825,44305,0.5,0
Sprite,Foreground,Centre,"SB/ring.png",320,240 S,0,43585,43705,0,0.6 M,0,43645,,102,306 P,0,43645,44425,A S,0,43705,44425,0.6,0.8 F,0,43945,44425,0.5,0
Sprite,Foreground,Centre,"SB/ring.png",320,240 S,0,43705,43825,0,0.6 M,0,43765,,213,257 P,0,43765,44545,A S,0,43825,44545,0.6,0.8 F,0,44065,44545,0.5,0
Sprite,Foreground,Centre,"SB/ring.png",320,240 S,0,43825,43945,0,0.6 M,0,43885,,312,408 P,0,43885,44665,A S,0,43945,44665,0.6,0.8 F,0,44185,44665,0.5,0
Sprite,Foreground,Centre,"SB/ring.png",320,240 S,0,47665,47785,0,0.6 M,0,47725,,219,244 P,0,47725,48505,A S,0,47785,48505,0.6,0.8 F,0,48025,48505,0.5,0
Sprite,Foreground,Centre,"SB/ring.png",320,240 S,0,49585,49705,0,0.6 M,0,49645,,319,107 P,0,49645,50425,A S,0,49705,50425,0.6,0.8 F,0,49945,50425,0.5,0
Sprite,Foreground,Centre,"SB/ring.png",320,240 S,0,55345,55465,0,0.6 M,0,55405,,530,260 P,0,55405,56185,A S,0,55465,56185,0.6,0.8 F,0,55705,56185,0.5,0
Sprite,Foreground,Centre,"SB/ring.png",320,240 S,0,57265,57385,0,0.6 M,0,57325,,318,341 P,0,57325,58105,A S,0,57385,58105,0.6,0.8 F,0,57625,58105,0.5,0
Sprite,Foreground,Centre,"SB/ring.png",320,240 S,0,59185,59305,0,0.6 M,0,59245,,487,363 P,0,59245,60025,A S,0,59305,60025,0.6,0.8 F,0,59545,60025,0.5,0
Sprite,Foreground,Centre,"SB/ring.png",320,240 S,0,63025,63145,0,0.6 M,0,63085,,287,92 P,0,63085,63865,A S,0,63145,63865,0.6,0.8 F,0,63385,63865,0.5,0
Sprite,Foreground,Centre,"SB/ring.png",320,240 S,0,65065,65185,0,0.6 M,0,65125,,80,118 P,0,65125,65905,A S,0,65185,65905,0.6,0.8 F,0,65425,65905,0.5,0
Sprite,Foreground,Centre,"SB/ring.png",320,240 S,0,66865,66985,0,0.6 M,0,66925,,257,335 P,0,66925,67705,A S,0,66985,67705,0.6,0.8 F,0,67225,67705,0.5,0
Sprite,Foreground,Centre,"SB/ring.png",320,240 S,0,86065,86185,0,0.6 M,0,86125,,475,307 P,0,86125,86905,A S,0,86185,86905,0.6,0.8 F,0,86425,86905,0.5,0
Sprite,Foreground,Centre,"SB/ring.png",320,240 S,0,89905,90025,0,0.6 M,0,89965,,190,378 P,0,89965,90745,A S,0,90025,90745,0.6,0.8 F,0,90265,90745,0.5,0
Sprite,Foreground,Centre,"SB/ring.png",320,240 S,0,93745,93865,0,0.6 M,0,93805,,434,307 P,0,93805,94585,A S,0,93865,94585,0.6,0.8 F,0,94105,94585,0.5,0
Sprite,Foreground,Centre,"SB/ring.png",320,240 S,0,97585,97705,0,0.6 M,0,97645,,283,317 P,0,97645,98425,A S,0,97705,98425,0.6,0.8 F,0,97945,98425,0.5,0
Sprite,Foreground,Centre,"SB/ring.png",320,240 S,0,103345,103465,0,0.6 M,0,103405,,187,347 P,0,103405,104185,A S,0,103465,104185,0.6,0.8 F,0,103705,104185,0.5,0
Sprite,Foreground,Centre,"SB/ring.png",320,240 S,0,107185,107305,0,0.6 M,0,107245,,332,122 P,0,107245,108025,A S,0,107305,108025,0.6,0.8 F,0,107545,108025,0.5,0
Sprite,Foreground,Centre,"SB/ring.png",320,240 S,0,109105,109225,0,0.6 M,0,109165,,263,165 P,0,109165,109945,A S,0,109225,109945,0.6,0.8 F,0,109465,109945,0.5,0
Sprite,Foreground,Centre,"SB/ring.png",320,240 S,0,110185,110305,0,0.6 M,0,110245,,73,315 P,0,110245,111025,A S,0,110305,111025,0.6,0.8 F,0,110545,111025,0.5,0
Sprite,Foreground,Centre,"SB/ring.png",320,240 S,0,110425,110545,0,0.6 M,0,110485,,236,363 P,0,110485,111265,A S,0,110545,111265,0.6,0.8 F,0,110785,111265,0.5,0
Sprite,Foreground,Centre,"SB/ring.png",320,240 S,0,110665,110785,0,0.6 M,0,110725,,408,180 P,0,110725,111505,A S,0,110785,111505,0.6,0.8 F,0,111025,111505,0.5,0
Sprite,Foreground,Centre,"SB/ring.png",320,240 S,0,110785,110905,0,0.6 M,0,110845,,162,224 P,0,110845,111625,A S,0,110905,111625,0.6,0.8 F,0,111145,111625,0.5,0
Sprite,Foreground,Centre,"SB/ring.png",320,240 S,0,110905,111025,0,0.6 M,0,110965,,403,353 P,0,110965,111745,A S,0,111025,111745,0.6,0.8 F,0,111265,111745,0.5,0
Sprite,Foreground,Centre,"SB/ring.png",320,240 S,0,111025,111145,0,0.6 M,0,111085,,164,408 P,0,111085,111865,A S,0,111145,111865,0.6,0.8 F,0,111385,111865,0.5,0
Sprite,Foreground,Centre,"SB/ring.png",320,240 S,0,114865,114985,0,0.6 M,0,114925,,213,90 P,0,114925,115705,A S,0,114985,115705,0.6,0.8 F,0,115225,115705,0.5,0
Sprite,Foreground,Centre,"SB/ring.png",320,240 S,0,116785,116905,0,0.6 M,0,116845,,125,92 P,0,116845,117625,A S,0,116905,117625,0.6,0.8 F,0,117145,117625,0.5,0
Sprite,Foreground,Centre,"SB/ring.png",320,240 S,0,163831,163951,0,0.6 M,0,163891,,216,301 P,0,163891,164671,A S,0,163951,164671,0.6,0.8 F,0,164191,164671,0.5,0
Sprite,Foreground,Centre,"SB/ring.png",320,240 S,0,171151,171271,0,0.6 M,0,171211,,554,91 P,0,171211,171991,A S,0,171271,171991,0.6,0.8 F,0,171511,171991,0.5,0
Sprite,Foreground,Centre,"SB/ring.png",320,240 S,0,171271,171391,0,0.6 M,0,171331,,401,87 P,0,171331,172111,A S,0,171391,172111,0.6,0.8 F,0,171631,172111,0.5,0
Sprite,Foreground,Centre,"SB/ring.png",320,240 S,0,171391,171511,0,0.6 M,0,171451,,248,81 P,0,171451,172231,A S,0,171511,172231,0.6,0.8 F,0,171751,172231,0.5,0
Sprite,Foreground,Centre,"SB/ring.png",320,240 S,0,171511,171631,0,0.6 M,0,171571,,95,76 P,0,171571,172351,A S,0,171631,172351,0.6,0.8 F,0,171871,172351,0.5,0
Sprite,Foreground,Centre,"SB/ring.png",320,240 S,0,175351,175471,0,0.6 M,0,175411,,269,406 P,0,175411,176191,A S,0,175471,176191,0.6,0.8 F,0,175711,176191,0.5,0
Sprite,Foreground,Centre,"SB/ring.png",320,240 S,0,181111,181231,0,0.6 M,0,181171,,314,410 P,0,181171,181951,A S,0,181231,181951,0.6,0.8 F,0,181471,181951,0.5,0
Sprite,Foreground,Centre,"SB/ring.png",320,240 S,0,184951,185071,0,0.6 M,0,185011,,370,420 P,0,185011,185791,A S,0,185071,185791,0.6,0.8 F,0,185311,185791,0.5,0
Sprite,Foreground,Centre,"SB/ring.png",320,240 S,0,186871,186991,0,0.6 M,0,186931,,346,290 P,0,186931,187711,A S,0,186991,187711,0.6,0.8 F,0,187231,187711,0.5,0
Sprite,Foreground,Centre,"SB/ring.png",320,240 S,0,187951,188071,0,0.6 M,0,188011,,428,334 P,0,188011,188791,A S,0,188071,188791,0.6,0.8 F,0,188311,188791,0.5,0
Sprite,Foreground,Centre,"SB/ring.png",320,240 S,0,188191,188311,0,0.6 M,0,188251,,311,267 P,0,188251,189031,A S,0,188311,189031,0.6,0.8 F,0,188551,189031,0.5,0
Sprite,Foreground,Centre,"SB/ring.png",320,240 S,0,188431,188551,0,0.6 M,0,188491,,375,111 P,0,188491,189271,A S,0,188551,189271,0.6,0.8 F,0,188791,189271,0.5,0
Sprite,Foreground,Centre,"SB/ring.png",320,240 S,0,188551,188671,0,0.6 M,0,188611,,376,331 P,0,188611,189391,A S,0,188671,189391,0.6,0.8 F,0,188911,189391,0.5,0
Sprite,Foreground,Centre,"SB/ring.png",320,240 S,0,188671,188791,0,0.6 M,0,188731,,188,225 P,0,188731,189511,A S,0,188791,189511,0.6,0.8 F,0,189031,189511,0.5,0
Sprite,Foreground,Centre,"SB/ring.png",320,240 S,0,188791,188911,0,0.6 M,0,188851,,379,115 P,0,188851,189631,A S,0,188911,189631,0.6,0.8 F,0,189151,189631,0.5,0
Sprite,Foreground,Centre,"SB/ring.png",320,240 S,0,192631,192751,0,0.6 M,0,192691,,242,93 P,0,192691,193471,A S,0,192751,193471,0.6,0.8 F,0,192991,193471,0.5,0
Sprite,Foreground,Centre,"SB/highlight.png",320,240 M,0,101575,,248,418 C,0,101575,,105,105,105 F,0,101575,101605,0,1 F,0,101605,102085,1,0 P,0,101605,102085,A
Sprite,Foreground,Centre,"SB/highlight.png",320,240 M,0,101655,,296,403 C,0,101655,,105,105,105 F,0,101655,101685,0,1 F,0,101685,102165,1,0 P,0,101685,102165,A
Sprite,Foreground,Centre,"SB/highlight.png",320,240 M,0,101735,,326,362 C,0,101735,,105,105,105 F,0,101735,101765,0,1 F,0,101765,102245,1,0 P,0,101765,102245,A
Sprite,Foreground,Centre,"SB/highlight.png",320,240 M,0,101815,,327,311 C,0,101815,,105,105,105 F,0,101815,101845,0,1 F,0,101845,102325,1,0 P,0,101845,102325,A
Sprite,Foreground,Centre,"SB/highlight.png",320,240 M,0,101895,,302,266 C,0,101895,,105,105,105 F,0,101895,101925,0,1 F,0,101925,102405,1,0 P,0,101925,102405,A
Sprite,Foreground,Centre,"SB/highlight.png",320,240 M,0,101975,,261,235 C,0,101975,,105,105,105 F,0,101975,102005,0,1 F,0,102005,102485,1,0 P,0,102005,102485,A
Sprite,Foreground,Centre,"SB/highlight.png",320,240 M,0,102055,,242,187 C,0,102055,,105,105,105 F,0,102055,102085,0,1 F,0,102085,102565,1,0 P,0,102085,102565,A
Sprite,Foreground,Centre,"SB/highlight.png",320,240 M,0,102135,,256,136 C,0,102135,,105,105,105 F,0,102135,102165,0,1 F,0,102165,102645,1,0 P,0,102165,102645,A
Sprite,Foreground,Centre,"SB/highlight.png",320,240 M,0,102215,,292,100 C,0,102215,,105,105,105 F,0,102215,102245,0,1 F,0,102245,102725,1,0 P,0,102245,102725,A
Sprite,Foreground,Centre,"SB/highlight.png",320,240 M,0,102295,,342,97 C,0,102295,,105,105,105 F,0,102295,102325,0,1 F,0,102325,102805,1,0 P,0,102325,102805,A
Sprite,Foreground,Centre,"SB/highlight.png",320,240 M,0,102375,,388,118 C,0,102375,,105,105,105 F,0,102375,102405,0,1 F,0,102405,102885,1,0 P,0,102405,102885,A
Sprite,Foreground,Centre,"SB/highlight.png",320,240 M,0,102455,,418,158 C,0,102455,,105,105,105 F,0,102455,102485,0,1 F,0,102485,102965,1,0 P,0,102485,102965,A
Sprite,Foreground,Centre,"SB/highlight.png",320,240 M,0,102535,,414,208 C,0,102535,,221,0,0 F,0,102535,102565,0,1 F,0,102565,103045,1,0 P,0,102565,103045,A
Sprite,Foreground,Centre,"SB/highlight.png",320,240 M,0,102595,,411,233 C,0,102595,,221,0,0 F,0,102595,102625,0,1 F,0,102625,103105,1,0 P,0,102625,103105,A
Sprite,Foreground,Centre,"SB/highlight.png",320,240 M,0,102655,,411,258 C,0,102655,,221,0,0 F,0,102655,102685,0,1 F,0,102685,103165,1,0 P,0,102685,103165,A
Sprite,Foreground,Centre,"SB/highlight.png",320,240 M,0,102715,,409,283 C,0,102715,,221,0,0 F,0,102715,102745,0,1 F,0,102745,103225,1,0 P,0,102745,103225,A
Sprite,Foreground,Centre,"SB/highlight.png",320,240 M,0,102775,,406,308 C,0,102775,,221,0,0 F,0,102775,102805,0,1 F,0,102805,103285,1,0 P,0,102805,103285,A
Sprite,Foreground,Centre,"SB/highlight.png",320,240 M,0,102835,,402,333 C,0,102835,,221,0,0 F,0,102835,102865,0,1 F,0,102865,103345,1,0 P,0,102865,103345,A
Sprite,Foreground,Centre,"SB/highlight.png",320,240 M,0,102895,,398,358 C,0,102895,,221,0,0 F,0,102895,102925,0,1 F,0,102925,103405,1,0 P,0,102925,103405,A
Sprite,Foreground,Centre,"SB/highlight.png",320,240 M,0,102955,,396,383 C,0,102955,,221,0,0 F,0,102955,102985,0,1 F,0,102985,103465,1,0 P,0,102985,103465,A
Sprite,Foreground,Centre,"SB/highlight.png",320,240 M,0,103015,,393,408 C,0,103015,,221,0,0 F,0,103015,103045,0,1 M,0,103045,,393,408 M,0,103045,103165,393,408,345,401 P,0,103045,103765,A M,0,103165,103285,345,401,306,395 F,0,103285,103765,1,0
Sprite,Foreground,Centre,"SB/highlight.png",320,240 M,0,162061,,360,240 C,0,162061,,105,105,105 F,0,162061,162091,0,1 F,0,162091,162571,1,0 P,0,162091,162571,A
Sprite,Foreground,Centre,"SB/highlight.png",320,240 M,0,162141,,384,201 C,0,162141,,105,105,105 F,0,162141,162171,0,1 F,0,162171,162651,1,0 P,0,162171,162651,A
Sprite,Foreground,Centre,"SB/highlight.png",320,240 M,0,162221,,371,157 C,0,162221,,105,105,105 F,0,162221,162251,0,1 F,0,162251,162731,1,0 P,0,162251,162731,A
Sprite,Foreground,Centre,"SB/highlight.png",320,240 M,0,162301,,334,130 C,0,162301,,105,105,105 F,0,162301,162331,0,1 F,0,162331,162811,1,0 P,0,162331,162811,A
Sprite,Foreground,Centre,"SB/highlight.png",320,240 M,0,162381,,288,133 C,0,162381,,105,105,105 F,0,162381,162411,0,1 F,0,162411,162891,1,0 P,0,162411,162891,A
Sprite,Foreground,Centre,"SB/highlight.png",320,240 M,0,162461,,254,163 C,0,162461,,105,105,105 F,0,162461,162491,0,1 F,0,162491,162971,1,0 P,0,162491,162971,A
Sprite,Foreground,Centre,"SB/highlight.png",320,240 M,0,162541,,250,208 C,0,162541,,187,187,0 F,0,162541,162571,0,1 F,0,162571,163051,1,0 P,0,162571,163051,A
Sprite,Foreground,Centre,"SB/highlight.png",320,240 M,0,162621,,267,249 C,0,162621,,187,187,0 F,0,162621,162651,0,1 F,0,162651,163131,1,0 P,0,162651,163131,A
Sprite,Foreground,Centre,"SB/highlight.png",320,240 M,0,162701,,287,289 C,0,162701,,187,187,0 F,0,162701,162731,0,1 F,0,162731,163211,1,0 P,0,162731,163211,A
Sprite,Foreground,Centre,"SB/highlight.png",320,240 M,0,162781,,284,334 C,0,162781,,187,187,0 F,0,162781,162811,0,1 F,0,162811,163291,1,0 P,0,162811,163291,A
Sprite,Foreground,Centre,"SB/highlight.png",320,240 M,0,162861,,257,370 C,0,162861,,187,187,0 F,0,162861,162891,0,1 F,0,162891,163371,1,0 P,0,162891,163371,A
Sprite,Foreground,Centre,"SB/highlight.png",320,240 M,0,162941,,214,385 C,0,162941,,187,187,0 F,0,162941,162971,0,1 F,0,162971,163451,1,0 P,0,162971,163451,A
Sprite,Foreground,Centre,"SB/highlight.png",320,240 M,0,163021,,171,368 C,0,163021,,221,0,0 F,0,163021,163051,0,1 M,0,163051,,171,368 M,0,163051,163091,171,368,160,340 P,0,163051,163611,A M,0,163091,163131,160,340,156,312 F,0,163131,163611,1,0
Sprite,Foreground,Centre,"SB/highlight.png",320,240 M,0,163181,,173,142 C,0,163181,,221,0,0 F,0,163181,163211,0,1 M,0,163211,,173,142 M,0,163211,163251,173,142,180,168 P,0,163211,163771,A M,0,163251,163291,180,168,184,196 F,0,163291,163771,1,0
Sprite,Foreground,Centre,"SB/highlight.png",320,240 M,0,163341,,132,357 C,0,163341,,225,243,247 F,0,163341,163371,0,1 M,0,163371,,132,357 M,0,163371,163411,132,357,128,352 P,0,163371,163931,A M,0,163411,163451,128,352,136,300 F,0,163451,163931,1,0
Sprite,Foreground,Centre,"SB/highlight.png",320,240 M,0,163501,,212,140 C,0,163501,,225,243,247 F,0,163501,163531,0,1 M,0,163531,,212,140 M,0,163531,163571,212,140,212,168 P,0,163531,164091,A M,0,163571,163611,212,168,204,192 F,0,163611,164091,1,0
Sprite,Foreground,Centre,"SB/highlight.png",320,240 M,0,163661,,94,338 C,0,163661,,105,105,105 F,0,163661,163691,0,1 M,0,163691,,94,338 M,0,163691,163731,94,338,96,308 P,0,163691,164251,A M,0,163731,163771,96,308,116,283 F,0,163771,164251,1,0
Sprite,Foreground,Centre,"SB/highlight.png",320,240 M,0,179341,,187,176 C,0,179341,,225,243,247 F,0,179341,179371,0,1 M,0,179371,,187,176 M,0,179371,179411,187,176,174,198 P,0,179371,179931,A M,0,179411,179451,174,198,169,231 F,0,179451,179931,1,0
Sprite,Foreground,Centre,"SB/highlight.png",320,240 M,0,179501,,167,321 C,0,179501,,225,243,247 F,0,179501,179531,0,1 M,0,179531,,167,321 M,0,179531,179571,167,321,196,317 P,0,179531,180091,A M,0,179571,179611,196,317,223,306 F,0,179611,180091,1,0
Sprite,Foreground,Centre,"SB/highlight.png",320,240 M,0,179661,,303,270 C,0,179661,,225,243,247 F,0,179661,179691,0,1 M,0,179691,,303,270 M,0,179691,179731,303,270,287,242 P,0,179691,180251,A M,0,179731,179771,287,242,264,228 F,0,179771,180251,1,0
Sprite,Foreground,Centre,"SB/highlight.png",320,240 M,0,179821,,308,366 C,0,179821,,105,105,105 F,0,179821,179851,0,1 M,0,179851,,308,366 M,0,179851,179891,308,366,331,382 P,0,179851,180411,A M,0,179891,179931,331,382,359,384 F,0,179931,180411,1,0
Sprite,Foreground,Centre,"SB/highlight.png",320,240 M,0,179981,,416,240 C,0,179981,,105,105,105 F,0,179981,180011,0,1 M,0,180011,,416,240 M,0,180011,180051,416,240,391,252 P,0,180011,180571,A M,0,180051,180091,391,252,375,275 F,0,180091,180571,1,0
Sprite,Foreground,Centre,"SB/highlight.png",320,240 M,0,180141,,467,397 C,0,180141,,105,105,105 F,0,180141,180171,0,1 M,0,180171,,467,397 M,0,180171,180211,467,397,469,369 P,0,180171,180731,A M,0,180211,180251,469,369,457,344 F,0,180251,180731,1,0
Sprite,Foreground,Centre,"SB/highlight.png",320,240 M,0,180301,,366,188 C,0,180301,,187,187,0 F,0,180301,180331,0,1 F,0,180331,180811,1,0 P,0,180331,180811,A
Sprite,Foreground,Centre,"SB/highlight.png",320,240 M,0,180361,,342,172 C,0,180361,,187,187,0 F,0,180361,180391,0,1 F,0,180391,180871,1,0 P,0,180391,180871,A
Sprite,Foreground,Centre,"SB/highlight.png",320,240 M,0,180421,,314,164 C,0,180421,,187,187,0 F,0,180421,180451,0,1 F,0,180451,180931,1,0 P,0,180451,180931,A
Sprite,Foreground,Centre,"SB/highlight.png",320,240 M,0,180481,,286,168 C,0,180481,,187,187,0 F,0,180481,180511,0,1 F,0,180511,180991,1,0 P,0,180511,180991,A
Sprite,Foreground,Centre,"SB/highlight.png",320,240 M,0,180541,,258,184 C,0,180541,,187,187,0 F,0,180541,180571,0,1 F,0,180571,181051,1,0 P,0,180571,181051,A
Sprite,Foreground,Centre,"SB/highlight.png",320,240 M,0,180601,,238,208 C,0,180601,,187,187,0 F,0,180601,180631,0,1 F,0,180631,181111,1,0 P,0,180631,181111,A
Sprite,Foreground,Centre,"SB/highlight.png",320,240 M,0,180661,,230,236 C,0,180661,,187,187,0 F,0,180661,180691,0,1 F,0,180691,181171,1,0 P,0,180691,181171,A
Sprite,Foreground,Centre,"SB/highlight.png",320,240 M,0,180721,,234,264 C,0,180721,,187,187,0 F,0,180721,180751,0,1 F,0,180751,181231,1,0 P,0,180751,181231,A
Sprite,Foreground,Centre,"SB/highlight.png",320,240 M,0,180781,,246,292 C,0,180781,,187,187,0 F,0,180781,180811,0,1 M,0,180811,,246,292 M,0,180811,180931,246,292,256,332 P,0,180811,181531,A M,0,180931,181051,256,332,273,373 F,0,181051,181531,1,0
//Storyboard Sound Samples

[TimingPoints]
1611,600,4,1,1,60,1,0
10911,266.666666666667,4,1,1,60,1,8
11041,266.666666666667,4,1,1,60,1,0
12107,260.869565217391,4,1,1,60,1,0
13150,255.31914893617,4,1,1,60,1,0
14171,250,4,1,1,60,1,0
16171,240,4,1,1,60,1,0
17038,262.008733624454,4,1,1,60,1,0
18085,240,4,1,1,80,1,0
18925,-100,4,1,1,70,0,0
30565,-100,4,1,1,75,0,0
31045,-100,4,1,1,80,0,0
31525,-100,4,1,1,85,0,0
32005,-100,4,1,1,75,0,0
34285,-83.3333333333333,4,1,1,75,0,0
35365,-100,4,1,1,80,0,0
36205,-100,4,1,1,80,0,1
51565,-100,4,1,1,70,0,0
63085,-100,4,1,1,70,0,0
68965,-100,4,1,1,50,0,0
69445,-100,4,3,1,70,0,0
70725,-76.9230769230769,4,1,1,80,0,0
71005,-100,4,1,1,80,0,0
72685,-76.9230769230769,4,1,1,80,0,0
72925,-100,4,1,1,80,0,0
74605,-100,4,1,1,60,0,0
76525,-100,4,1,1,70,0,0
78145,-100,4,1,1,20,0,0
78205,-100,4,1,1,70,0,0
78265,-100,4,1,1,20,0,0
78325,-100,4,1,1,70,0,0
78385,-100,4,1,1,20,0,0
78445,-100,4,1,1,75,0,0
80365,-100,4,1,1,80,0,0
83545,-100,4,1,1,20,0,0
83605,-100,4,1,1,80,0,0
84025,-100,4,1,1,20,0,0
84085,-100,4,1,1,80,0,0
86125,-100,4,1,1,85,0,0
86365,-100,4,1,1,75,0,0
88045,-100,4,1,1,70,0,0
93445,-100,4,3,1,70,0,0
93805,-100,4,1,1,70,0,0
101605,-100,4,3,1,75,0,0
102085,-100,4,3,1,80,0,0
102565,-100,4,1,1,50,0,0
102805,-100,4,1,1,60,0,0
103045,-200,4,1,1,70,0,0
103285,-200,4,1,1,20,0,0
103405,-100,4,1,1,90,0,1
103645,-100,4,1,1,80,0,1
113125,-100,4,1,1,70,0,1
113365,-100,4,1,1,65,0,1
113605,-100,4,1,1,55,0,1
113845,-100,4,1,1,50,0,1
114085,-100,4,1,1,40,0,1
114325,-100,4,1,1,35,0,1
114565,-100,4,1,1,80,0,1
117325,-100,4,1,1,60,0,1
117805,-100,4,1,1,50,0,1
118285,-100,4,1,1,45,0,1
119011,521.739130434783,4,2,2,40,1,0
119011,-125,4,2,2,40,0,0
126315,-66.6666666666667,4,2,2,40,0,0
127358,-133.333333333333,4,2,2,40,0,0
134011,-133.333333333333,4,2,2,40,0,0
134402,-133.333333333333,4,2,2,40,0,0
134924,-133.333333333333,4,2,2,40,0,0
135445,-133.333333333333,4,2,2,40,0,0
135706,-133.333333333333,4,2,2,40,0,0
137271,-133.333333333333,4,2,2,30,0,0
137793,-133.333333333333,4,2,2,40,0,0
139358,-133.333333333333,4,2,2,30,0,0
139880,-133.333333333333,4,2,2,40,0,0
141445,-133.333333333333,4,2,2,30,0,0
141967,-133.333333333333,4,2,2,40,0,0
143532,-133.333333333333,4,2,2,30,0,0
144054,-133.333333333333,4,2,2,40,0,0
148228,560.747663551402,4,2,2,45,1,0
151592,588.235294117647,4,2,2,40,1,8
152768,594.059405940594,4,2,2,35,1,0
153956,681.818181818182,4,2,2,30,1,8
155319,750,4,2,2,25,1,0
156069,681.818181818182,4,2,2,25,1,8
156750,705.882352941176,4,2,2,25,1,8
157455,681.818181818182,4,2,2,25,1,8
158136,1153.84615384615,4,2,2,20,1,0
158136,-200,4,2,2,20,0,0
159289,-200,4,2,2,5,0,0
160051,240,4,2,1,20,1,8
162091,240,4,1,1,35,1,0
162571,-100,4,3,1,45,0,0
163051,-100,4,3,1,65,0,0
163891,-100,4,1,1,70,0,0
164911,-100,4,1,1,20,0,0
164971,-100,4,1,1,70,0,0
179371,-100,4,3,1,70,0,0
179971,-100,4,3,1,75,0,0
180331,-100,4,1,1,50,0,0
180811,-200,4,1,1,70,0,0
181171,-100,4,1,1,90,0,1
194611,-200,4,1,1,90,0,0
194731,-200,4,1,1,70,0,0
194971,-200,4,1,1,50,0,0
195211,-200,4,1,1,35,0,0
195451,-200,4,1,1,20,0,0
195691,-100,4,2,2,30,0,0
195811,-100,4,2,2,40,0,0
195931,-100,4,2,2,50,0,0
196051,-100,4,2,2,60,0,0
196171,-100,4,2,2,70,0,0
196291,-100,4,2,2,80,0,0
196411,-100,4,2,2,90,0,0
196531,-100,4,2,2,100,0,1
196591,-100,4,2,2,100,0,0

[Colours]
Combo1 : 187,187,0
Combo2 : 221,0,0
Combo3 : 225,243,247
Combo4 : 105,105,105

[HitObjects]
302,263,18085,5,8,0:0:0:0:
293,248,18205,1,8,0:0:0:0:
294,231,18325,1,8,0:0:0:0:
300,215,18445,1,8,0:0:0:0:
320,187,18565,1,8,0:0:0:0:
353,148,18685,1,8,0:0:0:0:
359,80,18805,1,8,0:0:0:0:
293,26,18925,6,0,B|199:4|199:4|94:44,1,170
29,116,19285,2,0,L|43:237,1,85,8|0,0:0|0:0,0:0:0:0:
281,238,19525,2,0,L|270:139,1,85,2|0,0:0|0:0,0:0:0:0:
127,249,19765,2,0,L|137:353,1,85,8|0,0:0|0:0,0:0:0:0:
365,260,20005,5,2,0:0:0:0:
272,154,20125,1,0,0:0:0:0:
312,316,20245,2,0,P|348:337|390:334,1,85,8|0,0:0|0:0,0:0:0:0:
272,154,20485,2,0,P|219:174|188:209,1,85,2|0,0:0|0:0,0:0:0:0:
424,188,20725,1,8,0:0:0:0:
424,188,20845,6,0,B|475:130|475:130|472:22,1,170
375,2,21205,2,0,P|321:42|310:74,1,85,8|0,0:0|0:0,0:0:0:0:
282,232,21445,2,0,P|333:202|349:167,1,85,2|0,0:0|0:0,0:0:0:0:
226,88,21685,2,0,L|126:77,1,85,8|0,0:0|0:0,0:0:0:0:
15,202,21925,6,0,B|-18:249|18:312|18:312|85:333,1,170,2|8,0:0|0:0,0:0:0:0:
156,273,22285,1,0,0:0:0:0:
211,351,22405,2,0,L|326:323,2,85,2|0|0,0:0|0:0|0:0,0:0:0:0:
294,168,22765,6,0,P|273:237|294:332,1,170,4|0,0:0|0:0,0:0:0:0:
381,211,23125,2,0,P|392:169|380:125,1,85,8|0,0:0|0:0,0:0:0:0:
221,65,23365,2,0,P|205:104|213:149,1,85,2|0,0:0|0:0,0:0:0:0:
381,211,23605,2,0,B|484:190,1,85,8|0,0:0|0:0,0:0:0:0:
375,352,23845,6,0,B|279:327,1,85,2|0,0:0|0:0,0:0:0:0:
227,225,24085,2,0,B|131:200,1,85,8|0,0:0|0:0,0:0:0:0:
47,334,24325,1,0,0:0:0:0:
115,191,24445,1,0,0:0:0:0:
208,349,24565,1,0,0:0:0:0:
295,193,24685,6,0,P|307:131|267:26,1,170,4|0,0:0|0:0,0:0:0:0:
161,27,25045,2,0,L|65:37,1,85,8|0,0:0|0:0,0:0:0:0:
211,208,25285,2,0,L|325:187,1,85,2|0,0:0|0:0,0:0:0:0:
112,120,25525,2,0,L|6:133,1,85,8|0,0:0|0:0,0:0:0:0:
280,295,25765,6,0,L|394:274,1,85,2|0,0:0|0:0,0:0:0:0:
482,79,26005,2,0,L|368:100,1,85,8|0,0:0|0:0,0:0:0:0:
294,192,26245,1,10,0:0:0:0:
324,42,26365,1,8,0:0:0:0:
386,237,26485,1,8,0:0:0:0:
222,49,26605,6,0,P|194:168|227:229,1,170,4|0,0:0|0:0,0:0:0:0:
341,299,26965,2,0,P|374:309|442:289,1,85,8|0,0:0|0:0,0:0:0:0:
427,160,27205,2,0,P|394:150|326:170,1,85,2|0,0:0|0:0,0:0:0:0:
264,270,27445,2,0,L|255:370,1,85,8|0,0:0|0:0,0:0:0:0:
97,205,27685,6,0,L|87:9,1,170,2|0,0:0|0:0,0:0:0:0:
208,24,28045,1,0,0:0:0:0:
287,163,28165,1,2,0:0:0:0:
315,15,28285,1,0,0:0:0:0:
168,144,28405,1,8,0:0:0:0:
306,260,28525,6,0,B|359:280|359:280|395:315|395:315|469:335,1,170
367,187,28885,2,0,P|319:164|273:168,1,85,8|0,0:0|0:0,0:0:0:0:
168,224,29125,2,0,L|180:309,1,85,2|0,0:0|0:0,0:0:0:0:
317,344,29365,2,0,L|303:237,1,85,8|0,0:0|0:0,0:0:0:0:
156,59,29605,6,0,L|169:157,1,85,2|0,0:0|0:0,0:0:0:0:
18,176,29845,2,0,L|31:259,1,85,8|0,0:0|0:0,0:0:0:0:
130,366,30085,2,0,P|171:382|219:375,1,85,2|0,0:0|0:0,0:0:0:0:
258,255,30325,1,8,0:0:0:0:
429,322,30445,1,4,0:0:0:0:
429,322,30505,1,0,0:0:0:0:
429,322,30565,6,4,P|450:272|430:218,1,85,2|0,0:0|0:0,0:0:0:0:
253,56,30805,2,0,B|240:97|240:97|264:160,1,85,8|0,0:0|0:0,0:0:0:0:
412,148,31045,2,0,B|430:112|430:112|418:29,1,85,2|0,0:0|0:0,0:0:0:0:
184,218,31285,2,0,P|177:268|192:308,1,85,8|0,0:0|0:0,0:0:0:0:
370,273,31525,5,2,0:0:0:0:
258,255,31645,1,0,0:0:0:0:
332,154,31765,1,8,0:0:0:0:
299,327,31885,1,0,0:0:0:0:
140,300,32005,2,0,L|29:281,1,85,2|0,0:0|0:0,0:0:0:0:
29,160,32245,1,8,0:0:0:0:
197,35,32365,6,0,P|278:28|342:98,1,170
149,196,32725,2,0,B|130:156|130:156|132:112,1,85,8|0,0:0|0:0,0:0:0:0:
329,168,32965,2,0,B|324:216|324:216|302:251,1,85,8|0,0:0|0:0,0:0:0:0:
201,353,33205,2,0,P|175:303|176:260,1,85,8|0,0:0|0:0,0:0:0:0:
334,88,33445,6,0,B|437:69,1,85,8|0,0:0|0:0,0:0:0:0:
227,274,33685,2,0,L|322:255,1,85,8|0,0:0|0:0,0:0:0:0:
71,140,33925,2,0,L|164:121,1,85,8|0,0:0|0:0,0:0:0:0:
349,252,34165,1,8,0:0:0:0:
345,38,34285,5,0,0:0:0:0:
345,38,34345,1,0,0:0:0:0:
345,38,34405,2,0,P|289:23|227:48,1,101.999996887207,10|0,0:0|0:0,0:0:0:0:
45,107,34645,1,0,0:0:0:0:
140,195,34765,2,0,L|256:176,1,101.999996887207,10|0,0:0|0:0,0:0:0:0:
482,268,35005,1,0,0:0:0:0:
375,335,35125,2,0,L|250:297,1,101.999996887207,10|0,0:0|0:0,0:0:0:0:
140,195,35365,5,10,0:0:0:0:
304,102,35485,1,8,0:0:0:0:
235,274,35605,1,8,0:0:0:0:
179,95,35725,1,8,0:0:0:0:
336,212,35845,1,12,0:0:0:0:
336,212,36085,1,0,0:0:0:0:
140,195,36205,6,0,B|99:143|99:143|108:20,1,170,4|0,0:0|0:0,0:0:0:0:
216,20,36565,2,0,P|260:62|263:97,1,85,8|0,0:0|0:0,0:0:0:0:
126,286,36805,2,0,P|82:266|50:218,1,85,2|0,0:0|0:0,0:0:0:0:
221,184,37045,2,0,L|325:192,1,85,8|0,0:0|0:0,0:0:0:0:
436,347,37285,5,2,0:0:0:0:
320,287,37405,1,0,0:0:0:0:
441,223,37525,2,0,P|457:167|449:127,1,85,8|0,0:0|0:0,0:0:0:0:
230,139,37765,1,2,0:0:0:0:
230,139,37885,1,0,0:0:0:0:
353,29,38005,1,8,0:0:0:0:
298,223,38125,6,0,P|246:245|125:210,1,170,4|0,0:0|0:0,0:0:0:0:
138,221,38485,2,0,L|145:115,1,85,8|0,0:0|0:0,0:0:0:0:
353,29,38725,2,0,L|340:125,1,85,2|0,0:0|0:0,0:0:0:0:
377,316,38965,2,0,P|418:338|485:319,1,85,8|0,0:0|0:0,0:0:0:0:
298,223,39205,6,0,P|277:260|272:302,1,85,2|0,0:0|0:0,0:0:0:0:
439,221,39445,2,0,L|420:115,1,85,8|0,0:0|0:0,0:0:0:0:
252,76,39685,1,2,0:0:0:0:
298,223,39805,1,0,0:0:0:0:
349,28,39925,1,8,0:0:0:0:
135,44,40045,6,0,B|59:78|59:78|37:170,1,170
192,246,40405,2,0,P|151:252|111:239,1,85,8|0,0:0|0:0,0:0:0:0:
273,145,40645,2,0,P|313:141|355:161,1,85,2|0,0:0|0:0,0:0:0:0:
328,324,40885,1,8,0:0:0:0:
445,175,41005,1,0,0:0:0:0:
490,331,41125,6,0,B|392:353|392:353|297:311,1,170,2|8,0:0|0:0,0:0:0:0:
349,77,41605,2,0,P|359:124|343:176,2,85,2|0|8,0:0|0:0|0:0,0:0:0:0:
245,12,41965,6,0,B|213:34|176:27|176:27|151:53|151:53|112:39|70:61,1,170
120,136,42325,2,0,L|126:255,1,85,8|0,0:0|0:0,0:0:0:0:
320,195,42565,1,2,0:0:0:0:
241,279,42685,1,0,0:0:0:0:
255,96,42805,1,8,0:0:0:0:
397,167,42925,6,0,B|409:205|389:238|389:238|405:270|405:270|385:349,1,170
279,286,43285,1,8,0:0:0:0:
241,279,43345,1,0,0:0:0:0:
205,293,43405,1,0,0:0:0:0:
176,318,43465,1,0,0:0:0:0:
138,324,43525,1,10,0:0:0:0:
38,252,43645,1,0,0:0:0:0:
149,203,43765,1,8,0:0:0:0:
248,354,43885,6,0,B|278:284|278:284|245:173,1,170
89,112,44245,2,0,L|173:112,1,85,8|0,0:0|0:0,0:0:0:0:
338,25,44485,2,0,P|285:23|233:63,1,85,2|0,0:0|0:0,0:0:0:0:
420,122,44725,2,0,P|469:122|510:79,1,85,8|0,0:0|0:0,0:0:0:0:
316,106,44965,6,0,L|330:212,1,85,2|0,0:0|0:0,0:0:0:0:
466,240,45205,2,0,L|444:326,1,85,8|0,0:0|0:0,0:0:0:0:
272,379,45445,1,2,0:0:0:0:
356,260,45565,1,0,0:0:0:0:
180,339,45685,1,8,0:0:0:0:
131,190,45805,6,0,P|182:159|255:239,1,170
256,223,46165,2,0,B|247:265|247:265|257:312,1,85,8|0,0:0|0:0,0:0:0:0:
442,233,46405,2,0,L|469:149,1,85,2|0,0:0|0:0,0:0:0:0:
337,194,46645,2,0,L|368:107,1,85,8|0,0:0|0:0,0:0:0:0:
80,309,46885,6,0,L|53:225,1,85,2|0,0:0|0:0,0:0:0:0:
183,270,47125,2,0,L|152:183,1,85,8|0,0:0|0:0,0:0:0:0:
103,37,47365,1,2,0:0:0:0:
238,201,47485,1,0,0:0:0:0:
255,11,47605,1,8,0:0:0:0:
155,190,47725,6,0,P|90:213|-4:155,1,170
103,37,48085,2,0,L|212:50,1,85,8|0,0:0|0:0,0:0:0:0:
370,139,48325,2,0,B|390:100|390:100|376:32,1,85,2|0,0:0|0:0,0:0:0:0:
254,170,48565,2,0,B|230:211|230:211|249:281,1,85,8|0,0:0|0:0,0:0:0:0:
432,320,48805,5,2,0:0:0:0:
313,350,48925,1,0,0:0:0:0:
444,313,49045,2,0,L|444:228,1,85,8|0,0:0|0:0,0:0:0:0:
323,126,49285,1,0,0:0:0:0:
229,235,49405,1,0,0:0:0:0:
445,183,49525,1,0,0:0:0:0:
284,53,49645,6,0,B|251:17|199:12|199:12|120:33,1,170
80,130,50005,2,0,L|95:231,1,85,8|0,0:0|0:0,0:0:0:0:
256,264,50245,2,0,L|240:164,1,85,2|0,0:0|0:0,0:0:0:0:
112,329,50485,1,8,0:0:0:0:
112,329,50605,1,0,0:0:0:0:
256,368,50724,6,0,P|336:351|383:273,1,170,2|8,0:0|0:0,0:0:0:0:
379,280,51085,1,0,0:0:0:0:
380,79,51205,1,10,0:0:0:0:
243,167,51325,1,8,0:0:0:0:
243,167,51445,1,8,0:0:0:0:
450,216,51565,6,0,B|470:167|470:167|470:132|452:104|452:104|463:82|470:40,1,170
326,8,51925,2,0,P|278:8|228:60,1,85,8|0,0:0|0:0,0:0:0:0:
150,97,52165,2,0,L|37:73,1,85,2|0,0:0|0:0,0:0:0:0:
138,245,52405,1,8,0:0:0:0:
243,167,52525,6,0,P|304:175|371:269,1,170
293,82,52885,2,0,P|303:33|333:2,1,85,8|0,0:0|0:0,0:0:0:0:
486,117,53125,2,0,P|476:166|446:197,2,85,2|0|8,0:0|0:0|0:0,0:0:0:0:
380,79,53485,6,0,B|384:138|384:138|371:186|371:186|383:262,1,170
272,351,53845,2,0,P|206:353|167:325,1,85,8|0,0:0|0:0,0:0:0:0:
67,214,54085,2,0,L|58:120,1,85,2|0,0:0|0:0,0:0:0:0:
159,272,54325,1,8,0:0:0:0:
177,160,54445,6,0,P|236:126|349:161,1,170
405,253,54805,1,0,0:0:0:0:
405,253,54925,1,0,0:0:0:0:
437,69,55045,1,2,0:0:0:0:
314,250,55165,1,0,0:0:0:0:
339,69,55285,1,0,0:0:0:0:
466,206,55405,6,0,B|500:262|467:311|467:311|411:357|411:357,1,170,4|0,0:0|0:0,0:0:0:0:
254,287,55765,2,0,P|241:252|256:209,1,85,8|0,0:0|0:0,0:0:0:0:
364,66,56005,2,0,P|358:121|327:152,1,85,2|0,0:0|0:0,0:0:0:0:
247,37,56245,1,8,0:0:0:0:
78,80,56365,6,0,P|57:124|106:243,1,170
197,188,56725,2,0,L|293:171,1,85
417,285,56965,1,2,0:0:0:0:
417,285,57085,1,0,0:0:0:0:
381,106,57205,1,8,0:0:0:0:
254,287,57325,6,0,B|196:298|196:298|147:275|147:275|90:278,1,170,6|0,0:0|0:0,0:0:0:0:
19,128,57685,2,0,B|6:173|6:173|14:224,1,85,8|0,0:0|0:0,0:0:0:0:
190,91,57925,2,0,B|204:43|204:43|187:3,1,85,2|0,0:0|0:0,0:0:0:0:
41,17,58165,1,0,0:0:0:0:
112,165,58285,6,0,P|162:197|271:163,1,170,0|8,0:0|0:0,0:0:0:0:
462,31,58645,1,8,0:0:0:0:
271,79,58765,1,8,0:0:0:0:
491,188,58885,1,8,0:0:0:0:
276,292,59005,1,0,0:0:0:0:
364,97,59125,1,0,0:0:0:0:
423,309,59245,6,0,P|361:384|267:359,1,170,4|0,0:0|0:0,0:0:0:0:
160,300,59605,2,0,L|244:300,1,85,8|0,0:0|0:0,0:0:0:0:
115,213,59845,2,0,L|29:214,1,85,2|0,0:0|0:0,0:0:0:0:
173,137,60085,2,0,B|189:99|189:99|185:48,1,85,8|0,0:0|0:0,0:0:0:0:
33,51,60325,5,2,0:0:0:0:
30,213,60445,1,0,0:0:0:0:
173,137,60565,2,0,P|207:113|279:118,1,85,8|0,0:0|0:0,0:0:0:0:
382,178,60805,2,8,P|346:200|280:186,1,85,2|0,0:0|0:0,0:0:0:0:
304,23,61045,1,8,0:0:0:0:
477,95,61165,6,0,B|481:122|468:144|468:144|481:181|481:181|448:220|454:281,1,170
378,332,61525,2,0,L|266:311,1,85,8|0,0:0|0:0,0:0:0:0:
99,206,61765,2,0,L|204:221,1,85,2|0,0:0|0:0,0:0:0:0:
300,156,62005,1,8,0:0:0:0:
205,343,62125,6,0,P|105:377|34:318,1,170,0|8,0:0|0:0,0:0:0:0:
128,285,62485,1,0,0:0:0:0:
165,101,62605,1,8,0:0:0:0:
42,262,62725,1,10,0:0:0:0:
219,229,62845,1,8,0:0:0:0:
219,229,62965,1,10,0:0:0:0:
223,38,63085,6,0,P|177:17|83:84,1,170,4|0,0:0|0:0,0:0:0:0:
290,110,63445,2,0,L|395:99,1,85,0|0,0:0|0:0,0:0:0:0:
463,92,63685,2,0,P|485:145|440:259,1,170
389,345,64045,1,0,0:0:0:0:
389,345,64165,6,0,B|340:299|340:299|343:179,1,170
290,110,64525,1,0,0:0:0:0:
290,110,64645,2,0,P|249:152|137:145,1,170
16,64,65005,1,0,0:0:0:0:
16,64,65125,6,0,B|79:16|79:16|191:20,1,170,4|0,0:0|0:0,0:0:0:0:
193,127,65485,1,0,0:0:0:0:
105,194,65605,2,0,P|76:257|119:352,1,170
224,384,65965,1,0,0:0:0:0:
224,384,66085,6,0,B|276:331|276:331|276:222,1,170
401,57,66565,2,0,P|361:59|270:163,1,170,0|0,0:0|1:2,0:0:0:0:
193,281,66925,6,0,B|101:281|101:281|30:220,1,170,4|0,0:0|0:0,0:0:0:0:
24,138,67285,2,0,P|62:105|125:117,1,85,8|0,0:0|0:0,0:0:0:0:
311,114,67525,2,0,B|334:76|334:76|324:15,1,85,2|0,0:0|0:0,0:0:0:0:
210,177,67765,2,0,B|187:215|187:215|197:276,1,85,8|0,0:0|0:0,0:0:0:0:
239,65,68005,6,0,P|185:58|129:92,1,85,2|0,0:0|0:0,0:0:0:0:
282,224,68245,2,0,P|336:231|392:197,1,85,8|0,0:0|0:0,0:0:0:0:
116,177,68485,2,0,L|118:271,1,85
401,130,68725,2,0,L|400:35,1,85
252,137,68965,5,14,0:3:0:0:
210,177,69045,1,12,0:3:0:0:
207,233,69125,1,12,0:3:0:0:
234,282,69205,1,14,0:3:0:0:
285,304,69285,1,12,0:3:0:0:
339,288,69365,1,12,0:3:0:0:
365,238,69445,5,8,0:0:0:0:
330,193,69525,1,0,0:0:0:0:
273,187,69605,1,0,0:0:0:0:
233,227,69685,1,8,0:0:0:0:
192,266,69765,1,0,0:0:0:0:
135,262,69845,1,0,0:0:0:0:
101,223,69925,5,8,0:0:0:0:
85,180,70005,1,0,0:0:0:0:
90,134,70085,1,0,0:0:0:0:
106,97,70165,1,8,0:0:0:0:
136,82,70245,1,0,0:0:0:0:
169,88,70325,1,0,0:0:0:0:
188,108,70405,1,4,0:0:0:0:
188,130,70485,1,0,0:0:0:0:
179,144,70565,1,0,0:0:0:0:
167,145,70645,1,4,0:0:0:0:
157,134,70725,6,0,B|160:173|173:201|173:201|161:241|161:241|173:285|173:285|140:331|157:389,1,257.833321530661,4|0,0:1|0:2,0:2:0:0:
261,350,71125,2,0,L|361:343,1,85,8|0,0:0|0:0,0:0:0:0:
382,173,71365,2,0,P|370:222|389:275,1,85,2|0,0:0|0:0,0:0:0:0:
485,144,71605,2,0,P|497:98|481:45,1,85,8|0,0:0|0:0,0:0:0:0:
364,11,71845,5,2,0:0:0:0:
313,91,71965,1,0,0:0:0:0:
235,39,72085,2,0,L|145:47,1,85,8|0,0:0|0:0,0:0:0:0:
251,174,72325,2,0,L|341:166,1,85,2|0,0:0|0:0,0:0:0:0:
235,39,72565,1,0,0:0:0:0:
155,151,72685,6,0,B|144:197|166:233|166:233|143:237|143:237|141:285|167:311|167:311|160:349,1,220.999989883423
298,344,73045,2,0,L|322:241,1,85,8|0,0:0|0:0,0:0:0:0:
225,92,73285,2,0,L|256:191,1,85,2|0,0:0|0:0,0:0:0:0:
419,231,73525,1,8,0:0:0:0:
254,193,73645,1,0,0:0:0:0:
433,213,73765,6,0,P|461:160|460:110,1,85,2|0,0:0|0:0,0:0:0:0:
383,15,74005,1,8,0:0:0:0:
309,83,74125,2,0,L|224:91,1,85,0|2,0:0|0:0,0:0:0:0:
68,16,74365,2,0,P|109:11|149:27,1,85,0|8,0:0|0:0,0:0:0:0:
149,247,74605,6,0,B|98:201|98:201|105:88,1,170,4|0,0:0|0:0,0:0:0:0:
224,91,74965,2,0,L|217:197,1,85,8|0,0:0|0:0,0:0:0:0:
205,336,75205,1,2,0:0:0:0:
336,240,75325,1,0,0:0:0:0:
205,336,75445,2,0,P|159:367|115:367,1,85,8|0,0:0|0:0,0:0:0:0:
63,284,75685,6,0,B|54:229|54:229|78:174|78:174|72:87,1,170,2|8,0:0|0:0,0:0:0:0:
99,11,76045,1,0,0:0:0:0:
99,11,76165,2,0,P|147:45|206:32,1,85,2|0,0:0|0:0,0:0:0:0:
304,46,76405,1,8,0:0:0:0:
198,180,76525,1,0,0:0:0:0:
198,180,76585,1,0,0:0:0:0:
198,180,76645,6,0,B|208:224|208:224|244:264,1,85,2|0,0:0|0:0,0:0:0:0:
393,166,76885,2,0,B|387:126|387:126|346:81,1,85,8|0,0:0|0:0,0:0:0:0:
172,99,77125,2,0,P|128:124|107:173,1,85,2|0,0:0|0:0,0:0:0:0:
232,332,77365,2,0,P|273:329|308:296,1,85,8|0,0:0|0:0,0:0:0:0:
279,129,77605,5,2,0:0:0:0:
186,203,77725,1,0,0:0:0:0:
105,115,77845,1,10,0:0:0:0:
192,34,77965,1,0,0:0:0:0:
325,58,78085,6,0,P|347:73|355:95,1,42.5,8|0,0:0|0:0,0:0:0:0:
319,200,78205,2,0,P|294:212|271:208,1,42.5,8|0,0:0|0:0,0:0:0:0:
195,125,78325,2,0,P|197:97|212:79,1,42.5,8|0,0:0|0:0,0:0:0:0:
279,129,78445,6,0,B|285:147|285:147|277:167|277:167|285:183|285:183|277:199|277:199|285:215|285:215|277:231|277:231|285:247|285:247|277:267|277:267|285:283,1,170
228,357,78805,2,0,P|187:375|116:357,1,85
14,228,79045,2,0,P|67:221|114:245,1,85,2|0,0:0|0:0,0:0:0:0:
175,288,79285,2,0,B|190:245|190:245|178:180,1,85,8|0,0:0|0:0,0:0:0:0:
66,71,79525,6,0,B|51:114|51:114|63:179,1,85,2|0,0:0|0:0,0:0:0:0:
148,119,79765,1,0,0:0:0:0:
148,119,79885,2,0,L|335:107,1,170
436,268,80245,1,8,0:0:0:0:
436,268,80365,6,0,B|409:245|378:243|378:243|352:210|352:210|311:228|265:200,1,170
277,36,80725,2,0,P|327:22|361:34,1,85,8|0,0:0|0:0,0:0:0:0:
229,118,80965,2,0,B|201:88|201:88|200:19,1,85,2|0,0:0|0:0,0:0:0:0:
409,116,81205,2,0,B|441:149|441:149|438:215,1,85,8|0,0:0|0:0,0:0:0:0:
281,264,81445,5,2,0:0:0:0:
281,264,81565,1,0,0:0:0:0:
410,353,81685,2,0,P|459:330|477:281,1,85,8|0,0:0|0:0,0:0:0:0:
338,172,81925,1,2,0:0:0:0:
338,172,82045,1,0,0:0:0:0:
224,340,82165,1,8,0:0:0:0:
322,296,82285,6,0,B|261:247|261:247|129:248,1,170,4|0,0:0|0:0,0:0:0:0:
46,272,82645,2,0,P|37:315|66:371,1,85,8|0,0:0|0:0,0:0:0:0:
83,172,82885,2,0,L|53:73,1,85,2|0,0:0|0:0,0:0:0:0:
191,86,83125,2,0,L|228:-5,1,85,8|0,0:0|0:0,0:0:0:0:
486,130,83365,6,0,P|432:165|352:148,1,127.5,2|0,0:0|2:0,0:0:0:0:
371,159,83605,2,0,L|341:71,1,85,8|0,0:0|0:0,0:0:0:0:
182,224,83845,2,0,P|254:220|318:265,1,127.5,2|0,0:0|2:0,0:0:0:0:
301,246,84085,2,0,L|253:333,1,85,8|0,0:0|0:0,0:0:0:0:
84,273,84325,6,0,P|72:221|88:173,2,85,8|0|0,0:0|0:0|0:0,0:0:0:0:
170,129,84685,2,0,P|179:79|164:36,1,85,8|0,0:0|0:0,0:0:0:0:
85,87,84925,1,0,0:0:0:0:
182,224,85045,2,0,L|294:204,1,85,8|0,0:0|0:0,0:0:0:0:
441,82,85285,5,8,0:0:0:0:
351,208,85405,1,8,0:0:0:0:
314,89,85525,1,8,0:0:0:0:
468,200,85645,1,8,0:0:0:0:
277,163,85765,5,0,0:0:0:0:
378,29,85885,1,0,0:0:0:0:
512,130,86005,1,0,0:0:0:0:
411,253,86125,6,0,P|344:292|252:290,1,170,4|0,0:0|0:0,0:0:0:0:
182,224,86485,2,0,B|177:125,1,85,8|0,0:0|0:0,0:0:0:0:
43,54,86725,2,0,L|48:161,1,85,2|0,0:0|0:0,0:0:0:0:
157,294,86965,2,0,L|152:182,1,85,8|0,0:0|0:0,0:0:0:0:
249,34,87205,6,0,B|305:74|305:74|305:204,1,170,2|0,0:0|0:0,0:0:0:0:
211,124,87565,1,0,0:0:0:0:
388,47,87685,2,0,P|436:52|478:101,2,85,2|0|0,0:0|0:0|0:0,0:0:0:0:
291,193,88045,6,0,P|226:246|119:206,1,170
63,130,88405,2,0,B|52:83|52:83|84:29,1,85,8|0,0:0|0:0,0:0:0:0:
146,232,88645,2,0,B|157:279|157:279|125:333,1,85,2|0,0:0|0:0,0:0:0:0:
211,124,88885,2,0,B|200:77|200:77|232:23,1,85,8|0,0:0|0:0,0:0:0:0:
439,42,89125,5,2,0:0:0:0:
509,117,89245,1,0,0:0:0:0:
411,150,89365,2,0,L|301:122,1,85,8|0,0:0|0:0,0:0:0:0:
146,232,89605,2,0,L|249:204,1,85,2|0,0:0|0:0,0:0:0:0:
317,286,89845,1,0,0:0:0:0:
126,324,89965,6,0,P|77:295|66:182,1,170
134,119,90325,1,0,0:0:0:0:
213,170,90445,1,0,0:0:0:0:
214,76,90565,1,2,0:0:0:0:
294,125,90685,1,0,0:0:0:0:
305,32,90805,2,0,P|362:47|390:97,1,85,8|0,0:0|0:0,0:0:0:0:
367,223,91045,6,0,B|346:258|314:269|314:269|211:250,1,170,2|8,0:0|0:0,0:0:0:0:
213,170,91405,1,0,0:0:0:0:
275,343,91525,2,0,P|311:371|378:362,2,85,2|0|8,0:0|0:0|0:0,0:0:0:0:
434,282,91885,6,0,B|453:230|453:230|441:174|441:174|461:110,1,170
390,8,92245,2,0,P|341:22|312:65,1,85,8|0,0:0|0:0,0:0:0:0:
266,220,92485,2,0,P|306:216|345:188,1,85,2|0,0:0|0:0,0:0:0:0:
142,124,92725,2,0,P|93:138|64:181,1,85,8|0,0:0|0:0,0:0:0:0:
112,292,92965,6,0,L|272:217,1,170,2|8,0:0|0:0,0:0:0:0:
280,127,93325,1,0,0:0:0:0:
370,253,93445,1,0,0:0:0:0:
373,68,93565,1,0,0:0:0:0:
214,153,93685,1,0,0:0:0:0:
370,253,93805,6,0,P|434:231|465:109,1,170,4|0,0:0|0:0,0:0:0:0:
213,71,94165,2,0,P|204:112|214:153,1,85,8|0,0:0|0:0,0:0:0:0:
373,152,94405,2,0,P|381:106|373:67,1,85,2|0,0:0|0:0,0:0:0:0:
143,188,94645,2,0,P|169:229|222:249,1,85,8|0,0:0|0:0,0:0:0:0:
294,108,94885,6,0,B|303:166|303:166|284:221|284:221|294:278,1,170,2|8,0:0|0:0,0:0:0:0:
417,324,95245,1,0,0:0:0:0:
240,373,95365,2,0,P|186:364|145:338,1,85,2|0,0:0|0:0,0:0:0:0:
41,245,95605,1,8,0:0:0:0:
41,245,95725,6,0,L|29:65,1,170
125,32,96085,2,0,L|214:15,1,85,8|0,0:0|0:0,0:0:0:0:
379,93,96325,2,0,L|272:113,1,85,2|0,0:0|0:0,0:0:0:0:
174,240,96565,2,0,L|260:219,1,85,8|0,0:0|0:0,0:0:0:0:
389,191,96805,5,2,0:0:0:0:
305,106,96925,1,0,0:0:0:0:
207,106,97045,1,0,0:0:0:0:
123,191,97165,1,2,0:0:0:0:
292,260,97285,2,0,P|305:239|233:271,1,255,2|0,0:0|0:0,0:0:0:0:
255,336,97765,6,0,B|269:293|247:257|247:257|258:222|258:222|244:193|244:193|268:159|246:90,1,255,2|0,0:0|0:0,0:0:0:0:
365,28,98245,2,0,B|385:20|397:44|369:60|369:60|333:76|293:9|230:21|230:21|189:28|173:68,1,255
48,248,98725,6,0,B|48:272|72:268|72:268|92:276|92:276|112:256|112:256|132:256|132:232|132:232|125:193|125:193|137:160|137:160|150:134|136:132|136:132|124:156|100:156,1,255,2|0,0:0|0:0,0:0:0:0:
216,204,99205,2,0,B|212:232|227:247|227:247|295:226|293:271|348:232,1,170,0|8,0:0|0:0,0:0:0:0:
360,136,99565,6,0,P|328:88|248:140,1,170,2|0,0:0|0:0,0:0:0:0:
417,280,99925,2,0,P|473:232|481:204,1,85,8|0,0:0|0:0,0:0:0:0:
230,89,100165,2,0,P|218:130|224:172,1,85,2|0,0:0|0:0,0:0:0:0:
379,178,100404,2,0,P|388:137|380:96,1,85,8|0,0:0|0:0,0:0:0:0:
120,219,100645,6,0,P|143:252|198:264,1,85,2|0,0:0|0:0,0:0:0:0:
168,11,100885,2,0,P|128:26|98:55,1,85,8|0,0:0|0:0,0:0:0:0:
242,170,101126,2,0,P|210:142|168:134,1,85,2|0,0:0|0:0,0:0:0:0:
26,212,101365,2,0,P|20:254|32:295,1,85,10|0,0:0|0:0,0:0:0:0:
184,358,101605,5,0,0:0:0:0:
232,343,101685,1,0,0:0:0:0:
262,302,101765,1,0,0:0:0:0:
263,251,101845,1,2,0:0:0:0:
238,206,101925,1,0,0:0:0:0:
197,175,102005,1,0,0:0:0:0:
178,127,102085,1,8,0:0:0:0:
192,76,102165,1,0,0:0:0:0:
228,40,102245,1,0,0:0:0:0:
278,37,102325,1,2,0:0:0:0:
324,58,102405,1,0,0:0:0:0:
354,98,102485,1,0,0:0:0:0:
350,148,102565,21,8,0:0:0:0:
347,173,102625,1,8,0:0:0:0:
347,198,102685,1,8,0:0:0:0:
345,223,102745,1,8,0:0:0:0:
342,248,102805,1,8,0:0:0:0:
338,273,102865,1,8,0:0:0:0:
334,298,102925,1,8,0:0:0:0:
332,323,102985,1,8,0:0:0:0:
327,348,103045,2,0,B|226:335,1,85,8|0,0:0|2:0,0:0:0:0:
123,293,103405,6,0,P|91:218|106:119,1,170,4|0,0:0|0:0,0:0:0:0:
180,21,103765,1,8,0:0:0:0:
265,119,103885,1,0,0:0:0:0:
351,37,104005,2,0,L|435:43,1,85,2|0,0:0|0:0,0:0:0:0:
483,183,104245,2,0,L|388:175,1,85,8|0,0:0|0:0,0:0:0:0:
240,234,104485,6,0,P|228:273|240:314,1,85,2|0,0:0|0:0,0:0:0:0:
326,158,104725,2,0,P|338:118|326:78,1,85,8|0,0:0|0:0,0:0:0:0:
144,208,104965,1,2,0:0:0:0:
261,47,105085,1,0,0:0:0:0:
58,112,105205,1,8,0:0:0:0:
170,291,105325,6,0,P|259:311|334:240,1,170
321,164,105685,1,8,0:0:0:0:
414,89,105805,1,0,0:0:0:0:
474,191,105925,2,0,B|478:238|478:238|443:290,1,85,2|0,0:0|0:0,0:0:0:0:
321,164,106165,2,0,B|317:117|317:117|352:65,1,85
387,294,106405,5,2,0:0:0:0:
239,200,106525,1,0,0:0:0:0:
116,361,106645,5,8,0:0:0:0:
297,277,106765,1,0,0:0:0:0:
113,158,106885,5,2,0:0:0:0:
252,352,107005,1,8,0:0:0:0:
443,203,107125,1,8,0:0:0:0:
268,68,107245,6,0,P|199:44|89:82,1,170,4|0,0:0|0:0,0:0:0:0:
44,177,107605,2,0,L|69:284,1,85,8|0,0:0|0:0,0:0:0:0:
202,378,107845,2,0,L|170:266,1,85,2|0,0:0|0:0,0:0:0:0:
316,193,108085,1,8,0:0:0:0:
139,228,108205,1,0,0:0:0:0:
315,313,108325,6,0,P|356:322|418:302,1,85,2|0,0:0|0:0,0:0:0:0:
512,218,108565,2,0,P|473:201|413:213,1,85,8|0,0:0|0:0,0:0:0:0:
283,164,108805,1,2,0:0:0:0:
442,87,108925,1,0,0:0:0:0:
299,242,109045,1,0,0:0:0:0:
199,111,109165,6,0,P|253:73|363:108,1,170
380,218,109525,2,0,L|347:324,1,85,8|0,0:0|0:0,0:0:0:0:
157,299,109765,2,0,L|132:218,1,85,2|0,0:0|0:0,0:0:0:0:
181,33,110005,2,0,P|204:86|181:139,1,85,8|0,0:0|0:0,0:0:0:0:
9,261,110245,5,0,0:0:0:0:
106,95,110365,1,0,0:0:0:0:
179,316,110485,1,0,0:0:0:0:
179,316,110545,1,0,0:0:0:0:
179,316,110605,1,0,0:0:0:0:
344,126,110725,5,8,0:0:0:0:
98,170,110845,1,8,0:0:0:0:
339,299,110965,1,8,0:0:0:0:
100,354,111085,6,0,P|78:284|100:176,1,170
174,93,111445,2,0,B|282:84,1,85,8|0,0:0|0:0,0:0:0:0:
439,0,111685,2,0,P|449:63|423:115,1,85,2|0,0:0|0:0,0:0:0:0:
266,268,111925,2,0,P|256:205|282:153,1,85,8|0,0:0|0:0,0:0:0:0:
342,78,112165,6,0,L|344:162,1,85,2|0,0:0|0:0,0:0:0:0:
339,349,112405,1,0,0:0:0:0:
451,250,112525,1,0,0:0:0:0:
244,196,112645,2,0,B|202:186|164:210|164:210|141:263|80:286,1,170,0|8,0:0|0:0,0:0:0:0:
32,145,113005,1,4,0:0:0:0:
32,145,113125,6,0,L|65:54,1,85
165,125,113365,2,0,L|198:34,1,85,8|0,0:0|0:0,0:0:0:0:
471,179,113605,2,0,L|442:99,1,85,2|0,0:0|0:0,0:0:0:0:
318,155,113845,2,0,L|285:64,1,85,8|0,0:0|0:0,0:0:0:0:
154,197,114085,6,0,P|159:253|190:304,1,85,2|0,0:0|0:0,0:0:0:0:
288,377,114325,2,0,P|321:332|321:272,1,85,8|0,0:0|0:0,0:0:0:0:
246,114,114565,1,2,0:0:0:0:
250,284,114685,1,0,0:0:0:0:
380,125,114805,1,0,0:0:0:0:
149,36,114925,6,0,P|100:45|50:149,1,170
211,197,115285,1,8,0:0:0:0:
50,277,115405,1,0,0:0:0:0:
201,348,115525,2,0,B|302:337,1,85,2|0,0:0|0:0,0:0:0:0:
407,242,115765,2,0,P|364:232|322:242,1,85,8|0,0:0|0:0,0:0:0:0:
135,230,116005,6,0,P|186:216|225:178,1,85,2|0,0:0|0:0,0:0:0:0:
291,87,116245,2,0,P|294:44|277:3,1,85,8|0,0:0|0:0,0:0:0:0:
61,38,116485,1,2,0:0:0:0:
66,222,116605,1,0,0:0:0:0:
229,124,116725,1,0,0:0:0:0:
61,38,116845,1,8,0:0:0:0:
256,192,116965,12,4,119011,0:0:0:0:
256,144,120054,5,8,0:0:0:0:
256,144,121097,6,0,B|236:180|276:204|254:250,1,102,8|2,0:0|0:0,0:0:0:0:
184,224,121880,1,8,0:0:0:0:
328,160,122141,1,2,0:0:0:0:
184,224,122662,1,2,0:0:0:0:
150,184,122793,1,8,0:0:0:0:
140,134,122923,1,2,0:0:0:0:
151,84,123054,1,8,0:0:0:0:
202,34,123184,6,0,P|231:77|239:137,1,102,8|2,0:0|0:0,0:0:0:0:
240,125,123967,1,8,0:0:0:0:
60,36,124228,1,2,0:0:0:0:
452,36,125010,1,8,0:0:0:0:
423,78,125141,1,8,0:0:0:0:
426,128,125271,6,0,P|434:192|423:215,1,68,2|0,0:0|0:0,0:0:0:0:
410,240,125662,1,8,0:0:0:0:
374,276,125793,1,0,0:0:0:0:
323,278,125923,1,0,0:0:0:0:
278,252,126054,1,8,0:0:0:0:
256,205,126184,1,0,0:0:0:0:
293,116,126315,6,0,P|324:155|327:177,1,63.7500024318696,2|0,0:0|0:0,0:0:0:0:
184,167,126575,2,0,P|196:138|219:116,1,63.7500024318696
256,205,126836,1,2,0:0:0:0:
234,252,126966,1,8,0:0:0:0:
189,278,127097,1,2,0:0:0:0:
138,276,127227,1,8,0:0:0:0:
84,216,127358,6,0,P|55:149|71:25,1,191.250007295609,2|8,0:0|0:0,0:0:0:0:
256,27,128402,1,2,0:0:0:0:
428,168,129445,6,0,P|456:232|452:280,1,95.6250036478044,8|2,0:0|0:0,0:0:0:0:
456,256,130228,1,8,0:0:0:0:
196,330,130489,1,2,0:0:0:0:
304,152,131010,1,2,0:0:0:0:
339,184,131141,1,8,0:0:0:0:
382,204,131271,1,2,0:0:0:0:
430,202,131402,1,8,0:0:0:0:
475,187,131532,6,0,L|465:80,1,95.6250036478044,8|2,0:0|0:0,0:0:0:0:
466,91,132315,1,8,0:0:0:0:
273,249,132575,1,2,0:0:0:0:
273,249,133097,1,0,0:0:0:0:
175,32,133358,1,8,0:0:0:0:
131,53,133489,1,8,0:0:0:0:
102,92,133619,6,0,P|96:125|101:173,1,63.7500024318696,2|0,0:0|0:0,0:0:0:0:
108,274,134011,2,0,L|99:287,9,15.9375006079674,0|0|0|0|0|0|0|0|0|0,0:0|0:0|0:0|0:0|0:0|0:0|0:0|0:0|0:0|0:0,0:0:0:0:
219,228,134663,2,0,L|244:232,7,15.9375006079674,2|0|0|0|0|0|0|0,0:0|0:0|0:0|0:0|0:0|0:0|0:0|0:0,0:0:0:0:
120,147,135184,2,0,L|110:125,7,15.9375006079674,0|0|0|0|0|0|0|0,0:0|0:0|0:0|0:0|0:0|0:0|0:0|0:0,0:0:0:0:
232,84,135706,6,0,P|256:116|286:128,1,63.7500024318696,4|0,0:0|0:0,0:0:0:0:
300,57,136097,1,2,0:0:0:0:
178,129,136358,2,0,L|178:181,1,31.8750012159348
351,113,136749,1,2,0:0:0:0:
180,260,137271,1,2,0:3:0:0:
239,210,137402,2,0,P|205:187|168:181,1,63.7500024318696,2|2,0:3|0:0,0:0:0:0:
156,338,137793,6,0,P|197:338|256:290,1,95.6250036478044,2|2,0:0|0:0,0:0:0:0:
242,310,138575,1,8,0:0:0:0:
267,94,138836,1,2,0:0:0:0:
267,94,139358,2,0,P|263:122|274:150,1,31.8750012159348,2|2,0:3|0:3,0:0:0:0:
164,42,139619,2,0,P|168:14|160:-16,1,31.8750012159348,2|2,0:3|0:3,0:0:0:0:
94,119,139880,6,0,P|49:157|38:211,1,95.6250036478044,8|2,0:0|0:0,0:0:0:0:
120,197,140402,2,0,P|144:245|140:277,1,63.7500024318696,0|8,0:0|0:0,0:0:0:0:
158,358,140923,1,2,0:0:0:0:
296,296,141445,1,2,0:3:0:0:
320,252,141575,1,0,0:3:0:0:
316,200,141706,1,2,0:3:0:0:
292,156,141836,1,0,0:3:0:0:
264,112,141967,6,0,P|236:56|251:9,1,95.6250036478044,2|2,0:0|0:0,0:0:0:0:
344,44,142619,2,0,L|314:54,1,31.8750012159348,0|8,0:0|0:0,0:0:0:0:
156,137,143010,2,0,B|102:153|83:81|12:108,1,127.500004863739,2|2,0:0|0:3,0:0:0:0:
38,186,143662,1,0,0:0:0:0:
106,277,143793,2,0,P|110:256|108:227,1,31.8750012159348,2|0,0:3|0:0,0:0:0:0:
64,349,144054,6,0,P|113:359|168:333,1,95.6250036478044,2|2,0:0|0:0,0:0:0:0:
305,284,144706,2,0,L|264:277,1,31.8750012159348
360,335,145097,2,0,P|379:294|345:215,1,127.500004863739,2|2,0:0|0:3,0:0:0:0:
301,205,145750,1,0,0:0:0:0:
251,216,145880,1,2,0:0:0:0:
199,217,146011,1,0,0:0:0:0:
155,189,146141,6,0,P|147:142|163:97,1,95.6250036478044,8|2,0:0|0:0,0:0:0:0:
162,97,146793,2,0,L|212:106,1,31.8750012159348,0|8,0:0|0:0,0:0:0:0:
348,186,147184,2,0,P|342:225|319:265,1,63.7500024318696,2|0,0:0|0:0,0:0:0:0:
179,246,147706,2,0,P|167:217|164:184,1,63.7500024318696,2|2,0:3|0:3,0:0:0:0:
180,44,148228,6,0,P|256:12|336:48,1,170,2|0,0:0|0:0,0:0:0:0:
255,217,149349,2,0,B|247:280|247:280|258:345|258:345|250:390,1,170
88,309,150470,6,0,P|46:269|30:152,1,170
416,37,151592,2,0,P|369:105|290:134,1,170
109,202,152768,6,0,B|99:149|99:149|66:98|66:98|60:44,1,170,2|0,0:0|0:0,0:0:0:0:
424,172,153956,2,0,B|418:226|418:226|385:277|385:277|367:366,1,170
176,64,155319,6,0,B|220:40|256:68|256:68|288:40|336:64,1,170
328,316,156750,2,0,B|280:316|256:352|256:352|232:316|180:316,1,170
216,180,158136,6,0,P|256:168|296:180,1,85,0|0,0:0|0:0,0:0:0:0:
296,180,162091,5,12,0:3:0:0:
320,141,162171,1,12,0:3:0:0:
307,97,162251,1,12,0:3:0:0:
270,70,162331,1,12,0:3:0:0:
224,73,162411,1,12,0:3:0:0:
190,103,162491,1,12,0:3:0:0:
186,148,162571,5,12,0:3:0:0:
203,189,162651,1,12,0:3:0:0:
223,229,162731,1,12,0:3:0:0:
220,274,162811,1,12,0:3:0:0:
193,310,162891,1,12,0:3:0:0:
150,325,162971,1,12,0:3:0:0:
107,308,163051,6,0,P|95:272|89:235,1,56.6666666666667
109,82,163211,2,0,P|120:117|127:155,1,56.6666666666667
68,297,163371,6,0,P|69:259|76:222,1,56.6666666666667
148,80,163531,2,0,P|146:116|139:154,1,56.6666666666667
30,278,163691,6,0,P|43:242|63:210,1,56.6666666666667
152,247,163891,6,0,P|238:302|326:272,1,170,4|0,0:0|0:0,0:0:0:0:
385,211,164251,2,0,B|375:165|375:165|385:127,1,85,8|0,0:0|0:0,0:0:0:0:
492,18,164491,2,0,B|501:64|501:64|489:100,1,85,2|0,0:0|0:0,0:0:0:0:
369,46,164731,2,0,B|332:41|318:33|318:33|284:34|284:34|218:16,1,127.5,8|0,0:0|0:0,0:0:0:0:
246,24,164971,6,0,L|225:113,1,85,2|0,0:0|0:0,0:0:0:0:
152,247,165211,2,0,L|109:135,1,85,8|0,0:0|0:0,0:0:0:0:
256,207,165451,1,2,0:0:0:0:
51,217,165571,1,0,0:0:0:0:
152,96,165691,1,8,0:0:0:0:
232,289,165811,6,0,P|191:333|85:309,1,170
256,207,166171,2,0,B|295:229|295:229|321:285,1,85,8|0,0:0|0:0,0:0:0:0:
375,92,166411,2,0,B|336:114|336:114|274:109,1,85,2|0,0:0|0:0,0:0:0:0:
425,250,166651,2,0,B|424:205|424:205|460:154,1,85,8|0,0:0|0:0,0:0:0:0:
418,361,166891,5,2,0:0:0:0:
418,361,167011,1,0,0:0:0:0:
273,311,167131,2,0,L|256:212,1,85,8|0,0:0|0:0,0:0:0:0:
375,92,167371,2,0,L|358:191,1,85,2|0,0:0|0:0,0:0:0:0:
194,144,167611,1,0,0:0:0:0:
293,26,167731,1,0,0:0:0:0:
293,26,167791,1,0,0:0:0:0:
293,26,167851,6,0,P|252:52|203:58,1,85
41,82,168091,2,0,P|82:90|117:114,1,85,8|0,0:0|0:0,0:0:0:0:
264,193,168331,2,0,P|221:226|176:228,1,85,2|0,0:0|0:0,0:0:0:0:
60,311,168571,1,8,0:0:0:0:
92,204,168691,1,0,0:0:0:0:
164,335,168811,6,0,L|260:314,1,85
392,271,169051,2,0,B|355:239|355:239|340:187,1,85,10|0,0:0|0:0,0:0:0:0:
191,141,169291,2,0,B|217:110|217:110|225:39,1,85,2|0,0:0|0:0,0:0:0:0:
41,82,169531,5,8,0:0:0:0:
34,87,169591,1,0,0:0:0:0:
27,92,169651,1,0,0:0:0:0:
78,216,169771,1,2,0:0:0:0:
207,147,169891,5,0,0:0:0:0:
199,144,169951,1,0,0:0:0:0:
191,141,170011,1,8,0:0:0:0:
191,267,170131,1,0,0:0:0:0:
345,206,170251,5,2,0:0:0:0:
352,201,170311,1,0,0:0:0:0:
358,195,170371,1,0,0:0:0:0:
291,113,170491,1,8,0:0:0:0:
299,290,170611,1,0,0:0:0:0:
458,300,170731,6,0,B|481:263|481:263|474:200,1,85,10|0,0:0|0:0,0:0:0:0:
376,117,170971,2,0,B|352:151|352:151|360:217,1,85,10|0,0:0|0:0,0:0:0:0:
490,37,171211,1,10,0:0:0:0:
337,33,171331,1,8,0:0:0:0:
184,27,171451,1,8,0:0:0:0:
31,22,171571,6,0,B|16:71|16:71|35:102|37:138|37:138|20:208,1,170,4|0,0:0|0:0,0:0:0:0:
117,289,171931,2,0,P|170:292|225:253,1,85,8|0,0:0|0:0,0:0:0:0:
281,141,172171,2,0,P|232:153|197:204,1,85,2|0,0:0|0:0,0:0:0:0:
295,334,172411,2,0,L|385:275,1,85,8|0,0:0|0:0,0:0:0:0:
487,168,172651,6,0,B|508:121|508:121|493:52|493:52|428:7,1,170,2|8,0:0|0:0,0:0:0:0:
370,85,173011,1,0,0:0:0:0:
370,85,173131,2,0,L|273:50,1,85,2|0,0:0|0:0,0:0:0:0:
161,133,173371,2,0,L|258:168,1,85,8|0,0:0|0:0,0:0:0:0:
343,284,173611,6,0,P|349:340|324:382,1,85,2|0,0:0|0:0,0:0:0:0:
237,244,173851,2,0,P|231:188|256:146,1,85,8|0,0:0|0:0,0:0:0:0:
416,99,174091,2,0,L|320:91,1,85,2|0,0:0|0:0,0:0:0:0:
153,262,174331,2,0,L|253:240,1,85,8|0,0:0|0:0,0:0:0:0:
113,174,174571,6,0,B|73:201|73:201|58:270|58:270|79:317,1,170,2|8,0:0|0:0,0:0:0:0:
79,317,175051,1,2,0:0:0:0:
312,280,175171,1,8,0:0:0:0:
191,173,175291,1,8,0:0:0:0:
205,352,175411,6,0,B|216:349|244:375|244:375|278:353|278:353|318:368|358:345,1,170,4|0,0:0|0:0,0:0:0:0:
422,249,175771,1,8,0:0:0:0:
307,168,175891,1,0,0:0:0:0:
307,168,175951,1,0,0:0:0:0:
307,168,176011,2,0,B|300:127|300:127|317:63,1,85,2|0,0:0|0:0,0:0:0:0:
473,2,176251,2,0,B|483:47|483:47|463:107,1,85
207,275,176491,6,0,B|200:234|200:234|217:170,1,85,2|0,0:0|0:0,0:0:0:0:
401,141,176731,2,0,B|411:186|411:186|391:246,1,85
344,317,176971,1,2,0:0:0:0:
211,192,177091,1,0,0:0:0:0:
344,317,177211,1,8,0:0:0:0:
173,364,177331,6,0,P|128:326|134:212,1,170
207,275,177691,1,8,0:0:0:0:
32,295,177811,2,0,B|25:243|45:208|45:208|37:157|37:157|62:109|36:74|36:74|33:104,1,255
136,153,178291,5,0,0:0:0:0:
136,153,178351,1,0,0:0:0:0:
136,153,178411,2,0,L|243:122,1,85,2|0,0:0|0:0,0:0:0:0:
428,217,178651,2,0,P|392:250|336:246,1,85,8|0,0:0|0:0,0:0:0:0:
194,285,178891,2,0,B|183:335|183:335|220:393,1,85,2|0,0:0|0:0,0:0:0:0:
331,143,179131,2,0,L|304:21,1,85,8|8,0:0|0:0,0:0:0:0:
123,116,179371,6,0,P|107:160|115:211,1,56.6666666666667,8|0,0:0|0:0,0:0:0:0:
103,261,179531,2,0,P|149:252|189:220,1,56.6666666666667,8|0,0:0|0:0,0:0:0:0:
239,210,179691,2,0,P|208:174|160:155,1,56.6666666666667,8|0,0:0|0:0,0:0:0:0:
244,306,179851,6,0,P|267:322|295:324,1,56.6666666666667,8|0,0:0|0:0,0:0:0:0:
352,180,180011,2,0,P|326:191|310:215,1,56.6666666666667,8|0,0:0|0:0,0:0:0:0:
403,337,180171,2,0,P|405:309|393:283,1,56.6666666666667,8|0,0:0|0:0,0:0:0:0:
302,128,180331,5,8,0:0:0:0:
278,112,180391,1,8,0:0:0:0:
250,104,180451,1,8,0:0:0:0:
222,108,180511,1,8,0:0:0:0:
194,124,180571,1,8,0:0:0:0:
174,148,180631,1,8,0:0:0:0:
166,176,180691,1,8,0:0:0:0:
170,204,180751,1,8,0:0:0:0:
182,232,180811,2,0,L|209:313,1,85,8|0,0:3|2:0,0:0:0:0:
250,356,181171,6,0,B|258:299|258:299|244:241|244:241|248:188,1,170,4|0,0:0|0:0,0:0:0:0:
159,62,181532,2,0,P|112:50|44:82,1,85,8|0,0:0|0:0,0:0:0:0:
89,222,181771,2,0,P|124:223|176:198,1,85,2|0,0:0|0:0,0:0:0:0:
352,104,182011,2,0,L|248:119,1,85,8|0,0:0|0:0,0:0:0:0:
394,197,182251,6,0,P|434:172|443:49,1,170,2|8,0:0|0:0,0:0:0:0:
345,19,182611,1,0,0:0:0:0:
299,185,182731,2,0,L|279:294,1,85,2|0,0:0|0:0,0:0:0:0:
144,381,182971,1,8,0:0:0:0:
144,381,183091,6,0,B|106:336|106:336|117:208,1,170
276,91,183451,1,8,0:0:0:0:
62,113,183571,1,0,0:0:0:0:
245,224,183691,1,2,0:0:0:0:
164,25,183811,1,0,0:0:0:0:
116,226,183931,1,8,0:0:0:0:
290,85,184051,1,0,0:0:0:0:
44,98,184171,6,0,L|37:207,1,85,2|0,0:0|0:0,0:0:0:0:
237,325,184411,2,0,L|245:220,1,85,8|0,0:0|0:0,0:0:0:0:
141,42,184651,1,10,0:0:0:0:
330,168,184771,1,8,0:0:0:0:
116,247,184891,1,10,0:0:0:0:
306,366,185011,6,0,B|397:376|397:376|469:353|468:295,1,170
346,160,185371,2,0,B|323:196|323:196|328:261,1,85,8|0,0:0|0:0,0:0:0:0:
458,152,185611,2,0,B|481:116|481:116|476:51,1,85,2|0,0:0|0:0,0:0:0:0:
361,5,185851,1,8,0:0:0:0:
314,124,185971,1,0,0:0:0:0:
190,51,186091,6,0,L|170:152,1,85,2|0,0:0|0:0,0:0:0:0:
47,208,186331,2,0,L|65:304,1,85,8|0,0:0|0:0,0:0:0:0:
206,359,186571,1,2,0:0:0:0:
267,254,186691,1,0,0:0:0:0:
193,384,186811,1,8,0:0:0:0:
282,236,186931,6,0,P|338:197|432:225,1,170
364,280,187291,2,0,P|376:320|380:362,1,85,8|0,0:0|0:0,0:0:0:0:
131,362,187531,2,0,P|135:320|148:280,1,85,2|0,0:0|0:0,0:0:0:0:
74,154,187771,2,0,P|117:150|158:161,1,85,8|0,0:0|0:0,0:0:0:0:
364,280,188011,5,10,0:0:0:0:
410,87,188131,1,0,0:0:0:0:
247,213,188251,5,10,0:0:0:0:
119,84,188371,1,0,0:0:0:0:
315,61,188491,5,10,0:0:0:0:
312,277,188611,1,10,0:0:0:0:
124,171,188731,1,10,0:0:0:0:
315,61,188851,6,0,P|391:36|483:61,1,170,12|0,0:0|0:0,0:0:0:0:
507,167,189211,2,0,P|517:209|504:264,1,85
371,341,189451,2,0,P|363:291|375:240,1,85,2|0,0:0|0:0,0:0:0:0:
315,61,189691,2,0,P|328:106|311:170,1,85
195,302,189931,6,0,P|146:300|112:278,1,85,2|0,0:0|0:0,0:0:0:0:
0,120,190171,2,0,P|50:126|99:174,1,85,8|0,0:0|0:0,0:0:0:0:
174,221,190411,2,0,L|184:119,1,85,2|0,0:0|0:0,0:0:0:0:
342,30,190651,1,8,0:0:0:0:
335,286,190771,6,0,B|277:339|277:339|179:332,1,170
84,291,191131,2,0,P|104:259|172:235,1,85,8|0,0:0|0:0,0:0:0:0:
312,163,191371,2,0,P|281:187|200:174,1,85,2|0,0:0|0:0,0:0:0:0:
18,157,191611,2,0,P|54:180|96:179,1,85,8|0,0:0|0:0,0:0:0:0:
266,24,191851,6,0,P|261:66|246:105,1,85,2|0,0:0|0:0,0:0:0:0:
74,15,192091,2,0,P|72:57|86:98,1,85,8|0,0:0|0:0,0:0:0:0:
191,282,192331,1,2,0:0:0:0:
245,105,192451,1,0,0:0:0:0:
96,217,192571,1,8,0:0:0:0:
178,39,192691,6,0,P|246:10|341:48,1,170,4|0,0:0|0:0,0:0:0:0:
345,211,193051,1,8,0:0:0:0:
260,126,193171,1,0,0:0:0:0:
167,211,193291,2,0,L|65:239,1,85,2|0,0:0|0:0,0:0:0:0:
345,211,193531,2,0,L|447:239,1,85,8|0,0:0|0:0,0:0:0:0:
159,377,193771,6,0,P|145:327|160:284,1,85,2|0,0:0|0:0,0:0:0:0:
350,128,194011,2,0,P|357:170|344:210,1,85,8|0,0:0|0:0,0:0:0:0:
226,326,194251,5,2,0:0:0:0:
211,71,194371,1,8,0:0:0:0:
315,300,194491,1,0,0:0:0:0:
136,288,194611,6,0,P|79:262|199:173,1,297.5
190,162,195691,5,2,0:0:0:0:
286,195,195811,1,8,0:0:0:0:
383,143,195931,1,2,0:0:0:0:
366,25,196051,1,8,0:0:0:0:
230,14,196171,5,10,0:0:0:0:
173,165,196291,1,8,0:0:0:0:
355,137,196411,1,8,0:0:0:0:
117,43,196531,1,4,0:1:0:0:
