osu file format v12

[General]
AudioFilename: RWBY - This will be the day.mp3
AudioLeadIn: 0
PreviewTime: 38000
Countdown: 0
SampleSet: Normal
StackLeniency: 0.7
Mode: 3
LetterboxInBreaks: 0
SpecialStyle: 0
WidescreenStoryboard: 1

[Editor]
DistanceSpacing: 1.2
BeatDivisor: 4
GridSize: 4

[Metadata]
Title:This Will Be the Day (feat. Casey Lee Williams)
TitleUnicode:This Will Be the Day (feat. Casey Lee Williams)
Artist:Jeff Williams
ArtistUnicode:Jeff Williams
Creator:arcwinolivirus
Version:7K Hard
Source:RWBY
Tags:opening roosterteeth -DanteMayCry-
BeatmapID:375398
BeatmapSetID:130556

[Difficulty]
HPDrainRate:7
CircleSize:7
OverallDifficulty:8
ApproachRate:9
SliderMultiplier:1.6
SliderTickRate:3

[Events]
//Background and Video events
0,0,"BG.jpg",0,0
//Break Periods
//Storyboard Layer 0 (Background)
//Storyboard Layer 1 (Fail)
//Storyboard Layer 2 (Pass)
//Storyboard Layer 3 (Foreground)
//Storyboard Sound Samples
//Background Colour Transformations
3,100,163,162,255

[TimingPoints]
244,315.789473684211,4,1,1,51,1,0
38138,-100,4,1,1,51,0,1
63401,-100,4,1,1,51,0,0

[Colours]
Combo1 : 255,255,0
Combo2 : 255,0,0
Combo3 : 255,255,255
Combo4 : 80,80,80

[HitObjects]
402,192,244,1,0,2:0:0:8:
109,192,401,1,0,2:0:0:8:
329,192,559,1,0,2:0:0:8:
36,192,717,1,0,2:0:0:8:
475,192,875,1,0,2:0:0:8:
329,192,1033,1,0,2:0:0:8:
182,192,1191,1,0,2:0:0:8:
36,192,1349,1,0,2:0:0:8:
109,192,1507,1,0,2:0:0:8:
402,192,1665,1,0,2:0:0:8:
182,192,1822,1,0,2:0:0:8:
475,192,1980,1,0,2:0:0:8:
36,192,2138,1,0,2:0:0:8:
182,192,2296,1,0,2:0:0:8:
329,192,2454,1,0,2:0:0:8:
475,192,2612,1,0,2:0:0:8:
182,192,2770,1,4,3:0:0:0:
320,192,2770,1,0,2:0:0:8:
109,192,2928,1,0,2:0:0:8:
402,192,3086,1,0,2:0:0:8:
36,192,3244,1,0,0:0:0:0:
256,192,3244,1,0,2:0:0:8:
182,192,3401,1,0,2:0:0:8:
402,192,3559,1,4,3:0:0:0:
109,192,3717,1,4,3:0:0:0:
329,192,3875,1,0,2:0:0:8:
36,192,4033,1,0,2:0:0:8:
182,192,4033,1,0,2:0:0:8:
402,192,4191,1,0,2:0:0:8:
109,192,4349,1,0,2:0:0:8:
475,192,4507,1,0,0:0:0:0:
256,192,4507,1,0,2:0:0:8:
329,192,4665,1,0,2:0:0:8:
109,192,4822,1,0,2:0:0:8:
475,192,4980,1,0,2:0:0:8:
329,192,4980,1,0,2:0:0:8:
109,192,5138,1,0,2:0:0:8:
192,192,5296,1,4,3:0:0:0:
329,192,5296,1,0,2:0:0:8:
402,192,5454,1,0,2:0:0:8:
109,192,5612,1,4,3:0:0:0:
475,192,5770,1,0,0:0:0:0:
329,192,5770,1,0,2:0:0:8:
182,192,6086,1,4,3:0:0:0:
402,192,6244,1,4,3:0:0:0:
109,192,6401,1,8,3:0:0:0:
329,192,6559,1,4,3:0:0:0:
182,192,6559,1,0,2:0:0:8:
402,192,6875,1,4,3:0:0:0:
182,192,7033,1,0,0:0:0:0:
36,192,7033,1,0,2:0:0:8:
402,192,7349,1,4,3:0:0:0:
109,192,7507,1,4,3:0:0:0:
182,192,7822,1,4,3:0:0:0:
329,192,7822,1,0,2:0:0:8:
256,192,8296,1,0,2:0:0:8:
475,192,8296,1,0,0:0:0:0:
402,192,8612,1,4,3:0:0:0:
109,192,8770,1,4,3:0:0:0:
329,192,8928,1,8,3:0:0:0:
182,192,9086,1,4,3:0:0:0:
36,192,9086,1,0,2:0:0:8:
402,192,9401,1,4,3:0:0:0:
256,192,9559,1,0,0:0:0:0:
36,192,9559,1,0,2:0:0:8:
109,192,9875,1,4,3:0:0:0:
402,192,10033,1,4,3:0:0:0:
182,192,10191,1,8,3:0:0:0:
329,192,10349,1,4,3:0:0:0:
475,192,10349,1,0,2:0:0:8:
109,192,10665,1,4,3:0:0:0:
256,192,10822,1,0,0:0:0:0:
402,192,10822,1,0,2:0:0:8:
109,192,11138,1,4,3:0:0:0:
182,192,11296,1,4,3:0:0:0:
402,192,11454,1,8,3:0:0:0:
182,192,11612,1,0,2:0:0:8:
329,192,11612,1,4,3:0:0:0:
402,192,11928,1,4,3:0:0:0:
109,192,12086,1,0,2:0:0:0:
256,192,12086,1,0,0:0:0:51:
329,192,12401,1,4,3:0:0:0:
182,192,12559,1,4,3:0:0:0:
36,192,12559,1,0,2:0:0:8:
182,192,12875,1,4,3:0:0:0:
329,192,12875,1,0,2:0:0:8:
256,192,13349,1,0,0:0:0:51:
402,192,13349,1,0,2:0:0:8:
109,192,13665,1,4,3:0:0:0:
329,192,13822,1,4,3:0:0:0:
182,192,13980,1,8,3:0:0:0:
402,192,14138,1,4,3:0:0:0:
329,192,14138,1,0,2:0:0:8:
475,192,14454,1,4,3:0:0:0:
256,192,14612,1,0,2:0:0:8:
109,192,14612,1,0,0:0:0:0:
402,192,14928,1,4,3:0:0:0:
109,192,15086,1,4,3:0:0:0:
182,192,15086,1,0,2:0:0:8:
182,192,15401,1,4,3:0:0:0:
329,192,15401,1,0,2:0:0:8:
402,192,15717,1,4,3:0:0:0:
109,192,15875,1,0,2:0:0:8:
256,192,15875,1,0,0:0:0:0:
402,192,16191,1,4,3:0:0:0:
182,192,16349,1,4,3:0:0:0:
329,192,16507,1,8,3:0:0:0:
109,192,16665,1,4,3:0:0:0:
182,192,16665,1,0,2:0:0:8:
182,192,16980,1,0,2:0:0:8:
109,192,16980,1,4,3:0:0:0:
36,192,17296,128,0,17928:2:0:0:8:
329,192,17928,1,4,0:0:0:0:
182,192,17928,1,4,3:0:0:0:
256,192,18086,1,4,3:0:0:0:
402,192,18244,1,0,0:0:0:0:
475,192,18244,1,0,2:0:0:0:
109,192,18401,1,4,3:0:0:0:
329,192,18717,1,4,3:0:0:0:
109,192,18875,1,0,0:0:0:0:
182,192,18875,1,0,2:0:0:8:
402,192,19033,1,4,3:0:0:0:
329,192,19191,1,4,3:0:0:0:
256,192,19349,1,4,3:0:0:0:
36,192,19507,1,0,0:0:0:0:
109,192,19507,1,0,2:0:0:0:
402,192,19665,1,4,3:0:0:0:
256,192,19822,1,0,2:0:0:0:
329,192,19980,1,4,3:0:0:0:
109,192,20138,1,0,2:0:0:0:
182,192,20138,1,0,0:0:0:0:
182,192,20454,1,4,3:0:0:0:
329,192,20454,1,0,2:0:0:0:
256,192,20612,1,4,3:0:0:0:
109,192,20770,1,0,0:0:0:0:
36,192,20770,1,0,2:0:0:0:
402,192,20928,1,4,3:0:0:0:
182,192,21244,1,4,3:0:0:0:
329,192,21401,1,0,0:0:0:0:
402,192,21401,1,0,2:0:0:0:
109,192,21559,1,4,3:0:0:0:
182,192,21717,1,4,3:0:0:0:
256,192,21875,1,4,3:0:0:0:
402,192,22033,1,0,0:0:0:0:
475,192,22033,1,0,2:0:0:0:
109,192,22191,1,4,3:0:0:0:
256,192,22349,1,0,2:0:0:0:
182,192,22507,1,4,3:0:0:0:
320,192,22665,1,0,2:0:0:0:
402,192,22665,1,0,0:0:0:0:
109,192,22980,1,4,3:0:0:0:
402,192,22980,1,4,0:0:0:0:
182,192,23138,1,4,3:0:0:0:
256,192,23296,1,0,0:0:0:0:
329,192,23296,1,0,2:0:0:0:
402,192,23454,1,4,3:0:0:0:
109,192,23770,1,4,3:0:0:0:
329,192,23928,1,0,0:0:0:0:
182,192,23928,1,0,2:0:0:0:
109,192,24086,1,4,3:0:0:0:
402,192,24244,1,4,3:0:0:0:
329,192,24401,1,4,3:0:0:0:
182,192,24559,1,0,2:0:0:0:
256,192,24559,1,0,0:0:0:0:
109,192,24717,1,4,3:0:0:0:
402,192,25033,1,4,3:0:0:0:
182,192,25191,1,0,0:0:0:0:
329,192,25191,1,0,2:0:0:0:
402,192,25507,1,4,3:0:0:0:
109,192,25665,1,4,3:0:0:0:
475,192,25822,1,0,2:0:0:0:
329,192,25822,1,0,0:0:0:0:
182,192,25980,1,4,3:0:0:0:
182,192,26296,1,4,3:0:0:0:
329,192,26454,1,0,0:0:0:0:
475,192,26454,1,0,2:0:0:0:
256,192,26612,1,4,3:0:0:0:
402,192,26770,1,0,2:0:0:8:
475,192,26770,1,0,0:0:0:0:
109,192,26928,1,0,2:0:0:8:
36,192,26928,1,0,0:0:0:0:
329,192,27086,1,0,2:0:0:8:
402,192,27086,1,0,0:0:0:0:
182,192,27244,1,0,2:0:0:8:
109,192,27244,1,0,0:0:0:0:
475,192,27401,1,0,2:0:0:8:
402,192,27401,1,0,0:0:0:0:
109,192,27559,1,0,2:0:0:8:
36,192,27559,1,0,0:0:0:0:
402,192,27717,1,0,2:0:0:8:
329,192,27717,1,0,0:0:0:0:
109,192,27875,1,0,2:0:0:8:
182,192,27875,1,0,0:0:0:0:
36,192,28033,128,4,29296:0:0:0:0:
475,192,28033,1,0,2:0:0:8:
448,192,28349,1,0,2:0:0:8:
448,192,28665,1,0,2:0:0:8:
448,192,28980,1,0,2:0:0:8:
182,192,29296,128,0,30559:2:0:0:8:
402,192,29296,1,0,2:0:0:8:
402,192,29612,1,0,2:0:0:8:
402,192,29928,1,0,2:0:0:8:
402,192,30244,1,0,0:0:0:0:
329,192,30322,1,0,0:0:0:0:
256,192,30401,1,0,0:0:0:0:
109,192,30480,1,0,0:0:0:0:
475,192,30559,128,0,31822:2:0:0:8:
36,192,30559,1,4,0:0:0:0:
36,192,30875,1,0,2:0:0:8:
36,192,31191,1,0,2:0:0:8:
36,192,31507,1,0,2:0:0:8:
329,192,31822,128,0,32770:2:0:0:8:
109,192,31822,1,0,2:0:0:8:
109,192,32138,1,0,2:0:0:8:
109,192,32454,1,0,2:0:0:8:
475,192,32770,1,4,3:0:0:0:
182,192,32770,1,0,2:0:0:8:
256,192,32928,1,4,0:0:0:0:
402,192,32928,1,0,0:0:0:0:
182,192,33086,1,0,2:0:0:8:
329,192,33244,1,0,2:0:0:8:
109,192,33401,1,0,2:0:0:0:
182,192,33401,1,0,0:0:0:0:
109,192,33717,1,4,3:0:0:0:
329,192,33875,1,4,3:0:0:0:
109,192,34033,1,0,0:0:0:0:
182,192,34033,1,0,2:0:0:8:
402,192,34191,1,4,3:0:0:0:
256,192,34349,1,0,2:0:0:8:
329,192,34507,1,4,3:0:0:0:
109,192,34665,1,0,0:0:0:0:
182,192,34665,1,0,2:0:0:8:
402,192,34980,1,4,3:0:0:0:
256,192,35138,1,4,3:0:0:0:
475,192,35296,1,0,0:0:0:0:
329,192,35296,1,4,3:0:0:0:
182,192,35454,1,0,0:0:0:0:
36,192,35454,1,4,0:0:0:0:
256,192,35612,1,0,3:0:0:0:
402,192,35770,1,4,3:0:0:0:
109,192,35770,1,0,0:0:0:0:
182,192,35928,1,0,0:0:0:0:
329,192,35928,1,4,3:0:0:0:
36,192,36086,1,0,0:0:0:0:
475,192,36086,1,4,3:0:0:0:
329,192,36244,1,0,0:0:0:0:
182,192,36244,1,4,3:0:0:0:
475,192,36401,1,4,3:0:0:0:
36,192,36401,1,0,0:0:0:0:
402,192,36559,1,0,0:0:0:0:
109,192,36559,1,4,3:0:0:0:
329,192,36717,1,0,0:0:0:0:
182,192,36717,1,4,3:0:0:0:
256,192,36875,1,4,3:0:0:0:
475,192,36875,1,0,0:0:0:0:
475,192,37033,1,4,3:0:0:0:
256,192,37033,1,0,0:0:0:0:
109,192,37191,1,4,3:0:0:0:
329,192,37270,1,8,3:0:0:0:
182,192,37349,1,4,3:0:0:0:
402,192,37428,1,8,3:0:0:0:
256,192,37507,1,0,0:0:0:0:
36,192,37507,1,0,2:0:0:0:
36,192,37665,1,4,3:0:0:0:
256,192,37665,1,0,0:0:0:0:
182,192,37822,1,4,3:0:0:0:
402,192,37901,1,8,3:0:0:0:
109,192,37980,1,4,3:0:0:0:
329,192,38059,1,8,3:0:0:0:
256,192,38138,1,4,0:0:0:0:
182,192,38138,1,4,3:0:0:0:
320,192,38296,1,4,3:0:0:0:
109,192,38454,1,0,0:0:0:0:
182,192,38454,1,0,2:0:0:0:
402,192,38612,1,4,3:0:0:0:
36,192,38770,1,4,3:0:0:0:
182,192,38928,1,4,3:0:0:0:
402,192,39086,1,0,0:0:0:0:
320,192,39086,1,0,2:0:0:0:
109,192,39244,1,4,3:0:0:0:
402,192,39401,1,4,3:0:0:0:
329,192,39559,1,4,3:0:0:0:
36,192,39717,1,0,0:0:0:0:
182,192,39717,1,0,2:0:0:0:
402,192,39875,1,4,3:0:0:0:
109,192,40033,1,4,3:0:0:0:
192,192,40191,1,4,3:0:0:0:
320,192,40349,1,0,2:0:0:0:
475,192,40349,1,0,0:0:0:0:
109,192,40507,1,4,3:0:0:0:
448,192,40665,1,4,3:0:0:0:
329,192,40822,1,4,3:0:0:0:
256,192,40980,1,0,0:0:0:0:
109,192,40980,1,0,2:0:0:0:
402,192,41138,1,4,3:0:0:0:
36,192,41296,1,4,3:0:0:0:
182,192,41454,1,4,3:0:0:0:
256,192,41612,1,0,0:0:0:0:
402,192,41612,1,0,2:0:0:0:
109,192,41770,1,4,3:0:0:0:
475,192,41928,1,4,3:0:0:0:
329,192,42086,1,4,3:0:0:0:
109,192,42244,1,0,2:0:0:0:
256,192,42244,1,0,0:0:0:0:
402,192,42401,1,4,3:0:0:0:
36,192,42559,1,4,3:0:0:0:
182,192,42717,1,4,3:0:0:0:
402,192,42875,1,0,0:0:0:0:
256,192,42875,1,0,2:0:0:0:
402,192,43033,1,4,3:0:0:0:
109,192,43033,1,4,0:0:0:0:
475,192,43349,1,4,3:0:0:0:
320,192,43507,1,0,2:0:0:0:
256,192,43507,1,0,0:0:0:0:
192,192,43665,1,4,3:0:0:0:
320,192,43822,1,4,3:0:0:0:
36,192,43980,1,4,3:0:0:0:
320,192,44138,1,0,2:0:0:0:
256,192,44138,1,0,0:0:0:0:
192,192,44296,1,4,3:0:0:0:
448,192,44454,1,4,3:0:0:0:
109,192,44612,1,4,3:0:0:0:
182,192,44770,1,0,2:0:0:0:
256,192,44770,1,0,0:0:0:0:
329,192,44928,1,4,3:0:0:0:
475,192,45086,1,4,3:0:0:0:
109,192,45244,1,4,3:0:0:0:
182,192,45401,1,0,2:0:0:0:
256,192,45401,1,0,0:0:0:0:
402,192,45559,1,4,3:0:0:0:
320,192,45717,1,0,2:0:0:8:
64,192,45875,1,4,3:0:0:0:
329,192,46033,1,0,0:0:0:0:
192,192,46033,1,0,2:0:0:0:
402,192,46191,1,4,3:0:0:0:
109,192,46349,1,4,3:0:0:0:
475,192,46507,1,4,3:0:0:0:
182,192,46665,1,0,2:0:0:0:
329,192,46665,1,0,0:0:0:0:
402,192,46822,1,4,3:0:0:0:
64,192,46980,1,4,3:0:0:0:
256,192,46980,1,4,0:0:0:0:
402,192,47138,1,4,3:0:0:0:
182,192,47296,1,0,2:0:0:0:
329,192,47296,1,0,0:0:0:0:
109,192,47454,1,4,3:0:0:0:
402,192,47612,1,4,3:0:0:0:
109,192,47770,1,4,3:0:0:0:
329,192,47928,1,0,0:0:0:0:
192,192,47928,1,0,2:0:0:0:
36,192,48086,1,4,3:0:0:0:
109,192,48165,1,8,3:0:0:0:
182,192,48244,1,0,2:0:0:0:
256,192,48244,1,4,0:0:0:0:
402,192,48401,1,0,2:0:0:8:
182,192,48559,1,0,2:0:0:0:
109,192,48559,1,0,0:0:0:0:
256,192,48717,1,4,3:0:0:0:
402,192,48875,1,4,3:0:0:0:
109,192,49033,1,4,3:0:0:0:
402,192,49191,1,0,0:0:0:0:
329,192,49191,1,0,2:0:0:0:
256,192,49349,1,4,3:0:0:0:
182,192,49507,1,4,3:0:0:0:
329,192,49665,1,4,3:0:0:0:
109,192,49822,1,0,2:0:0:0:
402,192,49822,1,0,0:0:0:0:
256,192,49980,1,4,3:0:0:0:
329,192,50138,1,4,3:0:0:0:
182,192,50296,1,4,3:0:0:0:
402,192,50454,1,0,0:0:0:0:
109,192,50454,1,0,2:0:0:8:
475,192,50612,1,4,3:0:0:0:
402,192,50691,1,8,3:0:0:0:
329,192,50770,1,4,3:0:0:0:
256,192,50770,1,4,0:0:0:0:
109,192,50928,1,4,3:0:0:0:
448,192,51086,1,0,2:0:0:0:
320,192,51086,1,0,0:0:0:0:
182,192,51244,1,4,3:0:0:0:
109,192,51401,1,4,3:0:0:0:
402,192,51559,1,4,3:0:0:0:
192,192,51717,1,0,0:0:0:0:
36,192,51717,1,0,2:0:0:0:
475,192,51875,1,4,3:0:0:0:
256,192,51875,1,4,0:0:0:0:
109,192,52191,1,4,3:0:0:0:
402,192,52349,1,0,2:0:0:0:
320,192,52349,1,0,0:0:0:0:
64,192,52507,1,4,3:0:0:0:
402,192,52665,1,4,3:0:0:0:
192,192,52822,1,4,3:0:0:0:
320,192,52980,1,0,0:0:0:0:
475,192,52980,1,0,2:0:0:0:
475,192,53138,1,4,3:0:0:0:
256,192,53138,1,4,0:0:0:0:
36,192,53138,128,0,54401:2:0:0:8:
109,192,53296,1,4,3:0:0:0:
402,192,53454,1,4,3:0:0:0:
182,192,53612,1,0,0:0:0:0:
256,192,53612,1,0,2:0:0:0:
329,192,53770,1,4,3:0:0:0:
109,192,53928,1,4,3:0:0:0:
402,192,54086,1,4,3:0:0:0:
256,192,54244,1,0,2:0:0:0:
182,192,54244,1,0,0:0:0:0:
402,192,54401,1,4,3:0:0:0:
109,192,54401,1,4,0:0:0:0:
475,192,54401,128,0,55822:2:0:0:8:
36,192,54717,1,4,3:0:0:0:
256,192,54875,1,0,0:0:0:0:
329,192,54875,1,0,2:0:0:0:
36,192,55033,1,4,3:0:0:0:
402,192,55191,1,4,3:0:0:0:
36,192,55349,1,4,3:0:0:0:
256,192,55507,1,0,0:0:0:0:
329,192,55507,1,0,2:0:0:0:
36,192,55665,1,4,3:0:0:0:
402,192,55822,1,4,3:0:0:0:
256,192,55822,1,4,0:0:0:0:
182,192,55822,128,0,56928:2:0:0:8:
109,192,55980,1,4,3:0:0:0:
329,192,56138,1,0,0:0:0:0:
448,192,56138,1,0,2:0:0:0:
36,192,56296,1,4,3:0:0:0:
402,192,56454,1,4,3:0:0:0:
109,192,56612,1,4,3:0:0:0:
475,192,56770,1,0,2:0:0:0:
329,192,56770,1,0,0:0:0:0:
256,192,56928,1,4,0:0:0:0:
329,192,56928,128,0,58191:2:0:0:8:
402,192,57244,1,4,3:0:0:0:
109,192,57401,1,0,2:0:0:0:
182,192,57401,1,0,0:0:0:0:
402,192,57559,1,4,3:0:0:0:
256,192,57717,1,4,3:0:0:0:
402,192,57875,1,4,3:0:0:0:
182,192,58033,1,0,2:0:0:0:
109,192,58033,1,0,0:0:0:0:
402,192,58191,1,4,3:0:0:0:
256,192,58191,1,4,0:0:0:0:
109,192,58191,128,0,59454:2:0:0:8:
475,192,58349,1,0,2:0:0:8:
182,192,58507,1,4,3:0:0:0:
329,192,58665,1,0,2:0:0:0:
448,192,58665,1,0,0:0:0:0:
36,192,58822,1,4,3:0:0:0:
475,192,58980,1,4,3:0:0:0:
182,192,59138,1,4,3:0:0:0:
329,192,59296,1,0,2:0:0:0:
475,192,59296,1,0,0:0:0:0:
320,192,59454,128,4,60559:3:0:0:0:
402,192,59454,1,4,0:0:0:0:
36,192,59770,1,4,3:0:0:0:
402,192,59928,1,0,2:0:0:0:
109,192,59928,1,0,0:0:0:0:
256,192,60086,1,4,3:0:0:0:
475,192,60244,1,4,3:0:0:0:
36,192,60401,1,4,3:0:0:0:
109,192,60559,1,0,2:0:0:0:
402,192,60559,1,0,0:0:0:0:
182,192,60717,1,4,3:0:0:0:
329,192,60717,1,4,0:0:0:0:
256,192,60875,1,0,2:0:0:8:
402,192,61033,1,0,2:0:0:0:
109,192,61033,1,4,3:0:0:0:
329,192,61191,1,0,2:0:0:0:
182,192,61191,1,4,3:0:0:0:
475,192,61349,1,0,0:0:0:0:
256,192,61349,1,4,0:0:0:0:
182,192,61507,1,0,2:0:0:8:
109,192,61665,1,0,2:0:0:0:
402,192,61665,1,4,3:0:0:0:
182,192,61822,1,0,2:0:0:0:
329,192,61822,1,4,3:0:0:0:
36,192,61980,1,0,0:0:0:0:
256,192,61980,1,4,0:0:0:0:
329,192,62217,1,0,0:0:0:0:
182,192,62296,1,0,0:0:0:0:
402,192,62375,1,0,0:0:0:0:
109,192,62454,1,0,0:0:0:0:
329,192,62533,1,0,0:0:0:0:
182,192,62612,1,0,0:0:0:0:
402,192,62691,1,0,0:0:0:0:
109,192,62770,1,0,0:0:0:0:
329,192,62849,1,0,0:0:0:0:
182,192,62928,1,0,0:0:0:0:
109,192,63086,1,0,2:0:0:0:
329,192,63086,1,0,0:0:0:0:
475,192,63244,128,0,64033:2:0:0:0:
256,192,63244,128,4,64033:0:0:0:0:
36,192,63244,128,0,64033:2:0:0:8:
