osu file format v12

[General]
AudioFilename: Jeff WIlliams - This Will Be the Day (feat. Casey Lee Williams).mp3
AudioLeadIn: 0
PreviewTime: 37920
Countdown: 0
SampleSet: Soft
StackLeniency: 0.6
Mode: 0
LetterboxInBreaks: 0
WidescreenStoryboard: 1

[Editor]
Bookmarks: 2631,7683,17789,27894,32789,35315,37999,50631,63262,65789,68315,78420,88526,93432,98642,104010,108747,113642,121220,123905,126431,128957,134010,151694,153589,154220,179326,180747
DistanceSpacing: 1.4
BeatDivisor: 4
GridSize: 4

[Metadata]
Title:This Will Be the Day (feat. Casey Lee Williams)
TitleUnicode:This Will Be the Day (feat. Casey Lee Williams)
Artist:Jeff Williams
ArtistUnicode:Jeff Williams
Creator:ampzz
Version:Hard
Source:RWBY
Tags:Alternative Rock Rooster Teeth Productions Monty Oum Ruby Rose Weiss Schnee Blake Belladonna Yang Xiao Long red white black yellow theme song opening askray DakeDekaane meiikyuu
BeatmapID:303370
BeatmapSetID:117269

[Difficulty]
HPDrainRate:6
CircleSize:4
OverallDifficulty:6
ApproachRate:8
SliderMultiplier:1.4
SliderTickRate:2

[Events]
//Background and Video events
0,0,"Jeff WIlliams - This Will Be the Day (feat Casey Lee Williams) - Background.jpg",0,0
//Break Periods
//Storyboard Layer 0 (Background)
//Storyboard Layer 1 (Fail)
//Storyboard Layer 2 (Pass)
//Storyboard Layer 3 (Foreground)
//Storyboard Sound Samples
//Background Colour Transformations
3,100,255,255,255

[TimingPoints]
105,315.789473684211,4,2,1,50,1,0
2631,-133.333333333333,4,2,1,50,0,0
5394,-133.333333333333,4,2,1,20,0,0
5473,-133.333333333333,4,2,1,50,0,0
16841,-133.333333333333,4,2,1,30,0,0
16999,-133.333333333333,4,2,1,50,0,0
17789,-100,4,1,1,50,0,0
27894,-133.333333333333,4,3,1,50,0,0
32631,-100,4,1,1,50,0,0
37999,-100,4,1,1,50,0,1
63262,-100,4,1,1,50,0,0
63420,-100,4,1,1,45,0,0
63578,-100,4,1,1,40,0,0
63736,-100,4,1,1,35,0,0
63894,-100,4,1,1,30,0,0
64052,-100,4,2,1,20,0,0
64210,-100,4,2,1,15,0,0
64368,-100,4,2,1,10,0,0
64526,-100,4,2,1,5,0,0
65789,-100,4,1,1,50,0,0
88210,-100,4,2,1,65,0,0
88526,322.58064516129,4,2,1,50,1,0
93432,315.789473684211,4,1,1,50,1,0
93589,315.789473684211,4,1,1,50,1,0
100378,-100,4,1,1,50,0,0
123905,-133.333333333333,4,2,1,30,0,0
153589,-100,4,1,1,50,0,0
154220,-100,4,1,1,50,0,1
179326,-117.647058823529,4,1,1,50,0,1
179957,-117.647058823529,4,1,1,20,0,1
180036,-117.647058823529,4,1,1,50,0,1
180115,-100,4,2,1,50,0,0

[Colours]
Combo1 : 181,106,255
Combo2 : 255,0,0
Combo3 : 255,128,128
Combo4 : 128,255,255
Combo5 : 0,128,255
Combo6 : 128,128,128
Combo7 : 191,96,0
Combo8 : 255,191,128

[HitObjects]
149,265,2631,2,0,P|202:209|197:133,1,157.500006008148,4|8,0:0|0:0,0:0:0:0:
50,75,3420,1,0,0:0:0:0:
54,153,3578,1,8,0:3:0:0:
127,182,3736,1,0,0:0:0:0:
197,133,3894,6,0,L|247:118,2,52.5000020027161,0|0|8,0:0|0:0|0:3,0:0:0:0:
194,53,4368,2,0,P|244:43|296:53,1,105.000004005432,8|0,0:0|0:0,0:0:0:0:
336,120,4841,2,0,P|336:146|329:171,1,52.5000020027161,8|0,0:3|0:0,0:0:0:0:
243,218,5157,6,0,P|229:240|220:265,1,52.5000020027161,4|0,0:3|0:0,0:0:0:0:
250,339,5473,1,8,0:3:0:0:
320,373,5631,2,0,P|362:344|392:302,1,105.000004005432,8|0,0:0|0:0,0:0:0:0:
404,206,6105,1,8,0:0:0:0:
375,116,6262,1,0,0:0:0:0:
283,92,6420,6,0,L|231:92,2,52.5000020027161,4|0|8,0:3|0:0|0:3,0:0:0:0:
250,19,6894,2,0,P|193:26|160:58,1,105.000004005432,8|8,0:0|3:3,0:0:0:0:
156,73,7289,1,0,3:0:0:0:
155,88,7368,2,0,L|155:141,1,52.5000020027161,8|0,3:3|0:0,0:0:0:0:
201,203,7683,5,0,0:0:0:0:
273,232,7841,1,0,0:0:0:0:
296,307,7999,1,0,0:0:0:0:
256,375,8157,2,0,P|221:335|220:283,1,105.000004005432,8|0,0:0|0:0,0:0:0:0:
295,226,8631,1,0,0:0:0:0:
389,235,8789,1,0,0:0:0:0:
476,198,8947,6,0,P|481:147|455:102,1,105.000004005432,4|8,0:3|0:3,0:0:0:0:
363,79,9420,1,8,0:0:0:0:
271,103,9578,2,0,L|186:41,2,105.000004005432,0|0|0,0:0|0:0|0:0,0:0:0:0:
392,204,10526,5,8,0:0:0:0:
359,275,10683,1,8,0:0:0:0:
280,279,10841,1,0,0:0:0:0:
307,204,10999,2,0,P|256:198|217:230,1,105.000004005432,0|0,0:0|0:0,0:0:0:0:
165,305,11473,2,0,L|114:318,1,52.5000020027161,0|0,0:0|0:0,0:0:0:0:
47,258,11789,2,0,L|97:244,1,52.5000020027161,0|8,0:0|0:0,0:0:0:0:
161,180,12105,2,0,P|174:128|160:80,1,105.000004005432,0|0,0:0|0:0,0:0:0:0:
78,43,12578,1,0,0:0:0:0:
7,98,12736,6,0,P|48:129|100:133,1,105.000004005432,4|0,0:3|0:0,0:0:0:0:
160,80,13210,2,0,P|213:73|265:79,1,105.000004005432,8|0,0:0|0:0,0:0:0:0:
324,130,13683,1,8,0:3:0:0:
278,194,13841,1,0,0:0:0:0:
332,248,13999,2,0,P|349:298|332:347,1,105.000004005432,0|8,0:3|0:3,0:0:0:0:
256,367,14473,1,8,0:0:0:0:
208,304,14631,2,0,L|158:287,1,52.5000020027161,0|0,0:0|0:0,0:0:0:0:
141,198,14947,2,0,L|191:215,1,52.5000020027161,0|0,0:0|0:0,0:0:0:0:
278,194,15262,6,0,P|285:143|260:98,1,105.000004005432,4|0,0:3|0:0,0:0:0:0:
181,106,15736,2,0,B|137:117|115:96|76:106,1,105.000004005432,8|0,0:0|0:0,0:0:0:0:
12,151,16210,1,0,0:0:0:0:
26,228,16368,1,0,0:0:0:0:
102,248,16526,2,0,P|126:250|155:256,1,52.5000020027161,0|0,0:0|0:0,0:0:0:0:
231,324,16841,2,0,P|256:328|285:324,1,52.5000020027161,0|0,3:0|0:0,0:0:0:0:
358,256,17157,1,0,0:0:0:0:
358,256,17789,5,0,0:0:0:0:
256,121,18105,1,8,0:0:0:0:
214,48,18262,2,0,P|281:40|330:87,1,140,12|0,0:0|0:0,0:0:0:0:
322,171,18736,1,8,0:0:0:0:
257,224,18894,1,0,0:0:0:0:
173,212,19052,2,0,L|102:207,1,70,0|0,0:0|0:0,0:0:0:0:
94,305,19368,2,0,L|165:310,1,70,8|0,0:0|0:0,0:0:0:0:
256,276,19683,2,0,P|324:264|393:276,2,140,0|12|4,0:0|0:0|0:0,0:0:0:0:
87,378,20631,5,8,0:0:0:0:
14,323,20789,2,0,B|8:270|50:238|50:238|95:229,1,140,12|0,0:0|0:0,0:0:0:0:
182,216,21262,1,8,0:0:0:0:
236,143,21420,1,0,0:0:0:0:
184,67,21578,2,0,P|150:52|118:51,1,70,0|0,0:0|0:0,0:0:0:0:
71,138,21894,2,0,P|105:151|138:154,1,70,8|0,0:0|0:0,0:0:0:0:
236,143,22210,2,0,B|282:143|282:143|326:156|326:156|376:156,1,140,0|12,0:0|0:0,0:0:0:0:
472,154,22683,1,0,0:0:0:0:
436,289,22841,6,2,P|370:303|320:257,1,140,4|12,0:0|0:0,0:0:0:0:
390,234,23315,2,0,P|363:298|321:354,2,140,8|0|0,0:0|0:0|0:0,0:0:0:0:
389,149,24105,2,0,P|364:122|334:105,1,70,0|0,0:0|0:0,0:0:0:0:
252,126,24420,2,0,P|218:131|184:125,1,70,8|0,0:0|0:0,0:0:0:0:
126,61,24736,2,2,P|156:42|191:38,1,70,0|0,0:0|0:0,0:0:0:0:
252,126,25052,2,0,P|255:160|243:192,1,70,8|0,0:0|0:0,0:0:0:0:
167,254,25368,6,2,L|115:300,2,70,0|0|8,0:0|0:0|0:0,0:0:0:0:
243,193,25841,2,0,P|302:178|379:191,1,140,0|0,0:0|0:0,0:0:0:0:
458,248,26315,1,8,0:0:0:0:
425,340,26473,1,0,0:0:0:0:
326,343,26631,5,0,0:0:0:0:
299,248,26789,1,8,0:0:0:0:
379,191,26947,1,8,0:0:0:0:
335,102,27105,1,8,0:0:0:0:
250,53,27262,2,0,P|215:58|185:76,1,70,8|8,0:0|0:0,0:0:0:0:
216,213,27578,2,0,P|236:185|247:152,1,70,8|8,0:0|0:0,0:0:0:0:
133,172,27894,6,0,P|143:272|236:304,1,210.000008010865,4|0,0:1|0:0,0:0:0:0:
319,239,28841,1,0,0:0:0:0:
375,150,29157,2,0,P|359:100|320:65,2,105.000004005432,0|0|0,0:2|0:0|0:0,0:0:0:0:
270,161,30105,2,0,L|251:178,3,26.2500010013581,0|0|0|0,1:0|0:0|1:0|0:0,0:0:0:0:
270,161,30420,6,0,B|198:161|198:161|146:188|146:188|67:188,1,210.000008010865,4|0,0:1|0:0,0:0:0:0:
5,102,31368,1,0,0:0:0:0:
67,17,31683,2,0,B|150:17|150:17|169:29,1,105.000004005432,0|0,0:0|0:0,0:0:0:0:
169,134,32315,2,0,B|188:146|188:146|271:146,1,105.000004005432,0|8,0:0|0:0,0:0:0:0:
338,74,32789,6,2,P|400:94|435:156,1,140,4|0,0:0|0:0,0:0:0:0:
368,228,33262,2,0,P|306:208|271:146,1,140,8|0,0:0|0:0,0:0:0:0:
256,47,33736,2,2,P|230:23|197:10,1,70,0|8,0:0|0:0,0:0:0:0:
110,57,34052,2,0,L|57:190,1,140,0|0,0:0|0:0,0:0:0:0:
22,94,34526,2,2,P|90:104|150:140,1,140,8|0,0:0|0:0,0:0:0:0:
197,226,34999,2,0,P|193:260|178:292,1,70,8|8,0:0|0:0,0:0:0:0:
120,212,35315,6,2,P|160:157|228:153,1,140,4|0,0:0|0:0,0:0:0:0:
310,207,35789,1,8,0:0:0:0:
405,230,35947,1,8,0:0:0:0:
454,145,36105,1,8,0:0:0:0:
387,74,36262,1,8,0:0:0:0:
296,110,36420,1,12,0:0:0:0:
310,207,36578,6,2,P|293:237|269:263,1,70,8|8,0:0|0:0,0:0:0:0:
175,292,36894,1,8,0:0:0:0:
89,243,37052,2,0,L|48:253,2,35,8|0|8,0:0|0:0|0:0,0:0:0:0:
185,220,37368,2,0,P|216:234|239:260,1,70,8|8,0:0|0:0,0:0:0:0:
275,162,37683,2,0,L|289:123,3,35,8|0|8|0,0:0|0:0|0:0|0:0,0:0:0:0:
301,90,37999,6,0,L|319:23,1,70,12|0,0:0|0:0,0:0:0:0:
221,37,38315,1,8,0:0:0:0:
173,123,38473,1,0,0:0:0:0:
185,220,38631,2,0,L|167:287,2,70,0|0|8,0:0|0:0|0:0,0:0:0:0:
256,288,39105,2,0,L|241:357,1,70,0|0,0:0|0:0,0:0:0:0:
334,325,39420,1,0,0:0:0:0:
317,228,39578,1,8,0:0:0:0:
333,131,39736,2,2,P|382:84|451:83,1,140,8|0,0:0|0:0,0:0:0:0:
512,161,40210,2,0,P|512:193|498:228,1,70,8|0,0:0|0:0,0:0:0:0:
410,274,40526,5,0,0:0:0:0:
410,274,40683,1,0,0:0:0:0:
420,176,40841,1,8,0:0:0:0:
333,131,40999,1,0,0:0:0:0:
254,190,41157,2,0,P|219:195|185:190,1,70,0|0,0:0|0:0,0:0:0:0:
112,122,41473,1,8,0:0:0:0:
163,38,41631,2,0,P|190:58|211:86,1,70,0|0,0:0|0:0,0:0:0:0:
163,172,41947,2,0,P|158:206|162:241,1,70,0|8,0:0|0:0,0:0:0:0:
235,306,42262,2,0,L|308:313,1,70,0|0,0:0|0:0,0:0:0:0:
377,245,42578,2,0,L|304:238,1,70,0|8,0:0|0:0,0:0:0:0:
209,229,42894,6,2,P|160:276|164:344,1,140,4|0,0:0|0:0,0:0:0:0:
259,373,43368,1,8,0:0:0:0:
355,354,43526,1,0,0:0:0:0:
300,285,43683,2,0,P|266:291|235:306,1,70,0|0,0:0|0:0,0:0:0:0:
142,340,43999,2,0,P|107:334|76:319,1,70,8|0,0:0|0:0,0:0:0:0:
59,222,44315,2,0,L|129:201,1,70,0|0,0:0|0:0,0:0:0:0:
222,181,44631,1,8,0:0:0:0:
317,203,44789,2,0,L|384:223,1,70,8|0,0:0|0:0,0:0:0:0:
465,276,45105,2,2,P|455:343|395:374,2,140,8|0|0,0:0|0:0|0:0,0:0:0:0:
384,223,45894,5,8,0:0:0:0:
299,272,46052,1,0,0:0:0:0:
209,231,46210,1,0,0:0:0:0:
198,136,46368,1,0,0:0:0:0:
272,72,46526,2,0,P|306:65|340:72,1,70,8|0,0:0|0:0,0:0:0:0:
298,160,46841,2,2,P|229:154|185:102,1,140,4|8,0:0|0:0,0:0:0:0:
163,213,47315,2,0,L|148:354,1,140,8|0,0:0|0:0,0:0:0:0:
64,276,47789,1,8,0:0:0:0:
95,168,47947,1,8,0:0:0:0:
186,102,48105,6,0,P|220:94|255:95,1,70,12|0,0:0|0:0,0:0:0:0:
275,190,48420,2,0,P|309:197|344:196,1,70,8|0,0:0|0:0,0:0:0:0:
414,128,48736,2,0,P|359:167|346:235,1,140,8|8,0:0|0:0,0:0:0:0:
402,317,49210,2,0,L|455:364,1,70,0|0,0:0|0:0,0:0:0:0:
487,270,49526,2,0,P|456:252|423:242,1,70,0|8,0:0|0:0,0:0:0:0:
329,271,49841,2,0,P|295:261|266:243,1,70,0|0,0:0|0:0,0:0:0:0:
223,153,50157,1,0,0:0:0:0:
307,103,50315,2,0,P|325:132|327:170,1,70,8|0,0:0|0:0,0:0:0:0:
404,232,50631,6,0,L|414:162,1,70,4|4,0:0|0:0,0:0:0:0:
324,248,50947,2,0,L|334:317,1,70,8|0,0:0|0:0,0:0:0:0:
240,300,51262,2,0,P|170:294|100:290,1,140,0|8,0:0|0:0,0:0:0:0:
127,196,51736,2,0,P|139:126|140:57,1,140,4|0,0:0|0:0,0:0:0:0:
140,57,52210,1,8,0:0:0:0:
240,56,52368,2,0,L|309:46,2,70,0|0|0,0:0|0:0|0:0,0:0:0:0:
207,148,52841,1,8,0:0:0:0:
304,136,52999,6,2,L|287:274,1,140,4|0,0:0|0:0,0:0:0:0:
385,338,53473,2,0,P|392:303|395:269,1,70,8|0,0:0|0:0,0:0:0:0:
287,275,53789,1,0,0:0:0:0:
201,226,53947,1,0,0:0:0:0:
124,288,54105,1,8,0:0:0:0:
103,192,54263,2,2,P|85:132|29:72,1,140,4|0,0:0|0:0,0:0:0:0:
126,43,54736,2,0,L|267:34,1,140,8|0,0:0|0:0,0:0:0:0:
356,72,55210,1,8,0:0:0:0:
415,150,55368,1,8,0:0:0:0:
415,150,55526,1,0,0:0:0:0:
404,247,55683,6,2,P|346:285|277:280,1,140,4|8,0:0|0:0,0:0:0:0:
275,183,56157,2,0,P|207:178|149:215,1,140,0|0,0:0|0:0,0:0:0:0:
88,296,56631,1,8,0:0:0:0:
40,208,56789,2,10,P|39:138|50:68,1,140,4|0,0:0|0:0,0:0:0:0:
164,31,57262,2,8,P|165:100|153:169,1,140,8|0,0:0|0:0,0:0:0:0:
153,170,57736,2,0,L|222:167,1,70,0|8,0:0|0:0,0:0:0:0:
320,180,58052,6,2,P|300:246|248:291,1,140,0|0,0:0|0:0,0:0:0:0:
248,291,58526,2,0,L|178:294,1,70,8|0,0:0|0:0,0:0:0:0:
316,344,58841,2,0,L|385:340,2,70,0|0|8,0:0|0:0|0:0,0:0:0:0:
248,291,59315,2,2,L|108:298,1,140,4|0,0:0|0:0,0:0:0:0:
76,208,59789,2,2,L|61:139,1,70,8|8,0:0|0:0,0:0:0:0:
184,76,60105,2,2,L|184:146,1,70,8|0,0:0|0:0,0:0:0:0:
288,216,60420,1,8,0:0:0:0:
288,216,60578,6,2,L|299:76,1,140,4|0,0:0|0:0,0:0:0:0:
384,24,61052,1,8,0:0:0:0:
452,92,61210,2,2,L|440:231,1,140,4|0,0:0|0:0,0:0:0:0:
360,288,61683,1,8,0:0:0:0:
272,328,61841,6,2,B|225:327|225:327|185:336|185:336|134:332,1,140,4|0,0:0|0:0,0:0:0:0:
45,288,62315,2,8,L|17:268,8,35,0|0|4|0|0|0|0|0|0,0:0|0:0|0:0|0:0|0:0|0:0|0:0|0:0|0:0,0:0:0:0:
128,235,63105,1,4,0:0:0:0:
256,192,63262,12,2,64526,0:0:0:0:
344,265,65789,6,0,P|294:314|233:348,1,140,8|0,0:0|0:0,0:0:0:0:
135,341,66262,1,4,0:0:0:0:
67,269,66420,2,0,P|60:234|57:199,1,70,0|0,0:0|0:0,0:0:0:0:
141,148,66736,2,0,P|148:183|151:218,1,70,8|0,0:0|0:0,0:0:0:0:
239,260,67052,5,8,0:0:0:0:
275,169,67210,1,0,0:0:0:0:
357,115,67368,2,0,P|370:107|388:100,4,35,8|0|0|0|12,0:0|0:0|0:0|0:0|0:0,0:0:0:0:
372,211,67841,2,0,P|388:210|406:211,4,35,0|0|8|0|0,0:0|0:0|0:0|0:0|0:0,0:0:0:0:
301,280,68315,5,4,0:2:0:0:
256,89,68631,1,8,0:0:0:0:
161,62,68789,2,0,L|90:84,1,70,0|0,0:0|0:0,0:0:0:0:
57,174,69105,2,0,L|123:153,1,70,0|8,0:0|0:0,0:0:0:0:
193,222,69420,1,0,0:0:0:0:
204,319,69578,2,0,P|137:304|97:248,1,140,0|8,0:0|0:0,0:0:0:0:
124,153,70052,1,0,0:0:0:0:
193,222,70210,2,0,P|227:228|261:225,1,70,0|0,0:0|0:0,0:0:0:0:
317,143,70526,2,0,P|351:139|385:146,1,70,8|0,0:0|0:0,0:0:0:0:
420,223,70841,5,0,0:0:0:0:
325,249,70999,1,0,0:0:0:0:
236,206,71157,1,8,0:0:0:0:
238,107,71315,2,0,P|254:76|280:51,1,70,0|0,0:0|0:0,0:0:0:0:
317,143,71631,2,0,P|267:190|195:185,1,140,0|0,0:0|0:0,0:0:0:0:
140,107,72105,2,0,P|76:80|10:98,2,140,0|8|0,0:0|0:0|0:0,0:0:0:0:
164,201,72894,1,0,0:0:0:0:
132,294,73052,1,8,0:0:0:0:
34,307,73210,1,0,0:0:0:0:
17,194,73368,6,0,P|43:171|76:157,1,70,4|0,0:0|0:0,0:0:0:0:
164,201,73683,2,0,P|196:213|231:218,1,70,8|0,0:0|0:0,0:0:0:0:
326,194,73999,1,0,0:0:0:0:
329,95,74157,2,0,P|296:82|262:78,1,70,0|8,0:0|0:0,0:0:0:0:
181,134,74473,1,0,0:0:0:0:
231,218,74631,2,0,P|286:260|349:291,1,140,0|8,0:0|0:0,0:0:0:0:
435,242,75105,1,0,0:0:0:0:
457,147,75262,2,0,P|430:125|400:108,1,70,0|0,0:0|0:0,0:0:0:0:
301,99,75578,5,8,0:0:0:0:
326,194,75736,1,0,0:0:0:0:
301,99,75894,2,0,L|231:99,2,70,0|0|8,0:0|0:0|0:0,0:0:0:0:
232,28,76368,2,0,P|171:58|162:124,1,140,0|8,0:0|0:0,0:0:0:0:
231,195,76841,1,8,0:0:0:0:
231,195,76999,2,0,P|242:262|209:322,1,140,8|0,0:0|0:0,0:0:0:0:
145,247,77473,1,8,0:0:0:0:
80,173,77631,2,0,P|46:232|58:300,1,140,0|8,0:0|0:0,0:0:0:0:
155,342,78105,1,8,0:0:0:0:
224,264,78262,1,0,0:0:0:0:
153,152,78420,5,4,0:0:0:0:
153,152,78736,1,12,0:0:0:0:
256,120,78894,2,0,B|320:120|320:162|386:162,1,140,0|0,0:0|0:0,0:0:0:0:
471,111,79368,1,8,0:0:0:0:
384,64,79526,1,0,0:0:0:0:
386,162,79683,2,0,P|357:224|296:256,1,140,0|12,0:0|0:0,0:0:0:0:
206,216,80157,1,0,0:0:0:0:
275,146,80315,2,0,B|281:101|281:101|266:57|266:57|275:10,2,140,0|12|0,0:0|0:0|0:0,0:0:0:0:
176,145,81105,1,0,0:0:0:0:
83,176,81262,5,8,0:0:0:0:
0,228,81420,2,0,P|46:268|122:268,1,140,4|0,0:0|0:0,0:0:0:0:
184,191,81894,1,8,0:0:0:0:
155,97,82052,1,0,0:0:0:0:
247,130,82210,2,0,P|271:193|242:256,1,140,0|12,0:0|0:0,0:0:0:0:
144,256,82683,1,0,0:0:0:0:
243,256,82841,1,0,0:0:0:0:
309,328,82999,1,0,0:0:0:0:
403,352,83157,2,0,P|427:327|437:294,1,70,12|0,0:0|0:0,0:0:0:0:
382,151,83473,6,2,B|339:130|339:130|247:130,1,140,4|8,0:0|0:0,0:0:0:0:
177,60,83947,2,0,B|220:39|220:39|312:39,1,140,0|0,0:0|0:0,0:0:0:0:
405,69,84420,1,12,0:0:0:0:
478,133,84578,1,0,0:0:0:0:
467,230,84736,2,0,P|448:292|403:351,1,140,0|8,0:0|0:0,0:0:0:0:
305,371,85210,1,0,0:0:0:0:
255,286,85368,2,2,P|186:272|119:287,1,140,4|8,0:0|0:0,0:0:0:0:
258,147,85999,5,4,0:0:0:0:
352,173,86157,1,0,0:0:0:0:
314,82,86315,1,8,0:0:0:0:
405,119,86473,2,0,P|426:183|388:239,1,140,0|0,0:0|0:0,0:0:0:0:
289,245,86947,1,8,0:0:0:0:
225,169,87105,2,0,P|191:163|157:168,1,70,0|8,0:0|0:0,0:0:0:0:
72,219,87420,1,8,0:0:0:0:
1,151,87578,1,8,0:0:0:0:
48,65,87736,1,8,0:0:0:0:
145,72,87894,1,8,0:0:0:0:
157,168,88052,1,8,0:0:0:0:
72,219,88210,2,0,L|63:252,2,35,2|2|2,0:0|0:0|0:0,0:0:0:0:
81,139,88526,5,4,0:0:0:0:
201,309,89816,1,2,0:0:0:0:
252,62,91106,5,2,0:0:0:0:
360,266,92396,1,2,0:0:0:0:
360,266,93432,6,2,P|286:329|206:274,1,210,4|8,0:0|0:0,0:0:0:0:
190,177,94063,2,2,L|185:104,1,70,0|0,0:0|0:0,0:0:0:0:
263,19,94379,2,2,L|267:88,1,70,0|8,0:0|0:0,0:0:0:0:
190,177,94695,2,2,P|122:194|52:196,1,140,0|0,0:0|0:0,0:0:0:0:
17,83,95168,2,2,P|84:65|154:63,1,140,8|0,0:0|0:0,0:0:0:0:
267,88,95642,1,0,0:0:0:0:
327,175,95800,1,8,0:0:0:0:
423,215,95958,6,2,P|457:210|487:193,1,70,4|0,0:0|0:0,0:0:0:0:
423,110,96274,2,0,P|388:114|358:131,1,70,0|8,0:0|0:0,0:0:0:0:
312,225,96589,2,2,L|285:289,1,70,0|0,0:0|0:0,0:0:0:0:
181,313,96905,2,0,L|208:249,1,70,0|8,0:0|0:0,0:0:0:0:
157,155,97221,6,2,P|109:204|103:273,1,140,4|0,0:3|0:0,0:0:0:0:
188,367,97695,2,0,L|223:373,4,35,8|0|8|0|12,0:0|0:0|0:0|0:0|0:0,0:0:0:0:
295,301,98168,2,2,L|327:287,4,35,8|0|12|8|12,0:0|0:0|0:0|0:0|0:0,0:0:0:0:
208,240,98642,6,2,P|193:208|189:173,1,70,12|0,0:0|0:0,0:0:0:0:
294,179,98957,2,2,P|328:183|362:178,1,70,8|0,0:0|0:0,0:0:0:0:
438,104,99273,2,2,L|411:38,2,70,0|0|8,0:0|0:0|0:0,0:0:0:0:
455,215,99747,2,2,B|436:253|401:257|401:257|380:228|346:216,1,140,2|2,0:0|0:0,0:0:0:0:
238,231,100220,1,0,0:0:0:0:
133,267,100378,2,2,B|83:261|59:224|68:186|68:186|42:160|46:140|46:140|92:103|149:123,1,280,6|0,0:0|0:0,0:0:0:0:
221,191,101168,5,8,0:0:0:0:
263,102,101326,1,0,0:0:0:0:
196,30,101484,2,2,P|163:17|128:14,1,70,8|0,0:0|0:0,0:0:0:0:
195,114,101799,2,2,P|230:113|263:102,1,70,8|0,0:0|0:0,0:0:0:0:
356,41,102115,1,8,0:0:0:0:
380,150,102273,2,2,L|402:288,1,140,10|0,0:0|0:0,0:0:0:0:
402,288,102747,1,8,0:0:0:0:
303,250,102905,2,2,P|267:245|234:249,1,70,10|0,0:0|0:0,0:0:0:0:
157,321,103220,1,0,0:0:0:0:
253,362,103378,1,0,0:0:0:0:
347,318,103536,6,2,P|381:258|361:193,1,140,6|0,0:0|0:0,0:0:0:0:
264,180,104010,1,8,0:0:0:0:
246,82,104168,1,0,0:0:0:0:
333,36,104326,1,8,0:0:0:0:
404,105,104484,1,0,0:0:0:0:
362,193,104642,1,8,0:0:0:0:
287,130,104799,1,0,0:0:0:0:
194,165,104957,6,2,P|160:162|127:149,2,70,8|0|8,0:0|0:0|0:0,0:0:0:0:
185,66,105431,1,0,0:0:0:0:
86,66,105589,2,0,P|59:89|42:119,1,70,4|0,0:0|0:0,0:0:0:0:
194,165,105905,2,0,P|220:188|237:218,1,70,8|0,0:0|0:0,0:0:0:0:
119,197,106220,6,0,P|121:130|173:86,1,140,0|8,0:0|0:0,0:0:0:0:
272,89,106694,1,0,0:0:0:0:
324,171,106852,1,8,0:0:0:0:
275,256,107010,1,0,0:0:0:0:
324,171,107168,1,8,0:0:0:0:
417,140,107326,1,0,0:0:0:0:
503,184,107484,6,2,P|452:231|384:231,1,140,14|8,0:0|0:0,0:0:0:0:
309,148,107957,2,2,L|277:85,1,70,0|0,0:0|0:0,0:0:0:0:
173,40,108273,2,2,L|236:164,1,140,8|0,0:0|0:0,0:0:0:0:
287,251,108747,6,2,B|333:282|390:269|405:223|439:211|483:241|475:255,1,210,6|0,0:0|0:0,0:0:0:0:
422,355,109378,2,0,P|393:372|359:379,1,70,8|0,0:0|0:0,0:0:0:0:
259,327,109694,2,0,P|225:315|191:312,1,70,8|0,0:0|0:0,0:0:0:0:
95,337,110010,1,8,0:0:0:0:
139,242,110168,2,0,P|207:231|275:248,1,140,0|0,0:0|0:0,0:0:0:0:
340,329,110642,1,8,0:0:0:0:
437,290,110800,1,0,0:0:0:0:
432,186,110958,1,8,0:0:0:0:
331,159,111115,1,0,0:0:0:0:
275,248,111273,6,0,L|311:241,4,35,8|0|8|0|8,0:0|0:0|0:0|0:0|0:0,0:0:0:0:
185,289,111747,2,2,B|124:296|108:264|108:264|67:261|54:225|54:225|75:211|87:185,1,210,6|0,0:0|0:0,0:0:0:0:
105,89,112378,2,2,P|170:72|233:106,1,140,14|0,0:0|0:0,0:0:0:0:
301,175,112852,2,0,L|337:112,2,70,8|0|8,0:0|0:0|0:0,0:0:0:0:
221,254,113326,1,2,0:0:0:0:
141,175,113484,1,2,0:0:0:0:
137,287,113642,6,2,P|182:337|251:340,1,140,6|0,0:0|0:0,0:0:0:0:
318,270,114115,1,0,0:0:0:0:
234,195,114273,2,2,P|245:129|307:103,1,140,2|0,0:0|0:0,0:0:0:0:
410,149,114747,1,0,0:0:0:0:
301,175,114905,2,2,P|240:139|184:98,1,140,6|0,0:0|0:0,0:0:0:0:
137,11,115378,1,0,0:0:0:0:
108,104,115536,1,0,0:0:0:0:
163,185,115694,1,0,0:0:0:0:
256,154,115852,5,2,0:0:0:0:
348,185,116010,1,0,0:0:0:0:
257,227,116168,2,2,P|197:197|186:131,1,140,6|0,0:0|0:0,0:0:0:0:
268,54,116642,2,0,L|293:30,2,35,2|0|2,0:0|0:0|0:0,0:0:0:0:
365,110,116957,2,0,L|403:103,2,35,2|0|2,0:0|0:0|0:0,0:0:0:0:
402,216,117273,1,2,0:0:0:0:
346,313,117431,6,2,B|306:347|253:346|245:315|245:315|213:306|171:283|177:277|177:277|177:258,1,210,6|0,0:0|0:0,0:0:0:0:
228,172,118063,1,2,0:0:0:0:
326,209,118220,1,2,0:0:0:0:
310,107,118378,1,2,0:0:0:0:
245,190,118536,1,8,0:0:0:0:
349,182,118694,1,4,0:0:0:0:
285,98,118852,6,2,P|215:87|145:83,1,140,2|0,0:0|0:0,0:0:0:0:
79,164,119326,2,2,P|113:169|148:171,1,70,2|0,0:0|0:0,0:0:0:0:
198,264,119642,2,2,P|163:258|128:256,1,70,2|0,0:0|0:0,0:0:0:0:
79,164,119957,2,2,B|153:176|194:168|194:168|213:182|239:184|254:163|282:190,1,210,6|0,0:0|0:0,0:0:0:0:
315,289,120589,2,2,P|399:319|436:225,1,210,2|8,0:0|0:0,0:0:0:0:
363,148,121220,6,0,P|341:118|328:88,1,70,0|12,0:0|0:0,0:0:0:0:
381,4,121536,1,0,0:0:0:0:
444,79,121694,1,8,0:0:0:0:
431,176,121852,6,2,B|411:228|336:251|306:189|270:180|270:180|254:198|254:198|222:185|188:187,1,280,4|12,0:0|0:0,0:0:0:0:
89,198,122642,2,0,L|50:203,6,35,0|0|0|2|0|0|8,0:0|0:0|0:0|0:0|0:0|0:0|0:0,0:0:0:0:
191,220,123273,5,4,0:0:0:0:
270,288,123431,1,8,0:0:0:0:
372,263,123589,1,8,0:0:0:0:
406,156,123747,1,12,0:0:0:0:
256,192,123905,12,2,126431,0:0:0:0:
197,82,126905,5,2,0:0:0:0:
111,274,128168,1,2,0:0:0:0:
256,192,128957,6,0,P|308:185|360:192,1,105.000004005432,2|8,0:0|0:0,0:0:0:0:
217,261,129589,2,0,P|196:244|180:224,2,52.5000020027161,2|2|8,0:0|0:0|0:0,0:0:0:0:
256,192,130063,2,0,P|220:154|170:142,1,105.000004005432,2|2,0:0|0:0,0:0:0:0:
108,192,130536,1,8,0:0:0:0:
179,225,130694,2,0,P|225:161|237:84,1,157.500006008148,2|8,0:0|0:0,0:0:0:0:
238,84,131484,5,2,0:0:0:0:
351,192,131799,1,8,0:0:0:0:
390,261,131957,1,2,0:0:0:0:
311,260,132115,2,0,P|259:269|210:288,1,105.000004005432,2|8,0:0|0:0,0:0:0:0:
154,344,132589,1,2,0:0:0:0:
207,196,132905,1,2,0:0:0:0:
60,142,133220,1,2,0:0:0:0:
6,290,133536,2,0,P|28:287|55:274,1,52.5000020027161,8|8,3:0|0:0,0:0:0:0:
156,152,134010,5,2,0:0:0:0:
233,135,134168,1,0,0:0:0:0:
274,202,134326,1,8,0:0:0:0:
223,262,134484,1,2,0:0:0:0:
151,230,134642,2,0,P|188:195|237:177,1,105.000004005432,2|8,0:0|0:0,0:0:0:0:
310,208,135115,2,0,P|334:211|362:211,1,52.5000020027161,2|0,0:0|0:0,0:0:0:0:
375,289,135431,2,0,P|397:279|421:265,1,52.5000020027161,2|8,0:0|0:0,0:0:0:0:
461,333,135747,2,0,P|501:268|467:201,1,157.500006008148,2|8,0:0|0:0,0:0:0:0:
392,177,136378,1,4,0:0:0:0:
314,194,136536,6,0,P|288:195|262:194,1,52.5000020027161,2|0,0:0|0:0,0:0:0:0:
213,131,136852,2,0,P|187:126|161:130,1,52.5000020027161,8|0,0:0|0:0,0:0:0:0:
135,205,137168,2,0,P|160:209|186:205,1,52.5000020027161,2|0,0:0|0:0,0:0:0:0:
257,168,137484,1,8,0:0:0:0:
332,145,137642,1,2,0:0:0:0:
411,280,137957,1,2,0:0:0:0:
253,281,138273,2,0,P|228:271|206:256,1,52.5000020027161,12|2,0:3|0:0,0:0:0:0:
266,204,138589,2,0,P|311:231|329:279,1,105.000004005432,2|4,0:0|0:3,0:0:0:0:
291,349,139063,6,0,P|267:357|241:359,2,52.5000020027161,2|0|2,0:0|0:0|0:0,0:0:0:0:
253,281,139536,2,0,L|145:260,1,105.000004005432,2|2,0:0|0:0,0:0:0:0:
72,242,140010,1,8,0:0:0:0:
59,164,140168,1,8,0:0:0:0:
132,136,140326,2,0,L|157:182,2,52.5000020027161,2|2|10,0:0|0:0|0:0,0:0:0:0:
105,61,140799,2,0,P|141:24|192:23,1,105.000004005432,2|2,0:0|0:0,0:0:0:0:
251,77,141273,1,8,0:0:0:0:
224,232,141589,5,2,0:0:0:0:
372,180,141905,1,8,0:0:0:0:
450,187,142063,1,2,0:0:0:0:
503,243,142220,2,0,P|456:264|406:250,1,105.000004005432,2|8,0:0|0:0,0:0:0:0:
372,180,142694,2,0,L|333:82,1,105.000004005432,2|2,0:0|0:0,0:0:0:0:
293,13,143168,1,8,0:0:0:0:
248,77,143326,2,0,P|199:96|149:83,1,105.000004005432,2|2,0:0|0:0,0:0:0:0:
149,162,143799,2,0,L|159:217,1,52.5000020027161,8|4,0:0|0:0,0:0:0:0:
81,194,144115,6,0,P|77:143|109:99,1,105.000004005432,2|8,0:0|0:0,0:0:0:0:
234,191,144747,2,0,P|283:209|331:191,1,105.000004005432,2|8,0:0|0:0,0:0:0:0:
361,119,145220,1,8,0:0:0:0:
328,47,145378,2,0,P|289:80|283:131,2,105.000004005432,2|8|2,0:0|0:0|0:0,0:0:0:0:
439,160,146326,2,0,L|453:215,1,52.5000020027161,8|4,0:0|0:0,0:0:0:0:
413,280,146642,6,0,B|381:287|381:287|346:273|346:273|313:280,1,105.000004005432,2|8,0:0|0:0,0:0:0:0:
240,311,147115,1,0,0:0:0:0:
167,280,147273,2,0,L|121:176,1,105.000004005432,2|8,0:0|0:0,0:0:0:0:
96,109,147747,1,2,0:0:0:0:
151,53,147905,6,0,B|183:46|183:46|218:60|218:60|251:53,2,105.000004005432,2|8|2,0:0|0:0|0:0,0:0:0:0:
78,192,148852,1,8,0:0:0:0:
228,146,149168,6,0,L|279:132,1,52.5000020027161,2|2,0:0|0:0,0:0:0:0:
330,71,149484,1,8,0:0:0:0:
251,61,149642,1,0,0:0:0:0:
175,83,149799,2,0,P|148:126|154:177,1,105.000004005432,2|8,0:0|0:0,0:0:0:0:
228,146,150273,2,0,P|248:197|242:246,1,105.000004005432,2|2,0:0|0:0,0:0:0:0:
188,297,150747,1,8,0:0:0:0:
242,246,150905,2,0,P|294:240|346:243,1,105.000004005432,2|2,0:0|0:0,0:0:0:0:
417,278,151378,1,8,0:0:0:0:
256,192,151694,12,2,152799,0:0:0:0:
187,65,153115,5,0,0:0:0:0:
236,203,153431,1,2,0:0:0:0:
165,271,153589,6,0,L|138:292,3,35,8|0|0|0,0:0|0:0|0:0|0:0,0:0:0:0:
100,259,153905,2,0,L|66:263,3,35,8|0|0|0,0:0|0:0|0:0|0:0,0:0:0:0:
26,232,154220,6,0,P|12:200|13:165,1,70,0|0,0:0|0:0,0:0:0:0:
93,107,154536,1,8,0:0:0:0:
184,143,154694,1,0,0:0:0:0:
267,90,154852,2,0,P|300:79|334:75,2,70,0|0|8,0:0|0:0|0:0,0:0:0:0:
267,188,155326,2,0,P|282:220|304:246,1,70,0|0,0:0|0:0,0:0:0:0:
389,294,155641,1,0,0:0:0:0:
475,248,155799,1,8,0:0:0:0:
471,150,155957,2,2,P|402:140|344:179,1,140,8|0,0:0|0:0,0:0:0:0:
287,258,156431,2,0,P|253:259|222:244,1,70,8|0,0:0|2:0,0:0:0:0:
168,160,156747,5,0,0:0:0:0:
78,122,156904,1,0,0:0:0:0:
12,195,157062,1,8,0:0:0:0:
58,282,157220,1,0,0:0:0:0:
153,256,157378,2,0,P|186:263|223:277,1,70,0|0,0:0|0:0,0:0:0:0:
298,335,157694,1,8,0:0:0:0:
393,312,157852,2,0,P|418:287|436:257,1,70,0|0,0:0|0:0,0:0:0:0:
349,212,158168,2,0,P|354:178|350:143,1,70,0|8,0:0|0:0,0:0:0:0:
277,78,158483,2,0,L|204:71,1,70,0|0,0:0|0:0,0:0:0:0:
135,139,158799,2,0,L|208:146,1,70,0|8,0:0|0:0,0:0:0:0:
303,155,159115,6,2,P|352:108|348:40,1,140,4|0,0:0|0:0,0:0:0:0:
253,11,159589,1,8,0:0:0:0:
157,30,159747,1,0,0:0:0:0:
212,99,159904,2,0,P|246:93|277:78,1,70,0|0,0:0|0:0,0:0:0:0:
370,44,160220,2,0,P|405:50|436:65,1,70,8|0,0:0|0:0,0:0:0:0:
453,162,160536,2,0,L|383:183,1,70,0|0,0:0|0:0,0:0:0:0:
290,203,160852,1,8,0:0:0:0:
195,181,161010,2,0,L|128:161,1,70,8|0,0:0|0:0,0:0:0:0:
47,108,161326,2,2,P|57:41|117:10,2,140,8|0|0,0:0|0:0|0:0,0:0:0:0:
128,161,162115,5,8,0:0:0:0:
213,112,162273,1,0,0:0:0:0:
303,153,162431,1,0,0:0:0:0:
314,248,162589,1,0,0:0:0:0:
240,312,162747,2,0,P|206:319|172:312,1,70,8|0,0:0|0:0,0:0:0:0:
214,224,163062,2,2,P|283:230|327:282,1,140,4|8,0:0|0:0,0:0:0:0:
349,171,163536,2,0,L|364:30,1,140,8|0,0:0|0:0,0:0:0:0:
440,114,164010,1,8,0:0:0:0:
422,224,164168,1,8,0:0:0:0:
326,282,164326,6,0,P|292:290|257:289,1,70,12|0,0:0|0:0,0:0:0:0:
237,194,164641,2,0,P|203:187|168:188,1,70,8|0,0:0|0:0,0:0:0:0:
98,256,164957,2,0,P|153:217|166:149,1,140,8|8,0:0|0:0,0:0:0:0:
110,67,165431,2,0,L|57:20,1,70,0|0,0:0|0:0,0:0:0:0:
25,114,165747,2,0,P|56:132|89:142,1,70,0|8,0:0|0:0,0:0:0:0:
183,113,166062,2,0,P|217:123|246:141,1,70,0|0,0:0|0:0,0:0:0:0:
289,231,166378,1,0,0:0:0:0:
205,281,166536,2,0,P|187:252|185:214,1,70,8|0,0:0|0:0,0:0:0:0:
108,152,166852,6,0,L|98:222,1,70,4|4,0:0|0:0,0:0:0:0:
188,136,167168,2,0,L|178:67,1,70,8|0,0:0|0:0,0:0:0:0:
272,84,167483,2,0,P|342:90|412:94,1,140,0|8,0:0|0:0,0:0:0:0:
385,188,167957,2,0,P|373:258|372:327,1,140,4|0,0:0|0:0,0:0:0:0:
461,368,168431,1,8,0:0:0:0:
372,327,168589,2,0,P|348:351|319:372,2,70,0|0|0,0:0|0:0|0:0,0:0:0:0:
306,254,169062,1,8,0:0:0:0:
208,248,169220,6,2,L|225:110,1,140,4|0,0:0|0:0,0:0:0:0:
127,46,169694,2,0,P|120:81|117:115,1,70,8|0,0:0|0:0,0:0:0:0:
117,213,170010,1,0,0:0:0:0:
208,248,170168,1,0,0:0:0:0:
288,191,170326,1,8,0:0:0:0:
318,97,170484,2,2,P|377:85|449:114,1,140,4|0,0:0|0:0,0:0:0:0:
483,205,170957,2,0,P|438:259|373:281,1,140,8|0,0:0|0:0,0:0:0:0:
286,252,171431,1,8,0:0:0:0:
202,215,171589,1,8,0:0:0:0:
118,251,171747,1,0,0:0:0:0:
108,137,171904,6,2,P|166:99|235:104,1,140,4|8,0:0|0:0,0:0:0:0:
237,201,172378,2,0,P|305:206|363:169,1,140,0|0,0:0|0:0,0:0:0:0:
424,88,172852,1,8,0:0:0:0:
472,176,173010,2,10,P|473:246|462:316,1,140,4|0,0:0|0:0,0:0:0:0:
348,353,173483,2,8,P|348:283|359:213,1,140,8|0,0:0|0:0,0:0:0:0:
359,213,173957,2,0,L|290:216,1,70,0|8,0:0|0:0,0:0:0:0:
192,204,174273,6,2,P|212:138|264:93,1,140,0|0,0:0|0:0,0:0:0:0:
264,93,174747,2,0,L|334:88,1,70,8|0,0:0|0:0,0:0:0:0:
196,40,175062,2,0,L|127:44,2,70,0|0|8,0:0|0:0|0:0,0:0:0:0:
264,93,175536,2,2,L|404:86,1,140,4|0,0:0|0:0,0:0:0:0:
436,176,176010,2,2,L|451:245,1,70,8|8,0:0|0:0,0:0:0:0:
328,308,176326,2,2,L|328:238,1,70,8|0,0:0|0:0,0:0:0:0:
224,168,176641,1,8,0:0:0:0:
224,168,176799,6,2,L|213:308,1,140,4|0,0:0|0:0,0:0:0:0:
128,360,177273,1,8,0:0:0:0:
60,292,177431,2,2,L|72:153,1,140,4|0,0:0|0:0,0:0:0:0:
132,75,177904,1,8,0:0:0:0:
229,63,178062,6,2,P|297:86|346:134,1,140,4|0,0:0|0:0,0:0:0:0:
360,230,178536,2,8,L|381:263,4,35,0|0|4|0|0,0:0|0:0|0:0|0:0|0:0,0:0:0:0:
271,186,179010,2,0,P|235:185|203:198,1,70
249,287,179326,6,2,B|263:183|152:152|152:152|120:90|164:47,1,297.500005674362,4|2,0:0|0:0,0:0:0:0:
