osu file format v12

[General]
AudioFilename: Red_Like_Roses.mp3
AudioLeadIn: 0
PreviewTime: 27083
Countdown: 0
SampleSet: Normal
StackLeniency: 0.7
Mode: 0
LetterboxInBreaks: 0
WidescreenStoryboard: 1

[Editor]
Bookmarks: 27469,41183,54897,61754,68611,78045,103545,117945,185076
DistanceSpacing: 1.2
BeatDivisor: 4
GridSize: 4

[Metadata]
Title:Red Like Roses (feat. Casey Lee Williams)
TitleUnicode:Red Like Roses (feat. Casey Lee Williams)
Artist:Jeff Williams
ArtistUnicode:Jeff Williams
Creator:Jinxy
Version:Redzero
Source:RWBY
Tags:Ruby Monty Oum RoosterTeeth White Black Yellow Hellzero
BeatmapID:293224
BeatmapSetID:78400

[Difficulty]
HPDrainRate:7
CircleSize:4
OverallDifficulty:7
ApproachRate:9
SliderMultiplier:1.8
SliderTickRate:1

[Events]
//Background and Video events
0,0,"RWBY_BG_Ruby.png",0,0
Video,-270,"RWBY-Red-Trailer.avi"
//Break Periods
2,68749,74184
2,103820,110193
2,150755,163429
//Storyboard Layer 0 (Background)
//Storyboard Layer 1 (Fail)
//Storyboard Layer 2 (Pass)
//Storyboard Layer 3 (Foreground)
//Storyboard Sound Samples
//Background Colour Transformations
3,100,163,162,255

[TimingPoints]
85,428.571428571429,4,2,0,15,1,0
85,-133.333333333333,4,2,0,15,0,0
68549,-133.333333333333,4,2,1,15,0,0
74784,300,6,1,1,30,1,0
80184,295.566502463054,6,1,1,30,1,0
81366,307.692307692308,6,1,1,30,1,0
81981,300,6,1,1,30,1,0
87381,297.029702970297,6,1,1,30,1,0
88569,303.030303030303,6,1,1,30,1,0
89175,300,6,1,1,30,1,0
96375,295.566502463054,6,1,1,30,1,0
97557,304.568527918782,6,1,1,30,1,0
98166,303.030303030303,6,1,1,30,1,0
103620,300,6,1,1,30,1,0
105420,297.766749379653,6,1,1,30,1,0
108993,300,6,1,1,30,1,0
146793,326.086956521739,3,1,1,25,1,0
147771,300,3,1,1,25,1,0
148671,314.13612565445,3,1,1,25,1,0
150555,331.491712707182,3,1,1,25,1,0
151549,322.58064516129,3,1,1,25,1,0
153484,327.868852459016,3,1,1,25,1,0
154467,375,3,1,1,25,1,0
155592,340.909090909091,3,1,1,25,1,0
164455,361.44578313253,4,1,1,35,1,0
165900,300,4,1,1,35,1,1
187500,-100,4,1,1,35,0,0

[Colours]
Combo1 : 221,221,0
Combo2 : 255,0,0
Combo3 : 255,94,94
Combo4 : 200,200,200
Combo5 : 221,221,221
Combo6 : 70,70,70
Combo7 : 100,100,100
Combo8 : 249,249,0

[HitObjects]
256,192,13799,12,4,17227,0:3:0:0:
256,192,18942,5,4,0:3:0:0:
256,280,19799,2,0,L|188:264,1,67.5000025749208,2|0,0:0|0:0,0:0:0:0:
190,119,20227,2,0,L|256:104,1,67.5000025749208,2|0,0:0|0:0,0:0:0:0:
156,192,20656,5,4,0:3:0:0:
356,192,21085,1,0,0:0:0:0:
132,56,21513,1,0,0:0:0:0:
132,328,21942,1,0,0:0:0:0:
436,192,22370,1,4,0:3:0:0:
256,348,23227,5,2,0:0:0:0:
204,284,23442,1,0,0:0:0:0:
256,220,23656,1,2,0:0:0:0:
308,284,23870,1,0,0:0:0:0:
176,204,24085,6,0,P|128:160|128:92,1,135.000005149842,4|0,0:3|0:0,0:0:0:0:
384,93,24942,2,0,P|384:159|336:204,1,135.000005149842
256,64,25799,1,4,0:3:0:0:
212,248,27513,54,0,P|184:308|120:320,1,135.000005149842,4|2,0:3|0:0,0:0:0:0:
56,268,28156,1,2,0:0:0:0:
132,240,28370,1,0,0:0:0:0:
180,172,28585,1,2,0:0:0:0:
260,180,28799,2,0,P|292:240|271:306,1,135.000005149842,2|4,0:0|0:3,0:0:0:0:
212,248,29442,5,0,0:0:0:0:
224,108,29656,2,0,L|216:40,1,67.5000025749208,2|2,0:0|0:0,0:0:0:0:
336,132,30085,2,0,L|344:200,1,67.5000025749208,0|2,0:0|0:0,0:0:0:0:
432,240,30513,2,0,P|384:288|320:292,1,135.000005149842,2|4,0:0|0:3,0:0:0:0:
256,244,31156,5,0,0:0:0:0:
212,176,31370,2,0,L|231:102,1,67.5000025749208,2|2,0:0|0:0,0:0:0:0:
172,192,31799,2,0,L|152:265,1,67.5000025749208,0|2,0:0|0:0,0:0:0:0:
88,352,32227,2,0,P|44:300|40:232,1,135.000005149842,2|4,0:0|0:3,0:0:0:0:
88,172,32870,5,0,0:0:0:0:
72,92,33085,2,0,P|36:80|8:60,1,67.5000025749208,2|2,0:0|0:0,0:0:0:0:
144,48,33513,2,0,P|180:60|208:80,1,67.5000025749208,0|2,0:0|0:0,0:0:0:0:
260,136,33942,1,2,0:0:0:0:
336,112,34156,1,0,0:0:0:0:
412,136,34370,6,0,P|463:179|489:240,2,135.000005149842,4|2|0,0:3|0:0|0:0,0:0:0:0:
256,232,35656,1,2,0:0:0:0:
22,240,36085,2,0,P|48:179|100:136,1,135.000005149842,4|2,0:3|0:0,0:0:0:0:
212,64,36942,1,0,0:0:0:0:
348,64,37370,1,2,0:0:0:0:
460,144,37799,6,0,L|384:260,1,135.000005149842,4|2,0:3|0:0,0:0:0:0:
256,224,38656,1,0,0:0:0:0:
168,120,39085,1,2,0:0:0:0:
56,48,39513,2,0,P|48:176|160:252,1,270.000010299683,4|2,0:3|0:0,0:0:0:0:
300,136,41227,6,0,P|328:76|396:60,1,135.000005149842,4|2,0:3|0:0,0:0:0:0:
380,140,41870,1,2,0:0:0:0:
336,208,42085,2,0,L|280:264,1,67.5000025749208,0|2,0:0|0:0,0:0:0:0:
220,212,42513,2,0,L|80:248,1,135.000005149842,2|4,0:0|0:3,0:0:0:0:
28,192,43156,5,0,0:0:0:0:
100,156,43370,2,0,L|92:88,1,67.5000025749208,2|2,0:0|0:0,0:0:0:0:
164,28,43799,2,0,L|172:96,1,67.5000025749208,0|2,0:0|0:0,0:0:0:0:
244,136,44227,2,0,P|309:131|356:84,1,135.000005149842,2|4,0:0|0:3,0:0:0:0:
424,36,44870,5,0,0:0:0:0:
432,116,45085,2,0,L|388:180,1,67.5000025749208,2|2,0:0|0:0,0:0:0:0:
332,228,45513,1,0,0:0:0:0:
256,256,45727,1,2,0:0:0:0:
180,228,45942,2,0,P|132:180|132:116,1,135.000005149842,2|4,0:0|0:3,0:0:0:0:
196,68,46584,5,0,0:0:0:0:
272,96,46799,2,0,L|344:76,1,67.5000025749208,2|2,0:0|0:0,0:0:0:0:
437,170,47227,2,0,L|372:152,1,67.5000025749208,0|2,0:0|0:0,0:0:0:0:
292,176,47656,1,2,0:0:0:0:
256,248,47870,1,0,0:0:0:0:
204,312,48085,6,0,L|56:256,1,135.000005149842,4|2,0:3|0:0,0:0:0:0:
92,132,48942,1,0,0:0:0:0:
220,84,49370,1,2,0:0:0:0:
308,312,49799,2,0,L|456:256,1,135.000005149842,4|2,0:3|0:0,0:0:0:0:
420,132,50656,1,0,0:0:0:0:
292,84,51084,1,2,0:0:0:0:
256,352,51513,6,0,L|256:216,1,135.000005149842,4|2,0:3|0:0,0:0:0:0:
256,32,52370,2,0,L|256:168,1,135.000005149842,0|2,0:0|0:0,0:0:0:0:
152,252,53227,2,0,P|256:324|360:252,1,270.000010299683,4|2,0:3|0:0,0:0:0:0:
188,108,54942,6,0,P|136:152|72:144,2,135.000005149842,4|2|0,0:3|0:0|0:0,0:0:0:0:
256,64,56013,1,0,0:0:0:0:
324,108,56227,1,2,0:0:0:0:
486,108,56656,2,0,P|464:232|339:255,2,270.000010299683,4|2|4,0:3|0:0|0:3,0:0:0:0:
56,192,59227,6,0,L|200:192,1,135.000005149842,0|2,0:0|0:0,0:0:0:0:
316,296,60085,2,0,P|388:192|316:88,1,270.000010299683,4|0,0:3|0:0,0:0:0:0:
245,134,61156,2,0,L|280:192,1,67.5000025749208,0|2,0:0|0:0,0:0:0:0:
156,300,61799,6,0,P|48:268|136:224,2,270.000010299683,4|2|4,0:3|0:0|0:3,0:0:0:0:
157,93,64370,2,0,L|227:163,1,67.5000025749208,2|0,0:0|0:0,0:0:0:0:
354,93,64799,2,0,L|307:140,1,67.5000025749208,2|0,0:0|0:0,0:0:0:0:
256,68,65227,1,4,0:3:0:0:
256,192,65442,12,0,68549,0:0:0:0:
65,298,74784,22,0,P|152:293|200:221,1,180,8|0,0:0|0:0,0:0:0:0:
392,72,75234,2,0,P|305:76|256:149,1,180,0|0,0:0|0:0,0:0:0:0:
311,220,75684,2,0,P|360:293|447:298,2,180,8|0|0,0:0|0:0|0:0,0:0:0:0:
132,40,76584,2,0,P|74:104|91:189,1,180,8|0,0:0|0:0,0:0:0:0:
148,260,77034,1,0,0:0:0:0:
236,276,77184,1,0,0:0:0:0:
312,232,77334,1,0,0:0:0:0:
312,232,77409,1,0,0:0:0:0:
312,232,77484,2,0,P|398:236|447:309,2,180,8|0|0,0:0|0:0|0:0,0:0:0:0:
340,48,78384,21,8,0:0:0:0:
324,135,78534,1,0,0:0:0:0:
236,119,78684,1,0,0:0:0:0:
220,207,78834,1,0,0:0:0:0:
132,188,78984,2,0,P|64:242|68:329,1,180,0|8,0:0|0:0,0:0:0:0:
328,344,79584,2,0,L|403:289,1,90
418,163,79884,2,0,L|472:236,1,90
344,220,80184,6,0,P|331:134|392:72,1,180,8|0,0:0|0:0,0:0:0:0:
392,72,80627,1,0,0:0:0:0:
316,24,80775,2,0,P|284:56|260:96,1,90
220,172,81070,2,0,P|165:239|78:236,1,180
128,160,81519,1,0,0:0:0:0:
256,260,81673,1,0,0:0:0:0:
108,324,81827,1,0,0:0:0:0:
128,160,81981,6,0,P|182:92|269:95,1,180,8|0,0:0|0:0,0:0:0:0:
488,192,82431,2,0,P|444:260|352:260,1,180
400,184,82881,1,8,0:0:0:0:
108,324,83181,1,0,0:0:0:0:
188,216,83331,1,0,0:0:0:0:
196,304,83481,1,0,0:0:0:0:
276,196,83631,1,0,0:0:0:0:
100,236,83781,22,0,L|28:172,1,90,8|0,0:0|0:0,0:0:0:0:
60,32,84081,2,0,L|127:91,1,90
212,128,84381,1,0,0:0:0:0:
292,92,84531,1,0,0:0:0:0:
380,96,84681,2,0,P|448:140|448:232,1,180,8|0,0:0|0:0,0:0:0:0:
256,340,85281,1,0,0:0:0:0:
452,324,85581,6,0,P|377:292|361:201,1,180,8|0,0:0|0:0,0:0:0:0:
356,36,86031,2,0,L|268:192,1,180
140,302,86481,2,0,L|184:224,1,90,8|0,0:0|0:0,0:0:0:0:
171,77,86781,2,0,L|128:156,1,90
84,232,87081,1,0,0:0:0:0:
84,232,87231,1,0,0:0:0:0:
224,152,87381,6,0,L|332:132,1,90,8|0,0:0|0:0,0:0:0:0:
400,112,87678,1,0,0:0:0:0:
488,100,87826,2,0,P|460:176|370:196,1,180
400,112,88272,1,8,0:0:0:0:
48,268,88569,5,0,0:0:0:0:
186,312,88720,1,0,0:0:0:0:
100,195,88872,1,0,0:0:0:0:
101,341,89023,1,0,0:0:0:0:
187,224,89175,2,0,P|240:162|331:175,1,180,8|0,0:0|0:0,0:0:0:0:
420,196,89625,2,0,P|366:257|275:244,1,180
120,175,90075,2,0,P|176:106|260:76,2,180,8|0|0,0:0|0:0|0:0,0:0:0:0:
256,256,90975,6,0,L|448:232,1,180,8|0,0:0|0:0,0:0:0:0:
360,332,91425,2,0,L|336:140,1,180
328,64,91875,1,8,0:0:0:0:
200,236,92175,1,0,0:0:0:0:
160,316,92325,1,0,0:0:0:0:
72,332,92475,2,0,P|76:284|100:248,1,90
248,312,92775,6,0,P|333:326|391:263,1,180,8|0,0:0|0:0,0:0:0:0:
400,84,93225,2,0,L|304:236,1,180
436,192,93675,1,8,0:0:0:0:
76,192,93975,1,0,0:0:0:0:
256,44,94275,1,0,0:0:0:0:
256,344,94575,6,0,L|256:236,1,90,8|0,0:0|0:0,0:0:0:0:
308,180,94875,1,0,0:0:0:0:
204,180,95025,1,0,0:0:0:0:
332,88,95175,2,0,P|372:112|396:152,1,90
117,148,95475,2,0,P|141:110|180:88,1,90,8|0,0:0|0:0,0:0:0:0:
256,136,95775,1,0,0:0:0:0:
321,246,95925,1,0,0:0:0:0:
191,246,96075,1,0,0:0:0:0:
368,344,96375,6,0,P|442:299|445:212,1,180,8|0,0:0|0:0,0:0:0:0:
380,60,96818,2,0,P|373:104|384:148,2,90
360,228,97261,2,0,P|275:236|222:168,1,180,8|0,0:0|0:0,0:0:0:0:
380,60,97861,1,0,0:0:0:0:
132,60,98166,6,0,L|40:220,1,180,8|0,0:0|0:0,0:0:0:0:
84,352,98620,2,0,L|176:192,1,180
424,144,99075,2,0,L|336:120,1,90,8|0,0:0|0:0,0:0:0:0:
392,312,99378,2,0,L|480:336,1,90
332,212,99681,2,0,L|244:188,1,90
82,221,99984,6,0,P|75:307|144:360,1,180,8|0,0:0|0:0,0:0:0:0:
168,191,100438,2,0,P|175:105|107:53,1,180
192,280,100893,2,0,L|280:324,1,90,8|0,0:0|0:0,0:0:0:0:
442,279,101196,2,0,L|362:320,1,90
320,240,101499,1,0,0:0:0:0:
320,150,101650,1,0,0:0:0:0:
320,60,101802,2,0,P|276:68|240:104,2,90,8|0|8,0:0|0:0|0:0,0:0:0:0:
396,104,102256,1,8,0:0:0:0:
256,320,102559,1,8,0:0:0:0:
256,320,102635,1,8,0:0:0:0:
256,320,102711,2,0,L|160:320,1,90,8|0,0:0|0:0,0:0:0:0:
75,320,103014,5,8,0:0:0:0:
63,285,103090,1,0,0:0:0:0:
64,248,103166,1,8,0:0:0:0:
76,214,103241,1,0,0:0:0:0:
97,186,103317,1,8,0:0:0:0:
127,166,103393,1,0,0:0:0:0:
163,157,103469,1,8,0:0:0:0:
199,161,103544,1,0,0:0:0:0:
232,176,103620,1,4,0:2:0:0:
40,152,110793,21,2,0:0:0:0:
184,44,111093,1,0,0:0:0:0:
232,120,111243,1,0,0:0:0:0:
320,136,111393,2,0,L|404:104,1,90
492,164,111693,2,0,L|408:196,1,90,8|0,0:0|0:0,0:0:0:0:
324,232,111993,1,0,0:0:0:0:
340,320,112143,1,0,0:0:0:0:
256,288,112293,2,0,L|164:296,1,90
15,333,112593,22,0,P|34:249|116:220,1,180,8|0,0:0|0:0,0:0:0:0:
172,148,113043,1,0,0:0:0:0:
256,116,113193,1,0,0:0:0:0:
340,148,113343,1,0,0:0:0:0:
328,60,113493,2,0,L|416:40,1,90,8|0,0:0|0:0,0:0:0:0:
184,60,113793,2,0,L|96:40,1,90
36,108,114093,1,2,0:0:0:0:
12,135,114168,1,0,0:0:0:0:
3,170,114243,1,2,0:0:0:0:
12,205,114318,1,0,0:0:0:0:
36,232,114393,1,2,0:0:0:0:
210,266,114693,5,0,0:0:0:0:
340,148,114843,1,0,0:0:0:0:
304,319,114993,1,0,0:0:0:0:
233,160,115143,1,0,0:0:0:0:
384,247,115293,2,0,P|440:184|428:88,1,180,8|0,0:0|0:0,0:0:0:0:
348,56,115743,1,0,0:0:0:0:
260,48,115893,2,0,L|160:96,1,90
17,248,116193,2,0,P|103:244|144:168,1,180,8|0,0:0|0:0,0:0:0:0:
56,168,116643,1,0,0:0:0:0:
40,336,116793,1,0,0:0:0:0:
196,264,116943,1,0,0:0:0:0:
292,348,117093,5,2,0:0:0:0:
322,331,117168,1,0,0:0:0:0:
349,306,117243,1,2,0:0:0:0:
369,276,117318,1,0,0:0:0:0:
379,242,117393,1,2,0:0:0:0:
381,206,117468,1,0,0:0:0:0:
373,170,117543,1,2,0:0:0:0:
356,139,117618,1,0,0:0:0:0:
330,113,117693,1,0,0:0:0:0:
331,76,117768,1,0,0:0:0:0:
358,52,117843,1,2,0:0:0:0:
394,53,117918,1,0,0:0:0:0:
419,80,117993,1,4,0:2:0:0:
256,224,118293,21,0,0:0:0:0:
172,252,118443,1,0,0:0:0:0:
188,164,118593,1,0,0:0:0:0:
256,224,118743,1,0,0:0:0:0:
168,336,118893,2,0,P|98:285|108:200,1,180
112,112,119343,1,0,0:0:0:0:
176,48,119493,1,0,0:0:0:0:
256,84,119643,1,0,0:0:0:0:
352,252,119793,6,0,P|437:261|487:191,1,180,4|0,0:2|0:0,0:0:0:0:
400,176,120243,2,0,L|441:96,2,90
292,180,120693,5,0,0:0:0:0:
183,202,120843,1,0,0:0:0:0:
258,284,120993,1,0,0:0:0:0:
274,157,121143,21,0,0:0:0:0:
165,180,121293,1,0,0:0:0:0:
240,261,121443,1,0,0:0:0:0:
208,100,121593,6,0,P|122:95|76:167,1,180,4|0,0:2|0:0,0:0:0:0:
40,296,122043,1,0,0:0:0:0:
116,248,122193,1,0,0:0:0:0:
180,312,122343,1,0,0:0:0:0:
256,360,122493,2,0,P|340:345|370:264,1,180
280,272,122943,1,0,0:0:0:0:
440,356,123093,1,0,0:0:0:0:
428,176,123243,1,0,0:0:0:0:
306,60,123393,6,0,L|348:140,1,90,4|0,0:2|0:0,0:0:0:0:
205,60,123693,2,0,L|164:140,1,90,4|0,0:2|0:0,0:0:0:0:
332,236,123993,2,0,P|255:278|180:233,1,180,0|4,0:0|0:2,0:0:0:0:
256,184,124443,1,0,0:0:0:0:
344,144,124593,2,0,L|428:112,1,90,4|0,0:2|0:0,0:0:0:0:
168,144,124893,2,0,L|84:112,1,90,4|0,0:2|0:0,0:0:0:0:
256,88,125193,1,4,0:2:0:0:
48,304,125493,5,0,0:0:0:0:
111,240,125643,1,0,0:0:0:0:
174,303,125793,1,0,0:0:0:0:
237,239,125943,1,0,0:0:0:0:
300,302,126093,2,0,L|488:252,1,180
508,172,126543,1,0,0:0:0:0:
420,156,126693,2,0,L|378:76,1,90
336,192,126993,6,0,L|252:28,1,180,4|0,0:2|0:0,0:0:0:0:
176,80,127443,2,0,L|80:40,2,90
172,172,127893,21,0,0:0:0:0:
240,289,128043,1,0,0:0:0:0:
206,163,128193,1,0,0:0:0:0:
206,299,128343,1,0,0:0:0:0:
240,172,128493,1,0,0:0:0:0:
172,289,128643,1,0,0:0:0:0:
316,232,128793,6,0,P|397:207|416:123,1,180,4|0,0:2|0:0,0:0:0:0:
356,56,129243,1,0,0:0:0:0:
267,72,129393,1,0,0:0:0:0:
328,140,129543,1,0,0:0:0:0:
188,36,129693,2,0,L|72:184,1,180
152,228,130143,2,0,L|206:156,2,90
256,320,130593,21,4,0:2:0:0:
256,320,130743,1,0,0:0:0:0:
392,232,130893,1,4,0:2:0:0:
392,232,131043,1,0,0:0:0:0:
372,72,131193,2,0,L|288:32,1,90,0|0,0:2|0:0,0:0:0:0:
86,97,131493,2,0,L|168:136,1,90,4|0,0:2|0:0,0:0:0:0:
328,156,131793,1,4,0:2:0:0:
328,156,131943,1,0,0:0:0:0:
156,280,132093,1,4,0:2:0:0:
156,280,132243,1,0,0:0:0:0:
80,360,132393,22,0,P|44:280|80:200,1,180,4|0,0:2|0:0,0:0:0:0:
232,200,132843,2,0,P|267:279|231:359,1,180
156,280,133293,1,8,0:0:0:0:
256,40,133593,1,0,0:0:0:0:
207,116,133743,2,0,P|128:151|48:116,1,180
304,116,134193,2,0,P|383:80|463:115,1,180,8|0,0:0|0:0,0:0:0:0:
384,188,134643,1,0,0:0:0:0:
256,344,134943,1,0,0:0:0:0:
256,256,135093,2,0,P|176:220|96:256,2,180,8|8|8,0:0|0:0|0:0,0:0:0:0:
44,120,135993,6,0,L|216:52,1,180,8|0,0:0|0:0,0:0:0:0:
468,120,136443,2,0,L|296:52,1,180
256,132,136893,1,8,0:0:0:0:
301,329,137193,2,0,L|360:260,1,90
211,329,137493,2,0,L|152:260,1,90
256,240,137793,1,8,0:0:0:0:
256,40,138093,1,0,0:0:0:0:
192,100,138243,2,0,P|113:135|33:100,1,180
320,100,138693,2,0,P|399:135|479:100,1,180,8|8,0:0|0:0,0:0:0:0:
256,312,139293,1,8,0:0:0:0:
124,188,139593,6,0,P|44:228|40:312,2,180,8|0|0,0:0|0:0|0:0,0:0:0:0:
216,196,140343,1,0,0:0:0:0:
304,196,140493,2,0,P|264:116|180:112,2,180,8|0|0,0:0|0:0|0:0,0:0:0:0:
364,264,141243,1,0,0:0:0:0:
452,244,141393,2,0,L|504:56,1,180,8|0,0:0|0:0,0:0:0:0:
412,48,141843,1,0,0:0:0:0:
384,132,141993,2,0,L|288:104,1,90
212,80,142293,2,0,P|132:120|128:204,2,180,8|8|8,0:0|0:0|0:0,0:0:0:0:
351,276,143193,6,0,L|208:168,1,180,8|0,0:0|0:0,0:0:0:0:
144,231,143643,1,0,0:0:0:0:
216,287,143793,1,0,0:0:0:0:
288,339,143943,1,0,0:0:0:0:
444,308,144093,6,0,P|435:218|360:176,1,180,8|0,0:0|0:0,0:0:0:0:
312,100,144543,1,0,0:0:0:0:
256,168,144693,1,0,0:0:0:0:
204,100,144843,1,0,0:0:0:0:
149,176,144993,2,0,P|75:221|68:308,1,180,8|0,0:0|0:0,0:0:0:0:
152,272,145443,1,0,0:0:0:0:
208,340,145593,1,0,0:0:0:0:
256,264,145743,1,0,0:0:0:0:
348,192,145893,6,0,L|440:156,1,90,8|0,0:0|0:0,0:0:0:0:
256,120,146193,2,0,L|256:24,1,90,8|0,0:0|0:0,0:0:0:0:
164,192,146493,2,0,L|72:156,1,90,8|0,0:0|0:0,0:0:0:0:
256,216,146793,1,2,0:2:0:0:
256,192,146874,12,0,150555,2:2:0:0:
256,192,164029,12,0,165720,2:2:0:0:
104,48,165900,54,0,L|222:84,1,90,4|0,0:2|0:0,0:0:0:0:
342,186,166200,2,0,L|256:160,1,90,8|0,0:0|0:0,0:0:0:0:
65,165,166500,2,0,L|152:192,1,90
303,303,166800,2,0,L|217:277,1,90,8|0,0:0|0:0,0:0:0:0:
217,107,167100,22,0,L|303:81,1,90
426,162,167400,2,0,L|340:188,1,90,8|0,0:0|0:0,0:0:0:0:
216,280,167700,1,0,0:0:0:0:
100,192,167850,1,0,0:0:0:0:
216,108,168000,1,8,0:0:0:0:
188,192,168150,1,0,0:0:0:0:
120,280,168300,22,0,P|84:308|32:328,1,90
120,104,168600,2,0,P|84:76|32:56,1,90,8|0,0:0|0:0,0:0:0:0:
188,192,168900,2,0,L|296:192,1,90
456,76,169200,2,0,L|348:76,1,90,8|0,0:0|0:0,0:0:0:0:
366,308,169500,22,0,P|405:277|432:240,1,90
256,260,169800,2,0,P|216:290|190:328,1,90,8|0,0:0|0:0,0:0:0:0:
336,224,170100,1,0,0:0:0:0:
389,103,170250,1,0,0:0:0:0:
291,14,170400,1,8,0:0:0:0:
177,80,170550,1,0,0:0:0:0:
204,209,170700,22,0,P|160:228|100:228,1,90
302,125,171000,2,0,P|346:106|388:104,1,90,8|0,0:0|0:0,0:0:0:0:
396,292,171300,2,0,P|352:311|310:313,1,90
116,92,171600,2,0,P|160:73|201:70,1,90,8|0,0:0|0:0,0:0:0:0:
340,192,171900,22,0,L|448:192,1,90
172,192,172200,2,0,L|64:192,1,90,8|0,0:0|0:0,0:0:0:0:
256,116,172500,1,0,0:0:0:0:
349,278,172650,1,0,0:0:0:0:
162,278,172800,1,8,0:0:0:0:
256,224,172950,1,0,0:0:0:0:
216,344,173100,22,0,P|172:364|128:356,1,90
296,344,173400,2,0,P|340:364|384:356,1,90,8|0,0:0|0:0,0:0:0:0:
168,192,173700,2,0,P|124:176|80:176,1,90
344,192,174000,2,0,P|388:176|432:176,1,90,8|0,0:0|0:0,0:0:0:0:
380,76,174300,22,0,L|280:28,1,90
132,76,174600,2,0,L|232:28,1,90,8|0,0:0|0:0,0:0:0:0:
256,140,174900,1,0,0:0:0:0:
212,156,174975,1,0,0:0:0:0:
196,200,175050,1,0,0:0:0:0:
216,240,175125,1,0,0:0:0:0:
256,256,175200,1,8,0:0:0:0:
296,240,175275,1,0,0:0:0:0:
316,200,175350,1,0,0:0:0:0:
300,156,175425,1,0,0:0:0:0:
256,140,175500,22,0,L|256:48,1,90
372,100,175800,1,8,0:0:0:0:
460,192,175950,1,0,0:0:0:0:
388,296,176100,2,0,L|404:338,3,45
380,268,176400,1,8,0:0:0:0:
256,332,176550,1,0,0:0:0:0:
124,296,176700,2,0,L|104:348,3,45
132,268,177000,1,8,0:0:0:0:
52,192,177150,1,0,0:0:0:0:
140,104,177300,21,0,0:0:0:0:
160,136,177375,1,0,0:0:0:0:
188,156,177450,1,0,0:0:0:0:
220,176,177525,1,0,0:0:0:0:
256,184,177600,1,8,0:0:0:0:
292,176,177675,1,0,0:0:0:0:
324,156,177750,1,0,0:0:0:0:
352,136,177825,1,0,0:0:0:0:
372,104,177900,1,0,0:0:0:0:
476,104,178050,21,0,0:0:0:0:
412,192,178200,2,0,P|376:216|352:260,1,90,8|0,0:0|0:0,0:0:0:0:
256,304,178500,2,0,L|215:323,3,45
283,304,178800,1,8,0:0:0:0:
256,192,178950,1,0,0:0:0:0:
256,80,179100,2,0,L|316:52,3,45
229,80,179400,1,8,0:0:0:0:
164,136,179550,1,0,0:0:0:0:
44,172,179700,21,0,0:0:0:0:
80,180,179775,1,0,0:0:0:0:
112,200,179850,1,0,0:0:0:0:
132,228,179925,1,0,0:0:0:0:
136,264,180000,1,8,0:0:0:0:
100,268,180075,1,0,0:0:0:0:
68,284,180150,1,0,0:0:0:0:
44,312,180225,1,0,0:0:0:0:
36,348,180300,1,0,0:0:0:0:
160,364,180450,21,0,0:0:0:0:
256,284,180600,1,8,0:0:0:0:
352,364,180750,1,0,0:0:0:0:
436,272,180900,2,0,L|470:300,3,45
436,244,181200,1,8,0:0:0:0:
336,192,181350,1,0,0:0:0:0:
436,112,181500,2,0,L|480:76,3,45
436,140,181800,1,8,0:0:0:0:
336,192,181950,1,0,0:0:0:0:
252,72,182100,21,0,0:0:0:0:
244,108,182175,1,0,0:0:0:0:
228,140,182250,1,0,0:0:0:0:
204,168,182325,1,0,0:0:0:0:
176,188,182400,1,8,0:0:0:0:
204,216,182475,1,0,0:0:0:0:
228,244,182550,1,0,0:0:0:0:
244,276,182625,1,0,0:0:0:0:
252,312,182700,1,0,0:0:0:0:
372,348,182850,21,0,0:0:0:0:
472,272,183000,1,8,0:0:0:0:
376,192,183150,1,0,0:0:0:0:
472,112,183300,2,0,L|472:67,3,45
472,139,183600,1,8,0:0:0:0:
372,36,183750,1,0,0:0:0:0:
272,112,183900,2,0,L|272:67,3,45
272,139,184200,1,8,0:0:0:0:
140,36,184350,1,0,0:0:0:0:
44,120,184500,21,0,0:0:0:0:
44,148,184575,1,0,0:0:0:0:
44,176,184650,1,0,0:0:0:0:
44,204,184725,1,0,0:0:0:0:
44,232,184800,1,8,0:0:0:0:
44,260,184875,1,0,0:0:0:0:
44,288,184950,1,0,0:0:0:0:
44,316,185025,1,0,0:0:0:0:
44,344,185100,22,0,L|152:344,1,90
132,192,185400,2,0,L|208:268,1,90,8|0,0:0|0:0,0:0:0:0:
256,152,185700,1,0,0:0:0:0:
256,152,185850,1,0,0:0:0:0:
380,192,186000,2,0,L|303:268,1,90,8|0,0:0|0:0,0:0:0:0:
336,116,186300,22,0,P|360:80|400:56,1,90,0|8,0:0|0:0,0:0:0:0:
176,116,186600,2,0,P|152:80|112:56,1,90,0|8,0:0|0:0,0:0:0:0:
68,240,186900,2,0,P|102:265|148:274,1,90,0|8,0:0|0:0,0:0:0:0:
444,240,187200,2,0,P|409:265|363:274,1,90,0|8,0:0|0:0,0:0:0:0:
256,192,187500,1,4,0:2:0:0:
