osu file format v12

[General]
AudioFilename: Red_Like_Roses.mp3
AudioLeadIn: 0
PreviewTime: 27083
Countdown: 0
SampleSet: Soft
StackLeniency: 0.7
Mode: 0
LetterboxInBreaks: 0
WidescreenStoryboard: 1

[Editor]
Bookmarks: 27469,41183,54897,61754,68611,103545,117945,132345,185076
DistanceSpacing: 1
BeatDivisor: 4
GridSize: 4

[Metadata]
Title:Red Like Roses (feat. Casey Lee Williams)
TitleUnicode:Red Like Roses (feat. Casey Lee Williams)
Artist:Jeff Williams
ArtistUnicode:Jeff Williams
Creator:Jinxy
Version:Red Rose
Source:RWBY
Tags:Ruby Monty Oum RoosterTeeth White Black Yellow Hellzero
BeatmapID:219393
BeatmapSetID:78400

[Difficulty]
HPDrainRate:2
CircleSize:3
OverallDifficulty:2
ApproachRate:4
SliderMultiplier:1.2
SliderTickRate:1

[Events]
//Background and Video events
0,0,"RWBY_BG_Ruby.png",0,0
Video,-270,"RWBY-Red-Trailer.avi"
//Break Periods
2,17427,19336
2,68749,73443
2,103820,116673
2,150755,164580
//Storyboard Layer 0 (Background)
//Storyboard Layer 1 (Fail)
//Storyboard Layer 2 (Pass)
//Storyboard Layer 3 (Foreground)
//Storyboard Sound Samples
//Background Colour Transformations
3,100,163,162,255

[TimingPoints]
85,428.571428571429,4,2,0,15,1,0
54835,-100,4,3,1,15,0,0
68442,-100,4,2,1,75,0,0
74784,300,6,1,1,45,1,0
74784,-133.333333333333,6,1,1,45,0,0
80184,295.566502463054,6,1,1,45,1,0
80184,-133.333333333333,6,1,1,45,0,0
81366,307.692307692308,6,1,1,45,1,0
81366,-133.333333333333,6,1,1,45,0,0
81981,300,6,1,1,45,1,0
81981,-133.333333333333,6,1,1,45,0,0
87381,297.029702970297,6,1,1,45,1,0
87381,-133.333333333333,6,1,1,45,0,0
88569,303.030303030303,6,1,1,45,1,0
88569,-133.333333333333,6,1,1,45,0,0
89175,300,6,1,1,45,1,0
89175,-133.333333333333,6,1,1,45,0,0
96375,295.566502463054,6,1,1,45,1,0
96375,-133.333333333333,6,1,1,45,0,0
97557,304.568527918782,6,1,1,45,1,0
97557,-133.333333333333,6,1,1,45,0,0
98166,303.030303030303,6,1,1,45,1,0
98166,-133.333333333333,6,1,1,45,0,0
103620,300,6,1,1,45,1,0
103620,-133.333333333333,6,1,1,45,0,0
105420,297.766749379653,6,1,1,45,1,0
105420,-133.333333333333,6,1,1,45,0,0
108993,300,6,1,1,45,1,0
108993,-133.333333333333,6,1,1,45,0,0
146793,326.086956521739,3,1,1,45,1,0
147771,300,3,1,1,45,1,0
148671,314.13612565445,3,1,1,45,1,0
150555,331.491712707182,3,1,1,45,1,0
151549,322.58064516129,3,1,1,45,1,0
153484,327.868852459016,3,1,1,45,1,0
154467,375,3,1,1,45,1,0
155592,340.909090909091,3,1,1,45,1,0
164455,361.44578313253,4,1,1,45,1,0
165900,300,4,1,1,45,1,1
187500,-100,4,1,1,45,0,0

[Colours]
Combo1 : 221,221,0
Combo2 : 255,0,0
Combo3 : 255,94,94
Combo4 : 200,200,200
Combo5 : 221,221,221
Combo6 : 70,70,70
Combo7 : 100,100,100
Combo8 : 249,249,0

[HitObjects]
256,192,13799,12,0,17227,0:0:0:0:
348,32,20656,102,0,L|348:172,1,120,2|0,0:0|0:0,0:0:0:0:
400,232,21513,2,0,P|433:300|397:344,1,120,0|0,0:0|0:0,0:0:0:0:
320,332,22370,1,2,0:0:0:0:
256,152,23227,54,0,L|256:32,2,120,0|0|2,0:0|0:0|0:0,0:0:0:0:
212,236,24513,2,0,L|72:236,1,120,0|2,0:0|0:0,0:0:0:0:
8,188,25370,2,0,P|48:148|128:148,1,120,0|2,0:0|0:0,0:0:0:0:
412,108,27513,86,0,P|484:192|412:284,1,240,2|0,0:0|0:0,0:0:0:0:
228,312,29227,2,0,B|164:216|292:176|228:84,1,240,2|0,0:0|0:0,0:0:0:0:
36,80,30942,5,2,0:0:0:0:
160,224,31799,1,0,0:0:0:0:
352,224,32656,1,2,0:0:0:0:
476,80,33513,1,0,0:0:0:0:
324,264,34370,102,0,P|252:344|180:264,1,240,2|0,0:0|0:0,0:0:0:0:
296,80,36085,2,0,P|401:102|368:204,1,240,2|0,0:0|0:0,0:0:0:0:
140,204,37799,2,0,P|109:103|215:81,1,240,2|0,0:0|0:0,0:0:0:0:
256,316,39513,2,0,P|364:272|368:140,1,240,2|0,0:0|0:0,0:0:0:0:
220,52,41227,22,0,B|156:28|156:28|168:136|56:176,1,240,2|0,0:0|0:0,0:0:0:0:
28,332,42942,2,0,B|124:396|164:268|256:332,1,240,2|0,0:0|0:0,0:0:0:0:
444,348,44656,5,2,0:0:0:0:
408,160,45513,1,0,0:0:0:0:
256,40,46370,1,2,0:0:0:0:
104,160,47227,1,0,0:0:0:0:
68,348,48085,102,0,P|188:336|256:244,2,240,0|0|0,0:0|0:0|0:0,0:0:0:0:
351,136,51513,5,2,0:0:0:0:
255,302,52370,1,0,0:0:0:0:
160,136,53227,1,2,0:0:0:0:
452,336,54942,5,8,0:0:0:0:
324,192,55799,1,0,0:0:0:0:
196,48,56656,1,8,0:0:0:0:
8,92,57513,2,0,B|23:186|149:166|164:261,1,240,0|8,0:0|0:0,0:0:0:0:
340,340,59227,5,0,0:0:0:0:
460,192,60085,1,8,0:0:0:0:
340,44,60942,1,0,0:0:0:0:
168,192,61799,22,0,P|184:304|296:336,1,240,8|0,0:0|0:0,0:0:0:0:
344,192,63513,2,0,P|328:79|216:48,1,240,8|0,0:0|0:0,0:0:0:0:
256,192,65227,12,2,68549,0:0:0:0:
256,64,74763,5,4,0:0:0:0:
424,176,75684,2,0,P|408:260|312:300,1,180.000006866455,8|0,0:0|0:0,0:0:0:0:
332,212,76584,2,0,P|248:256|236:304,2,135.000005149841,8|0|0,0:0|0:0|0:0,0:0:0:0:
344,124,77784,1,8,0:0:0:0:
180,52,78384,22,0,P|96:76|64:172,1,180.000006866455,4|0,0:0|0:0,0:0:0:0:
92,240,79284,1,8,0:0:0:0:
164,296,79584,2,0,L|252:320,1,90.0000034332277,0|0,0:0|0:0,0:0:0:0:
340,320,80184,1,8,0:0:0:0:
424,288,80479,2,0,L|464:332,2,45.0000017166138,0|0|0,0:0|0:0|0:0,0:0:0:0:
452,204,81070,1,8,0:0:0:0:
440,116,81366,1,0,0:0:0:0:
264,84,81981,22,0,P|212:48|160:84,2,135.000005149841,4|0|8,0:0|0:0|0:0,0:0:0:0:
300,168,83181,2,0,P|300:264|256:336,1,180.000006866455,0|8,0:0|0:0,0:0:0:0:
168,332,84081,2,0,P|125:261|125:165,1,180.000006866455,0|8,0:0|0:0,0:0:0:0:
172,92,84981,1,0,0:0:0:0:
256,56,85281,1,0,0:0:0:0:
340,92,85581,21,4,0:0:0:0:
388,168,85881,2,0,P|442:218|321:313,1,270.000010299683,0|0,0:0|0:0,0:0:0:0:
256,156,87381,2,0,P|188:168|136:212,1,135.000005149841,8|0,0:0|0:0,0:0:0:0:
368,224,89175,38,4,P|384:156|368:88,2,135.000005149841,4|0|8,0:0|0:0|0:0,0:0:0:0:
300,280,90375,1,0,0:0:0:0:
212,280,90675,1,0,0:0:0:0:
144,224,90975,2,0,P|128:156|144:88,2,135.000005149841,8|0|8,0:0|0:0|0:0,0:0:0:0:
380,168,92775,22,0,P|336:92|296:68,2,135.000005149841,4|0|8,0:0|0:0|0:0,0:0:0:0:
364,256,93975,1,0,0:0:0:0:
296,316,94275,1,0,0:0:0:0:
208,320,94575,2,0,P|56:192|220:64,1,450.000017166138,8|0,0:0|0:0,0:0:0:0:
296,64,96375,21,4,0:0:0:0:
388,68,96670,2,0,B|452:108|344:208|412:248,1,180.000006866455,0|8,0:0|0:0,0:0:0:0:
488,224,97557,2,0,P|448:312|356:312,1,180.000006866455,0|0,0:0|0:0,0:0:0:0:
304,264,98469,2,0,P|260:188|168:200,1,180.000006866455,0|8,0:0|0:0,0:0:0:0:
120,264,99378,1,0,0:0:0:0:
36,228,99681,1,0,0:0:0:0:
44,140,99984,21,4,0:0:0:0:
132,116,100287,2,0,P|224:92|316:120,1,180.000006866455,0|8,0:0|0:0,0:0:0:0:
376,164,101196,1,0,0:0:0:0:
436,232,101499,1,0,0:0:0:0:
460,320,101802,1,8,0:0:0:0:
256,192,102105,12,4,103620,0:0:0:0:
112,72,117993,5,4,0:0:0:0:
192,116,118293,2,0,P|216:200|312:220,2,180.000006866455,0|8|0,0:0|0:0|0:0,0:0:0:0:
268,68,119793,21,8,0:0:0:0:
348,112,120093,2,0,L|436:64,2,90.0000034332277,0|0|8,0:0|0:0|0:0,0:0:0:0:
404,184,120993,1,0,0:0:0:0:
428,272,121293,1,0,0:0:0:0:
356,324,121593,21,4,0:0:0:0:
268,336,121893,2,0,P|182:332|144:252,1,180.000006866455,0|8,0:0|0:0,0:0:0:0:
236,252,122793,2,0,P|212:192|176:172,1,90.0000034332277,0|0,0:0|0:0,0:0:0:0:
120,124,123393,22,0,P|100:110|76:50,2,90.0000034332277,8|0|0,0:0|0:0|0:0,0:0:0:0:
204,92,124293,2,0,P|256:32|308:92,1,180.000006866455,8|0,0:0|0:0,0:0:0:0:
332,172,125193,5,4,0:0:0:0:
420,192,125493,2,0,P|356:260|268:236,1,180.000006866455,0|8,0:0|0:0,0:0:0:0:
244,164,126393,2,0,B|200:232|128:124|76:196,1,180.000006866455,0|8,0:0|0:0,0:0:0:0:
52,272,127293,22,0,P|4:232|0:192,1,90.0000034332277,0|0,0:0|0:0,0:0:0:0:
20,120,127893,2,0,P|0:60|4:28,2,90.0000034332277,8|0|0,0:0|0:0|0:0,0:0:0:0:
104,152,128793,21,4,0:0:0:0:
180,104,129093,2,0,P|183:192|110:241,1,180.000006866455,0|8,0:0|0:0,0:0:0:0:
32,208,129993,1,0,0:0:0:0:
20,120,130293,1,0,0:0:0:0:
92,64,130593,22,0,P|196:16|260:48,1,180.000006866455,8|0,0:0|0:0,0:0:0:0:
184,108,131493,2,0,P|236:132|280:124,2,90.0000034332277,8|0|0,0:0|0:0|0:0,0:0:0:0:
148,192,132393,21,4,0:0:0:0:
376,340,133293,1,8,0:0:0:0:
412,72,134193,1,8,0:0:0:0:
144,28,135093,2,0,P|104:60|80:108,1,90.0000034332277,8|0,0:0|0:0,0:0:0:0:
85,183,135693,1,0,0:0:0:0:
152,240,135993,5,4,0:0:0:0:
416,292,136893,1,8,0:0:0:0:
324,40,137793,1,8,0:0:0:0:
48,148,138693,2,0,L|48:248,2,90.0000034332277,8|0|0,0:0|0:0|0:0,0:0:0:0:
80,64,139593,21,4,0:0:0:0:
156,112,139893,1,0,0:0:0:0:
180,200,140193,2,0,L|180:296,1,90.0000034332277,0|8,0:0|0:0,0:0:0:0:
248,348,140793,1,0,0:0:0:0:
316,288,141093,2,0,L|280:244,2,45.0000017166138,0|0|8,0:0|0:0|0:0,0:0:0:0:
384,228,141693,21,0,0:0:0:0:
472,208,141993,2,0,P|448:168|400:140,1,90.0000034332277,0|8,0:0|0:0,0:0:0:0:
340,92,142593,1,0,0:0:0:0:
256,128,142893,1,0,0:0:0:0:
196,196,143193,21,4,0:0:0:0:
172,108,143493,1,0,0:0:0:0:
120,36,143793,2,0,P|88:84|88:132,1,90.0000034332277,0|8,0:0|0:0,0:0:0:0:
108,204,144393,1,0,0:0:0:0:
160,276,144693,2,0,L|160:328,2,45.0000017166138,0|0|8,0:0|0:0|0:0,0:0:0:0:
248,296,145293,37,0,0:0:0:0:
336,296,145593,1,0,0:0:0:0:
424,272,145893,1,8,0:0:0:0:
484,204,146193,1,0,0:0:0:0:
496,116,146493,1,0,0:0:0:0:
256,192,146793,12,0,150555,0:0:0:0:
416,60,165900,102,0,L|320:132,1,120,4|0,0:0|0:0,0:0:0:0:
352,248,166500,2,0,L|256:320,1,120,8|0,0:0|0:0,0:0:0:0:
140,296,167100,1,4,0:0:0:0:
84,192,167400,1,0,0:0:0:0:
60,76,167700,2,0,P|160:36|288:68,1,240,8|4,0:0|0:0,0:0:0:0:
304,184,168600,21,0,0:0:0:0:
376,280,168900,2,0,P|436:280|484:220,1,120,8|0,0:0|0:0,0:0:0:0:
480,120,169500,2,0,P|438:80|378:80,1,120,4|0,0:0|0:0,0:0:0:0:
260,92,170100,2,0,P|192:180|260:268,1,240,0|4,0:0|0:0,0:0:0:0:
372,316,171000,21,0,0:0:0:0:
340,200,171300,1,8,0:0:0:0:
452,248,171600,2,0,P|484:292|468:356,2,120,0|4|0,0:0|0:0|0:0,0:0:0:0:
420,132,172500,2,0,L|508:44,2,120,8|0|4,0:0|0:0|0:0,0:0:0:0:
300,128,173400,22,0,L|176:128,1,120,0|8,0:0|0:0,0:0:0:0:
112,228,174000,2,0,L|244:228,1,120,0|4,0:0|0:0,0:0:0:0:
296,328,174600,1,0,0:0:0:0:
416,328,174900,2,0,P|472:228|408:124,1,240,8|4,0:0|0:0,0:0:0:0:
296,128,175800,21,0,0:0:0:0:
176,140,176100,2,0,L|56:168,1,120,8|0,0:0|0:0,0:0:0:0:
60,288,176700,2,0,L|176:316,1,120,4|0,0:0|0:0,0:0:0:0:
288,360,177300,2,0,B|369:308|315:206|396:155,1,240,8|4,0:0|0:0,0:0:0:0:
468,56,178200,21,0,0:0:0:0:
348,56,178500,2,0,P|288:72|244:112,1,120,8|0,0:0|0:0,0:0:0:0:
132,148,179100,2,0,P|148:207|188:252,1,120,4|0,0:0|0:0,0:0:0:0:
240,360,179700,2,0,P|300:344|344:304,2,120,8|0|4,0:0|0:0|0:0,0:0:0:0:
120,336,180600,21,0,0:0:0:0:
36,248,180900,2,0,P|19:193|42:137,1,120,8|0,0:0|0:0,0:0:0:0:
160,120,181500,2,0,P|199:78|259:70,1,120,0|0,0:0|0:0,0:0:0:0:
364,128,182100,2,0,P|456:202|476:329,1,240,8|4,0:0|0:0,0:0:0:0:
360,340,183000,21,0,0:0:0:0:
240,324,183300,2,0,L|145:250,1,120,8|0,0:0|0:0,0:0:0:0:
144,132,183900,2,0,L|240:58,1,120,4|0,0:0|0:0,0:0:0:0:
360,56,184500,1,0,0:0:0:0:
448,136,184800,1,0,0:0:0:0:
256,192,185100,12,0,187500,0:0:0:0:
