osu file format v13

[General]
AudioFilename: 01 Mirror Mirror (Rooster Teeth's RWBY).mp3
AudioLeadIn: 1500
PreviewTime: 125570
Countdown: 0
SampleSet: Normal
StackLeniency: 0.7
Mode: 3
LetterboxInBreaks: 0
SpecialStyle: 0
WidescreenStoryboard: 0

[Editor]
DistanceSpacing: 1.6
BeatDivisor: 8
GridSize: 16
TimelineZoom: 1.8

[Metadata]
Title:Mirror Mirror (feat. Casey Lee Williams)
TitleUnicode:Mirror Mirror (feat. Casey Lee Williams)
Artist:Jeff Williams
ArtistUnicode:Jeff Williams
Creator:Fullerene-
Version:Myrtenaster
Source:RWBY
Tags:white trailer weiss schnee
BeatmapID:555887
BeatmapSetID:240541

[Difficulty]
HPDrainRate:8
CircleSize:4
OverallDifficulty:8
ApproachRate:9
SliderMultiplier:1.4
SliderTickRate:1

[Events]
//Background and Video events
0,0,"mirror.png",0,0
//Break Periods
2,45264,49364
//Storyboard Layer 0 (Background)
//Storyboard Layer 1 (Fail)
//Storyboard Layer 2 (Pass)
//Storyboard Layer 3 (Foreground)
//Storyboard Sound Samples
//Background Colour Transformations
3,100,163,162,255

[TimingPoints]
538,426.772885695995,4,1,0,15,1,0
538,-96.1538461538461,4,1,0,15,0,0
965,830.9754,4,1,0,15,1,0
965,-49.4550024115743,4,1,0,15,0,0
1381,838.2312,4,1,0,15,1,0
1381,-49.0269157375184,4,1,0,15,0,0
1800,861.4056,4,1,0,15,1,0
1800,-47.7079443307066,4,1,0,15,0,0
2230,871.6104,4,1,0,15,1,0
2230,-47.1493805156053,4,1,0,15,0,0
3102,828.0728,4,1,0,15,1,0
3102,-49.6283544284499,4,1,0,15,0,0
3930,794.4673,4,1,0,15,1,0
3930,-51.7276046615876,4,1,0,15,0,0
4327,875.6912,4,1,0,15,1,0
4327,-46.9296601484164,4,1,0,15,0,0
4765,841.1337,4,1,0,15,1,0
4765,-48.8577385627979,4,1,0,15,0,0
5606,849.8415,4,1,0,15,1,0
5606,-48.3571235471072,4,1,0,15,0,0
6456,922.4042,4,1,0,15,1,0
6456,-44.5530174417668,4,1,0,15,0,0
7379,852.8118,4,1,0,15,1,0
7379,-48.188698152346,4,1,0,15,0,0
8231,867.2111,4,1,0,15,1,0
8231,-47.3885659569612,4,1,0,15,0,0
8665,890.4309,4,1,0,15,1,0
8665,-46.1528125438581,4,1,0,15,0,0
9110,884.6255,4,1,0,15,1,0
9110,-46.4556927320758,4,1,0,15,0,0
9995,785.9864,4,1,0,15,1,0
9995,-52.2857525409586,4,1,0,15,0,0
10781,849.8415,4,1,0,15,1,0
10781,-48.3571235471072,4,1,0,15,0,0
11631,881.7682,4,1,0,15,1,0
11631,-46.6062287242372,4,1,0,15,0,0
13394,803.2881,4,1,0,15,1,0
13394,-51.1595907009688,4,1,0,15,0,0
14197,948.5266,4,1,0,15,1,0
14197,-43.3260284012688,4,1,0,15,0,0
15146,845.9866,4,1,0,15,1,0
15146,-48.5774720438349,4,1,0,15,0,0
17684,855.6467,4,1,0,15,1,0
17684,-48.0290409709509,4,1,0,15,0,0
19395,867.2111,4,1,0,15,1,0
19395,-47.3885659569612,4,1,0,15,0,0
20262,849.8415,4,1,0,15,1,0
20262,-48.3571235471072,4,1,0,15,0,0
21112,867.2111,4,1,0,15,1,0
21112,-47.3885659569612,4,1,0,15,0,0
21979,844.0362,4,1,0,15,1,0
21979,-48.6897249323654,4,1,0,15,0,0
22823,861.3833,4,1,0,15,1,0
22823,-47.7091794221677,4,1,0,15,0,0
23685,820.8394,4,1,0,15,1,0
23685,-50.0656893552611,4,1,0,15,0,0
24506,832.4039,4,1,0,15,1,0
24506,-49.3701319887604,4,1,0,15,0,0
25338,878.7308,4,1,0,15,1,0
25338,-46.7673267068355,4,1,0,15,0,0
26217,884.717,4,1,0,15,1,0
26217,-46.4508881494974,4,1,0,15,0,0
27102,820.8619,4,1,0,15,1,0
27102,-50.0643170440228,4,1,0,15,0,0
27922,971.7009,4,1,0,15,1,0
27922,-42.2927367989048,4,1,0,15,0,0
28408,855.6467,4,1,0,15,1,0
28408,-48.0290409709509,4,1,0,15,0,0
28836,884.6255,4,1,0,15,1,0
28836,-46.4556927320758,4,1,0,15,0,0
29721,785.9864,4,1,0,15,1,0
29721,-52.2857525409586,4,1,0,15,0,0
30507,896.2809,4,1,0,15,1,0
30507,-45.8515744460904,4,1,0,15,0,0
31403,861.4514,4,1,0,15,1,0
31403,-47.7054078859921,4,1,0,15,0,0
32264,835.3288,4,1,0,15,1,0
32264,-49.1972626957899,4,1,0,15,0,0
33100,942.6759,4,1,0,15,1,0
33100,-43.5949305704738,4,1,0,15,0,0
33571,809.1608,4,1,0,15,1,0
33571,-50.7882863467421,4,1,0,15,0,0
33976,803.3107,4,1,0,15,1,0
33976,-51.1581513989032,4,1,0,15,0,0
34779,896.2809,4,1,0,15,1,0
34779,-45.8515744460904,4,1,0,15,0,0
35675,826.5078,4,1,0,15,1,0
35675,-49.7223261667451,4,1,0,15,0,0
36502,873.0155,4,1,0,15,1,0
36502,-47.0734945839552,4,1,0,15,0,0
37375,727.9363,4,1,0,15,1,0
37375,-56.4553387582937,4,1,0,15,0,0
37739,913.6968,4,1,0,15,1,0
37739,-44.9776013344458,4,1,0,15,0,0
38196,826.4849,4,1,0,15,1,0
38196,-49.7237038583027,4,1,0,15,0,0
39849,896.2809,4,1,0,15,1,0
39849,-45.8515744460904,4,1,0,15,0,0
40745,922.4042,4,1,0,15,1,0
40745,-44.5530174417668,4,1,0,15,0,0
41667,881.7682,4,1,0,15,1,0
41667,-46.6062287242372,4,1,0,15,0,0
42549,809.1608,4,1,0,15,1,0
42549,-50.7882863467421,4,1,0,15,0,0
43358,855.6467,4,1,0,15,1,0
43358,-48.0290409709509,4,1,0,15,0,0
44214,849.8415,4,1,0,15,1,0
44214,-48.3571235471072,4,1,0,15,0,0
45064,780.1813,4,1,0,15,1,0
45064,-52.6747954750504,4,1,0,15,0,0
45844,811.2241,4,1,0,15,1,0
45844,-50.6591093767541,4,1,0,15,0,0
49089,875.1701,4,1,0,15,1,0
49089,-46.9576033401494,4,1,0,15,0,0
49964,409.710130082966,4,1,0,15,1,0
49964,-100.304794520548,4,1,0,15,0,0
52217,-98.0392156862745,4,1,0,15,0,0
52422,-96.1538461538461,4,1,0,15,0,0
52627,-94.3396226415094,4,1,0,15,0,0
52831,-96.1538461538461,4,1,0,15,0,0
53036,-98.0392156862745,4,1,0,15,0,0
53242,410.958904109589,4,1,0,15,1,0
53242,-100,4,1,0,15,0,0
58378,-95.2380952380952,4,1,0,15,0,0
58481,-90.9090909090909,4,1,0,15,0,0
58584,-86.9565217391304,4,1,0,15,0,0
58684,-93.4579439252336,4,1,0,15,0,0
58789,-100,4,1,0,15,0,0
58892,-107.52688172043,4,1,0,15,0,0
58995,-100,4,1,0,15,0,0
63105,-99.009900990099,4,1,0,15,0,0
63515,-98.0392156862745,4,1,0,15,0,0
63926,-97.0873786407767,4,1,0,15,0,0
64337,-96.1538461538461,4,1,0,15,0,0
64748,-80,4,1,0,15,0,0
64800,-100,4,1,0,15,0,0
65365,-79.9999999999999,4,1,0,15,0,0
65416,-133.333333333333,4,1,0,15,0,0
65468,-79.9999999999999,4,1,0,15,0,0
65519,-133.333333333333,4,1,0,15,0,0
65570,-100,4,1,0,15,0,0
65981,-79.9999999999999,4,1,0,15,0,0
66033,-133.333333333333,4,1,0,15,0,0
66084,-100,4,1,0,15,0,0
66187,-79.9999999999999,4,1,0,15,0,0
66238,-133.333333333333,4,1,0,15,0,0
66289,-66.6666666666667,4,1,0,15,0,0
66341,-200,4,1,0,15,0,0
66392,-79.9999999999999,4,1,0,15,0,0
66444,-100,4,1,0,15,0,0
72557,-95.2380952380952,4,1,0,15,0,0
72762,-90.9090909090909,4,1,0,15,0,0
72968,-86.9565217391304,4,1,0,15,0,0
73019,-87.719298245614,4,1,0,15,0,0
73070,-88.4955752212389,4,1,0,15,0,0
73122,-89.2857142857143,4,1,0,15,0,0
73173,-90.0900900900901,4,1,0,15,0,0
73224,-90.9090909090909,4,1,0,15,0,0
73276,-91.743119266055,4,1,0,15,0,0
73327,-92.5925925925926,4,1,0,15,0,0
73378,-94.3396226415094,4,1,0,15,0,0
73481,-96.1538461538461,4,1,0,15,0,0
73584,-100,4,1,0,15,0,0
73687,-104.166666666667,4,1,0,15,0,0
73789,-100,4,1,0,15,0,0
79543,-58.8235294117647,4,1,0,15,0,0
79594,-100,4,1,0,15,0,0
81187,-58.8235294117647,4,1,0,15,0,0
81238,-100,4,1,0,15,0,0
82420,-58.8235294117647,4,1,0,15,0,0
82471,-100,4,1,0,15,0,0
82831,-58.8235294117647,4,1,0,15,0,0
82882,-100,4,1,0,15,0,0
87762,-62.5,4,1,0,15,0,0
87813,-100,4,1,0,15,0,0
88995,-80,4,1,0,15,0,0
89046,-100,4,1,0,15,0,0
89303,-80,4,1,0,15,0,0
89355,-100,4,1,0,15,0,0
89611,-80,4,1,0,15,0,0
89663,-100,4,1,0,15,0,0
89920,-80,4,1,0,15,0,0
89971,-100,4,1,0,15,0,0
90228,-80,4,1,0,15,0,0
90279,-100,4,1,0,15,0,0
90536,-80,4,1,0,15,0,0
90587,-100,4,1,0,15,0,0
90844,-80,4,1,0,15,0,0
90896,-100,4,1,0,15,0,0
91050,-62.5,4,1,0,15,0,0
91101,-100,4,1,0,15,0,0
91461,-80,4,1,0,15,0,0
91512,-100,4,1,0,15,0,0
91666,-80,4,1,0,15,0,0
91718,-100,4,1,0,15,0,0
92283,-80,4,1,0,15,0,0
92334,-100,4,1,0,15,0,0
92591,-80,4,1,0,15,0,0
92642,-100,4,1,0,15,0,0
92899,-80,4,1,0,15,0,0
92950,-100,4,1,0,15,0,0
93105,-95.2380952380952,4,1,0,15,0,0
93156,-90.9090909090909,4,1,0,15,0,0
93207,-100,4,1,0,15,0,0
93515,-80,4,1,0,15,0,0
93567,-100,4,1,0,15,0,0
93824,-80,4,1,0,15,0,0
93875,-100,4,1,0,15,0,0
94132,-80,4,1,0,15,0,0
94183,-100,4,1,0,15,0,0
94337,-66.6666666666667,4,1,0,15,0,0
94389,-100,4,1,0,15,0,0
94954,-83.3333333333333,4,1,0,15,0,0
95005,-100,4,1,0,15,0,0
95570,-83.3333333333333,4,1,0,15,0,0
95622,-100,4,1,0,15,0,0
95878,-86.9565217391304,4,1,0,15,0,0
95930,-100,4,1,0,15,0,0
96187,-86.9565217391304,4,1,0,15,0,0
96238,-100,4,1,0,15,0,0
96495,-90.9090909090909,4,1,0,15,0,0
96546,-100,4,1,0,15,0,0
96803,-90.9090909090909,4,1,0,15,0,0
96855,-101.010101010101,4,1,0,15,0,0
97009,-102.040816326531,4,1,0,15,0,0
97214,-103.092783505155,4,1,0,15,0,0
97420,-104.166666666667,4,1,0,15,0,0
97625,-105.263157894737,4,1,0,15,0,0
97831,-106.382978723404,4,1,0,15,0,0
98036,-107.52688172043,4,1,0,15,0,0
98242,-108.695652173913,4,1,0,15,0,0
98447,-109.89010989011,4,1,0,15,0,0
99269,-111.111111111111,4,1,0,15,0,0
110776,-109.89010989011,4,1,0,15,0,0
110981,-108.695652173913,4,1,0,15,0,0
111187,-107.52688172043,4,1,0,15,0,0
111392,-106.382978723404,4,1,0,15,0,0
111598,-105.263157894737,4,1,0,15,0,0
111803,-104.166666666667,4,1,0,15,0,0
112009,-103.092783505155,4,1,0,15,0,0
112214,-102.040816326531,4,1,0,15,0,0
112317,-101.010101010101,4,1,0,15,0,0
112420,-79.9999999999999,4,1,0,15,0,0
112471,-100,4,1,0,15,0,0
113036,-80,4,1,0,15,0,0
113087,-100,4,1,0,15,0,0
113652,-80,4,1,0,15,0,0
113704,-100,4,1,0,15,0,0
114269,-80,4,1,0,15,0,0
114320,-100,4,1,0,15,0,0
115707,-80,4,1,0,15,0,0
115759,-100,4,1,0,15,0,0
116324,-80,4,1,0,15,0,0
116375,-100,4,1,0,15,0,0
116735,-80,4,1,0,15,0,0
116786,-100,4,1,0,15,0,0
116940,-66.6666666666667,4,1,0,15,0,0
116992,-100,4,1,0,15,0,0
117557,-80,4,1,0,15,0,0
117608,-100,4,1,0,15,0,0
118995,-80,4,1,0,15,0,0
119046,-100,4,1,0,15,0,0
119611,-80,4,1,0,15,0,0
119663,-100,4,1,0,15,0,0
120228,-80,4,1,0,15,0,0
120279,-100,4,1,0,15,0,0
120844,-80,4,1,0,15,0,0
120896,-100,4,1,0,15,0,0
121872,-80,4,1,0,15,0,0
121923,-100,4,1,0,15,0,0
122283,-76.9230769230769,4,1,0,15,0,0
122334,-100,4,1,0,15,0,0
122899,-74.0740740740741,4,1,0,15,0,0
122950,-100,4,1,0,15,0,0
123515,-74.0740740740741,4,1,0,15,0,0
123567,-100,4,1,0,15,0,0
123926,-71.4285714285714,4,1,0,15,0,0
123978,-100,4,1,0,15,0,0
124132,-71.4285714285714,4,1,0,15,0,0
124183,-100,4,1,0,15,0,0
124543,-68.9655172413793,4,1,0,15,0,0
124594,-100,4,1,0,15,0,0
124954,-66.6666666666667,4,1,0,15,0,0
125005,-100,4,1,0,15,0,0
125570,-76.9230769230769,4,1,0,15,0,1
125622,-100,4,1,0,15,0,1
130913,-98.0392156862745,4,1,0,15,0,1
131118,-96.1538461538461,4,1,0,15,0,1
131324,-94.3396226415094,4,1,0,15,0,1
131529,-96.1538461538461,4,1,0,15,0,1
131735,-92.5925925925926,4,1,0,15,0,1
131940,-89.2857142857143,4,1,0,15,0,1
132146,-100,4,1,0,15,0,1
138515,-95.2380952380952,4,1,0,15,0,1
138618,-90.9090909090909,4,1,0,15,0,1
138721,-100,4,1,0,15,0,1
141598,-95.2380952380952,4,1,0,15,0,1
141700,-90.9090909090909,4,1,0,15,0,1
141803,-100,4,1,0,15,0,1
145091,-95.2380952380952,4,1,0,15,0,1
145194,-90.9090909090909,4,1,0,15,0,1
145296,-100,4,1,0,15,0,1
148584,-99.009900990099,4,1,0,15,0,1
148995,-98.0392156862745,4,1,0,15,0,1
149406,-97.0873786407767,4,1,0,15,0,1
149817,-96.1538461538461,4,1,0,15,0,1
150228,-94.3396226415094,4,1,0,15,0,1
150639,-92.5925925925926,4,1,0,15,0,1
151050,-90.9090909090909,4,1,0,15,0,1
151461,-89.2857142857143,4,1,0,15,0,1
151873,974.4214,4,1,0,15,1,0
151873,-42.1746591474273,4,1,0,15,0,0
152847,814.7845,4,1,0,15,1,0
152847,-50.4377420176242,4,1,0,15,0,0
153662,1023.7197,4,1,0,15,1,0
153662,-40.1436940316367,4,1,0,15,0,0
154685,840.9073,4,1,0,15,1,0
154685,-48.8708926786091,4,1,0,15,0,0
155106,1038.276,4,1,0,15,1,0
155106,-39.580892181808,4,1,0,15,0,0
155625,757.0071,4,1,0,15,1,0
155625,-54.2873249286023,4,1,0,15,0,0
156382,1035.647,4,1,0,15,1,0
156382,-39.6813686622555,4,1,0,15,0,0
156900,919.5458,4,1,0,15,1,0
156900,-44.6915101030954,4,1,0,15,0,0
157360,1071.2468,4,1,0,15,1,0
157360,-38.3626727388674,4,1,0,15,0,0
157895,1013.2431,4,1,0,15,1,0
157895,-40.5587666088808,4,1,0,15,0,0
158402,1078.7294,4,1,0,15,1,0
158402,-38.0965702899716,4,1,0,15,0,0
161638,1142.903,4,1,0,15,1,0
161638,-35.9574613164537,4,1,0,15,0,0
162210,1769.7966,4,1,0,15,1,0
162210,-23.2206855923211,4,1,0,15,0,0
162505,1334.5582,4,1,0,15,1,0
162505,-30.7936292407172,4,1,0,15,0,0
162949,1768.8887,4,1,0,15,1,0
162949,-23.2326038438478,4,1,0,15,0,0
163392,1455.4204,4,1,0,15,1,0
163392,-28.2364397331238,4,1,0,15,0,0
163574,1168.9799,4,1,0,15,1,0
163574,-35.1553439122083,4,1,0,15,0,0
163720,1602.5383,4,1,0,15,1,0
163720,-25.6442485093548,4,1,0,15,0,0
164020,983.2922,4,1,0,15,1,0
164020,-41.794179198166,4,1,0,15,0,0
164327,1203.8765,4,1,0,15,1,0
164327,-34.136300867206,4,1,0,15,0,0
165531,1081.9955,4,1,0,15,1,0
165531,-37.981572391899,4,1,0,15,0,0
166072,1534.7859,4,1,0,15,1,0
166072,-26.7763017701419,4,1,0,15,0,0
166456,989.2061,4,1,0,15,1,0
166456,-41.5443155991041,4,1,0,15,0,0
166703,1470.6135,4,1,0,15,1,0
166703,-27.9447253890699,4,1,0,15,0,0
167193,1431.4957,4,1,0,15,1,0
167193,-28.7083575668155,4,1,0,15,0,0
168148,1287.7997,4,1,0,15,1,0
168148,-31.9117098807826,4,1,0,15,0,0
169436,1538.2526,4,1,0,15,1,0
169436,-26.7159570612518,4,1,0,15,0,0
170974,2068.3235,4,1,0,15,1,0
170974,-19.8691792705343,4,1,0,15,0,0

[HitObjects]
64,192,538,5,0,0:0:0:0:
448,192,538,1,0,0:0:0:0:
320,192,965,1,0,0:0:0:0:
320,192,1381,1,0,0:0:0:0:
320,192,1800,1,0,0:0:0:0:
192,192,2230,1,0,0:0:0:0:
320,192,3102,1,0,0:0:0:0:
64,192,3930,1,0,0:0:0:0:
320,192,3930,1,0,0:0:0:0:
448,192,4327,1,0,0:0:0:0:
320,192,4765,1,0,0:0:0:0:
64,192,7379,1,0,0:0:0:0:
448,192,7379,1,0,0:0:0:0:
320,192,7805,1,0,0:0:0:0:
320,192,8231,1,0,0:0:0:0:
320,192,8665,1,0,0:0:0:0:
320,192,9110,1,0,0:0:0:0:
192,192,9995,1,0,0:0:0:0:
64,192,10781,1,0,0:0:0:0:
192,192,10834,1,0,0:0:0:0:
448,192,11631,1,0,0:0:0:0:
320,192,13394,1,0,0:0:0:0:
192,192,13796,1,0,0:0:0:0:
64,192,14197,1,0,0:0:0:0:
320,192,14257,1,0,0:0:0:0:
192,192,15146,1,0,0:0:0:0:
64,192,17684,1,0,0:0:0:0:
320,192,18112,1,0,0:0:0:0:
192,192,18540,1,0,0:0:0:0:
320,192,18967,1,0,0:0:0:0:
448,192,19395,1,0,0:0:0:0:
64,192,19829,1,0,0:0:0:0:
192,192,20262,1,0,0:0:0:0:
320,192,20687,1,0,0:0:0:0:
64,192,21112,1,0,0:0:0:0:
448,0,21112,128,0,22823:0:0:0:0:
320,192,21546,1,0,0:0:0:0:
192,192,21979,1,0,0:0:0:0:
320,192,22401,1,0,0:0:0:0:
320,192,22823,1,0,0:0:0:0:
64,0,22823,128,0,25777:0:0:0:0:
320,192,23685,1,0,0:0:0:0:
192,192,24454,1,0,0:0:0:0:
320,192,24506,1,0,0:0:0:0:
448,192,25338,1,0,0:0:0:0:
192,0,26217,128,0,27102:0:0:0:0:
320,0,27102,128,0,27922:0:0:0:0:
192,0,27922,128,0,29610:0:0:0:0:
448,192,27982,1,0,0:0:0:0:
320,192,28408,1,0,0:0:0:0:
448,192,28836,1,0,0:0:0:0:
320,192,29278,1,0,0:0:0:0:
320,192,29721,1,0,0:0:0:0:
64,0,29721,128,0,31977:0:0:0:0:
320,192,30507,1,0,0:0:0:0:
320,192,31403,1,0,0:0:0:0:
192,192,31456,1,0,0:0:0:0:
320,192,32264,1,0,0:0:0:0:
448,192,32316,1,0,0:0:0:0:
64,192,33100,1,0,0:0:0:0:
192,0,33100,128,0,33571:0:0:0:0:
320,192,33571,1,0,0:0:0:0:
64,0,33571,128,0,33976:0:0:0:0:
320,192,33976,1,0,0:0:0:0:
192,0,33976,128,0,34377:0:0:0:0:
448,192,34377,1,0,0:0:0:0:
320,0,34377,128,0,35227:0:0:0:0:
64,192,34779,1,0,0:0:0:0:
448,0,35227,128,0,37102:0:0:0:0:
192,192,35675,1,0,0:0:0:0:
320,192,36502,1,0,0:0:0:0:
448,192,37375,1,0,0:0:0:0:
320,0,37375,128,0,37739:0:0:0:0:
192,0,37739,128,0,38196:0:0:0:0:
320,192,38196,1,0,0:0:0:0:
64,0,38196,128,0,39849:0:0:0:0:
192,192,39849,1,0,0:0:0:0:
320,192,39905,1,0,0:0:0:0:
320,0,40745,128,0,41667:0:0:0:0:
64,0,41667,128,0,45064:0:0:0:0:
192,192,42108,1,0,0:0:0:0:
320,192,42549,1,0,0:0:0:0:
192,192,42954,1,0,0:0:0:0:
448,192,43358,1,0,0:0:0:0:
320,192,43786,1,0,0:0:0:0:
448,192,44214,1,0,0:0:0:0:
320,192,44639,1,0,0:0:0:0:
192,192,45064,1,0,0:0:0:0:
448,192,45064,1,0,0:0:0:0:
448,192,49964,5,0,0:0:0:0:
448,192,50066,1,0,0:0:0:0:
64,192,50169,1,0,0:0:0:0:
64,192,50271,1,0,0:0:0:0:
320,192,50374,1,0,0:0:0:0:
320,192,50476,1,0,0:0:0:0:
64,192,50579,1,0,0:0:0:0:
64,192,50681,1,0,0:0:0:0:
448,192,50783,1,0,0:0:0:0:
448,192,50886,1,0,0:0:0:0:
192,192,50988,1,0,0:0:0:0:
192,192,51091,1,0,0:0:0:0:
320,192,51193,1,0,0:0:0:0:
320,192,51296,1,0,0:0:0:0:
64,192,51398,1,0,0:0:0:0:
64,192,51500,1,0,0:0:0:0:
448,0,51603,128,0,51654:0:0:0:0:
448,192,51705,1,0,0:0:0:0:
192,192,51807,1,0,0:0:0:0:
192,192,51910,1,0,0:0:0:0:
448,192,52012,1,0,0:0:0:0:
448,192,52114,1,0,0:0:0:0:
320,192,52217,1,0,0:0:0:0:
64,0,52217,128,0,53037:0:0:0:0:
320,192,52319,1,0,0:0:0:0:
448,192,52422,1,0,0:0:0:0:
448,192,52525,1,0,0:0:0:0:
192,192,52627,1,0,0:0:0:0:
192,192,52729,1,0,0:0:0:0:
448,192,52831,1,0,0:0:0:0:
448,192,52934,1,0,0:0:0:0:
320,192,53036,1,0,0:0:0:0:
320,192,53139,1,0,0:0:0:0:
192,192,53241,1,0,0:0:0:0:
64,192,53242,1,0,0:0:0:0:
448,0,53242,128,0,53293:0:0:0:0:
192,192,53447,1,0,0:0:0:0:
64,192,53653,1,0,0:0:0:0:
320,192,53653,1,0,0:0:0:0:
448,192,53858,1,0,0:0:0:0:
64,192,54064,1,0,0:0:0:0:
192,192,54064,1,0,0:0:0:0:
320,192,54269,1,0,0:0:0:0:
64,192,54474,1,0,0:0:0:0:
320,192,54475,1,0,0:0:0:0:
64,192,54680,1,0,0:0:0:0:
448,192,54886,1,0,0:0:0:0:
64,192,55091,1,0,0:0:0:0:
320,192,55297,1,0,0:0:0:0:
448,192,55297,1,0,0:0:0:0:
64,192,55502,1,0,0:0:0:0:
192,192,55708,1,0,0:0:0:0:
320,192,55708,1,0,0:0:0:0:
64,192,55913,1,0,0:0:0:0:
320,192,56119,1,0,0:0:0:0:
448,192,56119,1,0,0:0:0:0:
64,192,56324,1,0,0:0:0:0:
320,192,56478,1,0,0:0:0:0:
64,192,56529,1,0,0:0:0:0:
448,192,56529,1,0,0:0:0:0:
192,192,56658,1,0,0:0:0:0:
320,192,56735,1,0,0:0:0:0:
448,192,56786,1,0,0:0:0:0:
64,192,56940,1,0,0:0:0:0:
320,192,56940,1,0,0:0:0:0:
192,192,57069,1,0,0:0:0:0:
448,192,57146,1,0,0:0:0:0:
64,192,57351,1,0,0:0:0:0:
192,192,57351,1,0,0:0:0:0:
320,192,57557,1,0,0:0:0:0:
64,192,57762,1,0,0:0:0:0:
320,192,57762,1,0,0:0:0:0:
448,192,57968,1,0,0:0:0:0:
64,192,58173,1,0,0:0:0:0:
192,192,58379,1,0,0:0:0:0:
320,0,58447,128,0,58584:0:0:0:0:
64,192,58584,1,0,0:0:0:0:
448,0,58584,128,0,58995:0:0:0:0:
320,192,58790,1,0,0:0:0:0:
64,192,58995,1,0,0:0:0:0:
192,192,58995,1,0,0:0:0:0:
64,192,59201,1,0,0:0:0:0:
320,192,59201,1,0,0:0:0:0:
192,192,59406,1,0,0:0:0:0:
320,192,59406,1,0,0:0:0:0:
192,192,59612,1,0,0:0:0:0:
448,192,59612,1,0,0:0:0:0:
320,192,59817,1,0,0:0:0:0:
448,192,59817,1,0,0:0:0:0:
192,192,60023,1,0,0:0:0:0:
64,192,60228,1,0,0:0:0:0:
320,192,60228,1,0,0:0:0:0:
192,192,60434,1,0,0:0:0:0:
320,192,60639,1,0,0:0:0:0:
192,192,60844,1,0,0:0:0:0:
320,192,61050,1,0,0:0:0:0:
448,192,61050,1,0,0:0:0:0:
192,192,61256,1,0,0:0:0:0:
320,192,61256,1,0,0:0:0:0:
64,192,61461,1,0,0:0:0:0:
192,192,61461,1,0,0:0:0:0:
320,192,61666,1,0,0:0:0:0:
192,192,61872,1,0,0:0:0:0:
448,192,61872,1,0,0:0:0:0:
320,192,62077,1,0,0:0:0:0:
192,192,62283,1,0,0:0:0:0:
320,192,62488,1,0,0:0:0:0:
64,192,62694,1,0,0:0:0:0:
448,192,62694,1,0,0:0:0:0:
320,192,62899,1,0,0:0:0:0:
192,192,63105,1,0,0:0:0:0:
64,0,63105,128,0,63208:0:0:0:0:
448,192,63173,1,0,0:0:0:0:
320,192,63242,1,0,0:0:0:0:
192,192,63310,1,0,0:0:0:0:
448,192,63378,1,0,0:0:0:0:
320,192,63447,1,0,0:0:0:0:
192,192,63516,1,0,0:0:0:0:
64,192,63516,1,0,0:0:0:0:
448,192,63584,1,0,0:0:0:0:
320,192,63652,1,0,0:0:0:0:
64,192,63721,1,0,0:0:0:0:
192,192,63789,1,0,0:0:0:0:
320,192,63858,1,0,0:0:0:0:
448,192,63927,1,0,0:0:0:0:
64,192,63995,1,0,0:0:0:0:
192,192,64064,1,0,0:0:0:0:
448,192,64132,1,0,0:0:0:0:
320,192,64201,1,0,0:0:0:0:
64,192,64269,1,0,0:0:0:0:
448,192,64337,1,0,0:0:0:0:
192,192,64337,1,0,0:0:0:0:
320,192,64406,1,0,0:0:0:0:
64,192,64474,1,0,0:0:0:0:
448,192,64543,1,0,0:0:0:0:
320,192,64611,1,0,0:0:0:0:
192,192,64680,1,0,0:0:0:0:
320,192,64748,1,0,0:0:0:0:
64,192,64749,1,0,0:0:0:0:
448,192,64749,1,0,0:0:0:0:
192,192,64954,1,0,0:0:0:0:
64,192,65057,1,0,0:0:0:0:
448,192,65057,1,0,0:0:0:0:
192,192,65160,1,0,0:0:0:0:
64,192,65365,1,0,0:0:0:0:
448,0,65365,128,0,65416:0:0:0:0:
192,192,65468,1,0,0:0:0:0:
320,0,65468,128,0,65519:0:0:0:0:
448,192,65571,1,0,0:0:0:0:
192,192,65776,1,0,0:0:0:0:
320,192,65776,1,0,0:0:0:0:
64,192,65982,1,0,0:0:0:0:
448,192,65982,1,0,0:0:0:0:
192,192,66187,1,0,0:0:0:0:
320,192,66187,1,0,0:0:0:0:
192,192,66290,1,0,0:0:0:0:
320,192,66290,1,0,0:0:0:0:
64,192,66393,1,0,0:0:0:0:
448,192,66393,1,0,0:0:0:0:
64,192,66598,1,0,0:0:0:0:
192,192,66598,1,0,0:0:0:0:
192,192,66803,1,0,0:0:0:0:
448,192,66803,1,0,0:0:0:0:
64,192,67009,1,0,0:0:0:0:
448,192,67009,1,0,0:0:0:0:
192,192,67214,1,0,0:0:0:0:
320,192,67214,1,0,0:0:0:0:
64,192,67420,1,0,0:0:0:0:
192,192,67420,1,0,0:0:0:0:
192,192,67625,1,0,0:0:0:0:
320,192,67625,1,0,0:0:0:0:
64,192,67831,1,0,0:0:0:0:
320,192,67831,1,0,0:0:0:0:
448,192,67831,1,0,0:0:0:0:
448,192,68036,1,0,0:0:0:0:
64,192,68242,1,0,0:0:0:0:
192,192,68242,1,0,0:0:0:0:
448,192,68242,1,0,0:0:0:0:
192,192,68447,1,0,0:0:0:0:
64,192,68653,1,0,0:0:0:0:
192,192,68653,1,0,0:0:0:0:
320,192,68653,1,0,0:0:0:0:
320,192,68858,1,0,0:0:0:0:
448,192,68858,1,0,0:0:0:0:
64,192,69064,1,0,0:0:0:0:
192,192,69064,1,0,0:0:0:0:
448,192,69064,1,0,0:0:0:0:
64,192,69269,1,0,0:0:0:0:
320,192,69269,1,0,0:0:0:0:
192,192,69475,1,0,0:0:0:0:
320,192,69475,1,0,0:0:0:0:
448,192,69475,1,0,0:0:0:0:
192,192,69680,1,0,0:0:0:0:
448,192,69680,1,0,0:0:0:0:
64,192,69886,1,0,0:0:0:0:
320,192,69886,1,0,0:0:0:0:
192,192,70091,1,0,0:0:0:0:
448,192,70091,1,0,0:0:0:0:
64,192,70297,1,0,0:0:0:0:
192,192,70297,1,0,0:0:0:0:
64,192,70502,1,0,0:0:0:0:
448,192,70502,1,0,0:0:0:0:
192,192,70708,1,0,0:0:0:0:
320,192,70708,1,0,0:0:0:0:
192,192,70913,1,0,0:0:0:0:
448,192,70913,1,0,0:0:0:0:
64,192,71119,1,0,0:0:0:0:
320,192,71119,1,0,0:0:0:0:
448,192,71119,1,0,0:0:0:0:
64,192,71324,1,0,0:0:0:0:
192,192,71529,1,0,0:0:0:0:
320,192,71529,1,0,0:0:0:0:
448,192,71529,1,0,0:0:0:0:
192,192,71735,1,0,0:0:0:0:
64,192,71940,1,0,0:0:0:0:
320,192,71940,1,0,0:0:0:0:
448,192,71940,1,0,0:0:0:0:
64,192,72146,1,0,0:0:0:0:
192,192,72146,1,0,0:0:0:0:
64,192,72351,1,0,0:0:0:0:
320,192,72351,1,0,0:0:0:0:
192,192,72557,1,0,0:0:0:0:
320,0,72557,128,0,72762:0:0:0:0:
192,192,72762,1,0,0:0:0:0:
448,192,72762,1,0,0:0:0:0:
64,192,72968,1,0,0:0:0:0:
320,192,72968,1,0,0:0:0:0:
448,0,72968,128,0,73790:0:0:0:0:
64,192,73173,1,0,0:0:0:0:
192,192,73173,1,0,0:0:0:0:
192,192,73379,1,0,0:0:0:0:
320,192,73379,1,0,0:0:0:0:
64,192,73584,1,0,0:0:0:0:
192,192,73584,1,0,0:0:0:0:
64,192,73790,1,0,0:0:0:0:
320,192,73790,1,0,0:0:0:0:
192,192,73995,1,0,0:0:0:0:
320,192,73995,1,0,0:0:0:0:
320,192,74201,1,0,0:0:0:0:
448,192,74201,1,0,0:0:0:0:
64,192,74406,1,0,0:0:0:0:
192,192,74406,1,0,0:0:0:0:
448,192,74406,1,0,0:0:0:0:
64,192,74612,1,0,0:0:0:0:
320,192,74612,1,0,0:0:0:0:
192,192,74817,1,0,0:0:0:0:
320,192,74817,1,0,0:0:0:0:
448,192,74817,1,0,0:0:0:0:
448,192,75023,1,0,0:0:0:0:
64,192,75228,1,0,0:0:0:0:
192,192,75228,1,0,0:0:0:0:
320,192,75228,1,0,0:0:0:0:
320,192,75434,1,0,0:0:0:0:
64,192,75639,1,0,0:0:0:0:
192,192,75639,1,0,0:0:0:0:
448,192,75639,1,0,0:0:0:0:
192,192,75845,1,0,0:0:0:0:
320,192,75845,1,0,0:0:0:0:
64,192,76050,1,0,0:0:0:0:
320,192,76255,1,0,0:0:0:0:
448,0,76255,128,0,76461:0:0:0:0:
64,192,76461,1,0,0:0:0:0:
192,192,76564,1,0,0:0:0:0:
320,192,76666,1,0,0:0:0:0:
448,192,76769,1,0,0:0:0:0:
320,192,76872,1,0,0:0:0:0:
64,192,76974,1,0,0:0:0:0:
320,192,77077,1,0,0:0:0:0:
64,192,77180,1,0,0:0:0:0:
192,192,77283,1,0,0:0:0:0:
320,192,77386,1,0,0:0:0:0:
448,192,77488,1,0,0:0:0:0:
320,192,77591,1,0,0:0:0:0:
192,192,77694,1,0,0:0:0:0:
320,192,77796,1,0,0:0:0:0:
64,192,77899,1,0,0:0:0:0:
192,192,78002,1,0,0:0:0:0:
320,192,78105,1,0,0:0:0:0:
448,192,78207,1,0,0:0:0:0:
320,192,78310,1,0,0:0:0:0:
192,192,78413,1,0,0:0:0:0:
64,192,78516,1,0,0:0:0:0:
448,192,78618,1,0,0:0:0:0:
64,192,78721,1,0,0:0:0:0:
192,192,78824,1,0,0:0:0:0:
320,192,78927,1,0,0:0:0:0:
448,192,79029,1,0,0:0:0:0:
64,192,79132,1,0,0:0:0:0:
192,192,79235,1,0,0:0:0:0:
320,192,79338,1,0,0:0:0:0:
448,192,79440,1,0,0:0:0:0:
64,192,79543,1,0,0:0:0:0:
192,192,79543,1,0,0:0:0:0:
320,192,79543,1,0,0:0:0:0:
320,192,79749,1,0,0:0:0:0:
448,192,79851,1,0,0:0:0:0:
320,192,79954,1,0,0:0:0:0:
192,192,80057,1,0,0:0:0:0:
64,192,80160,1,0,0:0:0:0:
320,192,80262,1,0,0:0:0:0:
192,192,80365,1,0,0:0:0:0:
448,192,80468,1,0,0:0:0:0:
320,192,80570,1,0,0:0:0:0:
192,192,80673,1,0,0:0:0:0:
64,192,80776,1,0,0:0:0:0:
320,192,80879,1,0,0:0:0:0:
192,192,80981,1,0,0:0:0:0:
448,192,81084,1,0,0:0:0:0:
192,192,81187,1,0,0:0:0:0:
320,192,81187,1,0,0:0:0:0:
64,192,81187,1,0,0:0:0:0:
320,192,81392,1,0,0:0:0:0:
448,192,81495,1,0,0:0:0:0:
320,192,81598,1,0,0:0:0:0:
192,192,81701,1,0,0:0:0:0:
64,192,81803,1,0,0:0:0:0:
320,192,81906,1,0,0:0:0:0:
192,192,82009,1,0,0:0:0:0:
64,0,82009,128,0,82214:0:0:0:0:
448,192,82111,1,0,0:0:0:0:
320,192,82214,1,0,0:0:0:0:
192,192,82317,1,0,0:0:0:0:
64,192,82420,1,0,0:0:0:0:
320,192,82420,1,0,0:0:0:0:
448,192,82420,1,0,0:0:0:0:
64,192,82831,1,0,0:0:0:0:
192,192,82831,1,0,0:0:0:0:
320,192,82831,1,0,0:0:0:0:
320,192,83036,1,0,0:0:0:0:
448,192,83139,1,0,0:0:0:0:
320,192,83242,1,0,0:0:0:0:
192,192,83345,1,0,0:0:0:0:
64,192,83447,1,0,0:0:0:0:
320,192,83550,1,0,0:0:0:0:
192,192,83652,1,0,0:0:0:0:
64,192,83755,1,0,0:0:0:0:
448,192,83858,1,0,0:0:0:0:
320,192,83927,1,0,0:0:0:0:
192,192,84063,1,0,0:0:0:0:
64,192,84166,1,0,0:0:0:0:
192,192,84269,1,0,0:0:0:0:
320,192,84372,1,0,0:0:0:0:
448,192,84474,1,0,0:0:0:0:
64,192,84474,1,0,0:0:0:0:
320,192,84577,1,0,0:0:0:0:
192,192,84577,1,0,0:0:0:0:
64,192,84680,1,0,0:0:0:0:
448,192,84680,1,0,0:0:0:0:
192,192,84783,1,0,0:0:0:0:
320,192,84783,1,0,0:0:0:0:
448,192,84885,1,0,0:0:0:0:
64,192,84886,1,0,0:0:0:0:
192,192,84988,1,0,0:0:0:0:
320,192,85091,1,0,0:0:0:0:
448,192,85194,1,0,0:0:0:0:
192,192,85296,1,0,0:0:0:0:
64,192,85296,1,0,0:0:0:0:
448,192,85399,1,0,0:0:0:0:
320,192,85399,1,0,0:0:0:0:
64,192,85502,1,0,0:0:0:0:
192,192,85502,1,0,0:0:0:0:
448,192,85605,1,0,0:0:0:0:
320,192,85605,1,0,0:0:0:0:
64,192,85707,1,0,0:0:0:0:
192,192,85707,1,0,0:0:0:0:
320,192,85810,1,0,0:0:0:0:
448,192,85810,1,0,0:0:0:0:
64,192,85913,1,0,0:0:0:0:
192,192,85913,1,0,0:0:0:0:
320,192,86015,1,0,0:0:0:0:
448,192,86015,1,0,0:0:0:0:
64,192,86118,1,0,0:0:0:0:
448,192,86118,1,0,0:0:0:0:
320,192,86187,1,0,0:0:0:0:
192,192,86255,1,0,0:0:0:0:
64,192,86324,1,0,0:0:0:0:
448,192,86392,1,0,0:0:0:0:
320,192,86461,1,0,0:0:0:0:
64,192,86529,1,0,0:0:0:0:
192,192,86598,1,0,0:0:0:0:
448,192,86666,1,0,0:0:0:0:
64,192,86735,1,0,0:0:0:0:
320,192,86735,1,0,0:0:0:0:
192,192,86803,1,0,0:0:0:0:
64,192,86872,1,0,0:0:0:0:
448,192,86940,1,0,0:0:0:0:
320,192,87043,1,0,0:0:0:0:
192,192,87146,1,0,0:0:0:0:
320,192,87248,1,0,0:0:0:0:
64,192,87351,1,0,0:0:0:0:
192,192,87454,1,0,0:0:0:0:
448,192,87557,1,0,0:0:0:0:
320,192,87557,1,0,0:0:0:0:
192,192,87659,1,0,0:0:0:0:
64,0,87762,128,0,87814:0:0:0:0:
320,0,87762,128,0,87813:0:0:0:0:
448,0,87762,128,0,87814:0:0:0:0:
64,192,88173,1,0,0:0:0:0:
320,192,88379,1,0,0:0:0:0:
448,192,88379,1,0,0:0:0:0:
64,192,88584,1,0,0:0:0:0:
320,192,88995,1,0,0:0:0:0:
64,192,88995,1,0,0:0:0:0:
192,192,89046,1,0,0:0:0:0:
448,192,89098,1,0,0:0:0:0:
320,192,89149,1,0,0:0:0:0:
64,192,89200,1,0,0:0:0:0:
192,192,89252,1,0,0:0:0:0:
320,192,89303,1,0,0:0:0:0:
448,192,89303,1,0,0:0:0:0:
64,192,89355,1,0,0:0:0:0:
192,192,89406,1,0,0:0:0:0:
192,192,89612,1,0,0:0:0:0:
320,192,89612,1,0,0:0:0:0:
64,192,89817,1,0,0:0:0:0:
320,192,89920,1,0,0:0:0:0:
448,192,89920,1,0,0:0:0:0:
192,192,90023,1,0,0:0:0:0:
64,192,90228,1,0,0:0:0:0:
448,192,90228,1,0,0:0:0:0:
320,192,90331,1,0,0:0:0:0:
192,192,90434,1,0,0:0:0:0:
448,192,90536,1,0,0:0:0:0:
64,192,90536,1,0,0:0:0:0:
320,192,90639,1,0,0:0:0:0:
192,192,90742,1,0,0:0:0:0:
320,192,90844,1,0,0:0:0:0:
448,192,90844,1,0,0:0:0:0:
192,192,90947,1,0,0:0:0:0:
64,192,91050,1,0,0:0:0:0:
320,192,91050,1,0,0:0:0:0:
448,0,91050,128,0,91101:0:0:0:0:
192,192,91358,1,0,0:0:0:0:
64,192,91461,1,0,0:0:0:0:
448,192,91461,1,0,0:0:0:0:
192,192,91564,1,0,0:0:0:0:
64,192,91666,1,0,0:0:0:0:
448,192,91666,1,0,0:0:0:0:
192,192,91975,1,0,0:0:0:0:
320,192,92077,1,0,0:0:0:0:
320,192,92180,1,0,0:0:0:0:
64,192,92283,1,0,0:0:0:0:
448,192,92283,1,0,0:0:0:0:
64,192,92591,1,0,0:0:0:0:
448,192,92591,1,0,0:0:0:0:
192,192,92694,1,0,0:0:0:0:
192,192,92797,1,0,0:0:0:0:
64,192,92899,1,0,0:0:0:0:
448,192,92899,1,0,0:0:0:0:
192,192,93105,1,0,0:0:0:0:
64,0,93105,128,0,93207:0:0:0:0:
320,192,93207,1,0,0:0:0:0:
448,192,93310,1,0,0:0:0:0:
64,192,93516,1,0,0:0:0:0:
448,192,93516,1,0,0:0:0:0:
320,192,93618,1,0,0:0:0:0:
192,192,93721,1,0,0:0:0:0:
64,192,93824,1,0,0:0:0:0:
448,192,93824,1,0,0:0:0:0:
192,192,93927,1,0,0:0:0:0:
448,192,94029,1,0,0:0:0:0:
64,192,94132,1,0,0:0:0:0:
320,192,94132,1,0,0:0:0:0:
192,192,94235,1,0,0:0:0:0:
64,192,94338,1,0,0:0:0:0:
320,192,94338,1,0,0:0:0:0:
448,0,94338,128,0,94389:0:0:0:0:
192,192,94543,1,0,0:0:0:0:
320,192,94646,1,0,0:0:0:0:
192,192,94749,1,0,0:0:0:0:
64,192,94954,1,0,0:0:0:0:
448,192,94954,1,0,0:0:0:0:
320,192,95160,1,0,0:0:0:0:
192,192,95262,1,0,0:0:0:0:
320,192,95365,1,0,0:0:0:0:
64,192,95468,1,0,0:0:0:0:
320,192,95570,1,0,0:0:0:0:
448,192,95570,1,0,0:0:0:0:
192,192,95879,1,0,0:0:0:0:
320,192,95879,1,0,0:0:0:0:
448,192,95981,1,0,0:0:0:0:
64,192,96187,1,0,0:0:0:0:
192,192,96187,1,0,0:0:0:0:
64,192,96495,1,0,0:0:0:0:
192,192,96495,1,0,0:0:0:0:
320,192,96598,1,0,0:0:0:0:
320,192,96803,1,0,0:0:0:0:
448,192,96803,1,0,0:0:0:0:
192,192,96906,1,0,0:0:0:0:
64,192,97009,1,0,0:0:0:0:
192,192,97112,1,0,0:0:0:0:
320,192,97214,1,0,0:0:0:0:
192,192,97317,1,0,0:0:0:0:
64,192,97420,1,0,0:0:0:0:
192,192,97523,1,0,0:0:0:0:
448,192,97625,1,0,0:0:0:0:
192,192,97728,1,0,0:0:0:0:
64,192,97831,1,0,0:0:0:0:
192,192,97934,1,0,0:0:0:0:
320,192,98036,1,0,0:0:0:0:
192,192,98139,1,0,0:0:0:0:
64,192,98242,1,0,0:0:0:0:
192,192,98345,1,0,0:0:0:0:
448,192,98447,1,0,0:0:0:0:
320,192,99269,1,0,0:0:0:0:
320,192,99475,1,0,0:0:0:0:
320,192,99680,1,0,0:0:0:0:
64,0,99680,128,0,100091:0:0:0:0:
320,192,99886,1,0,0:0:0:0:
320,192,100091,1,0,0:0:0:0:
192,0,100091,128,0,100708:0:0:0:0:
320,192,100297,1,0,0:0:0:0:
320,192,100502,1,0,0:0:0:0:
320,192,100708,1,0,0:0:0:0:
64,0,100708,128,0,100913:0:0:0:0:
320,192,100913,1,0,0:0:0:0:
192,0,100913,128,0,102351:0:0:0:0:
320,192,101119,1,0,0:0:0:0:
320,192,101324,1,0,0:0:0:0:
320,192,101529,1,0,0:0:0:0:
320,192,101735,1,0,0:0:0:0:
320,192,101940,1,0,0:0:0:0:
320,192,102146,1,0,0:0:0:0:
320,192,102351,1,0,0:0:0:0:
64,0,102351,128,0,102557:0:0:0:0:
192,192,102557,1,0,0:0:0:0:
448,0,102557,128,0,105434:0:0:0:0:
192,192,102762,1,0,0:0:0:0:
192,192,102968,1,0,0:0:0:0:
192,192,103173,1,0,0:0:0:0:
192,192,103379,1,0,0:0:0:0:
192,192,103584,1,0,0:0:0:0:
192,192,103790,1,0,0:0:0:0:
192,192,103995,1,0,0:0:0:0:
192,192,104201,1,0,0:0:0:0:
192,192,104406,1,0,0:0:0:0:
192,192,104612,1,0,0:0:0:0:
192,192,104817,1,0,0:0:0:0:
192,192,105023,1,0,0:0:0:0:
192,192,105228,1,0,0:0:0:0:
192,192,105434,1,0,0:0:0:0:
192,192,105639,1,0,0:0:0:0:
64,192,105844,1,0,0:0:0:0:
320,192,105845,1,0,0:0:0:0:
448,0,105845,128,0,106256:0:0:0:0:
320,192,106050,1,0,0:0:0:0:
320,192,106256,1,0,0:0:0:0:
320,192,106461,1,0,0:0:0:0:
448,0,106461,128,0,106564:0:0:0:0:
192,0,106564,128,0,106667:0:0:0:0:
320,192,106667,1,0,0:0:0:0:
64,0,106667,128,0,107283:0:0:0:0:
320,192,106872,1,0,0:0:0:0:
320,192,107078,1,0,0:0:0:0:
448,192,107078,1,0,0:0:0:0:
320,192,107283,1,0,0:0:0:0:
448,0,107283,128,0,107386:0:0:0:0:
192,0,107386,128,0,107488:0:0:0:0:
320,192,107488,1,0,0:0:0:0:
64,0,107488,128,0,108105:0:0:0:0:
320,192,107694,1,0,0:0:0:0:
320,192,107899,1,0,0:0:0:0:
320,192,108105,1,0,0:0:0:0:
448,0,108105,128,0,108208:0:0:0:0:
192,0,108208,128,0,108310:0:0:0:0:
320,192,108310,1,0,0:0:0:0:
64,0,108310,128,0,108927:0:0:0:0:
320,192,108516,1,0,0:0:0:0:
320,192,108721,1,0,0:0:0:0:
320,192,108927,1,0,0:0:0:0:
448,0,108927,128,0,109030:0:0:0:0:
192,0,109030,128,0,109132:0:0:0:0:
448,192,109132,1,0,0:0:0:0:
64,0,109132,128,0,112009:0:0:0:0:
320,192,109132,1,0,0:0:0:0:
448,192,109338,1,0,0:0:0:0:
448,192,109543,1,0,0:0:0:0:
320,192,109749,1,0,0:0:0:0:
448,192,109749,1,0,0:0:0:0:
448,192,109954,1,0,0:0:0:0:
448,192,110160,1,0,0:0:0:0:
448,192,110365,1,0,0:0:0:0:
448,192,110571,1,0,0:0:0:0:
448,192,110776,1,0,0:0:0:0:
192,0,110776,128,0,112420:0:0:0:0:
448,192,110982,1,0,0:0:0:0:
448,192,111187,1,0,0:0:0:0:
448,192,111393,1,0,0:0:0:0:
448,192,111598,1,0,0:0:0:0:
448,192,111804,1,0,0:0:0:0:
448,192,112009,1,0,0:0:0:0:
448,192,112215,1,0,0:0:0:0:
64,192,112420,1,0,0:0:0:0:
320,192,112420,1,0,0:0:0:0:
448,192,112420,1,0,0:0:0:0:
192,192,112626,1,0,0:0:0:0:
192,192,112831,1,0,0:0:0:0:
64,192,113036,1,0,0:0:0:0:
192,192,113036,1,0,0:0:0:0:
448,192,113036,1,0,0:0:0:0:
320,192,113242,1,0,0:0:0:0:
320,192,113447,1,0,0:0:0:0:
64,192,113653,1,0,0:0:0:0:
320,192,113653,1,0,0:0:0:0:
448,192,113653,1,0,0:0:0:0:
192,192,113858,1,0,0:0:0:0:
448,192,114064,1,0,0:0:0:0:
64,192,114269,1,0,0:0:0:0:
192,192,114269,1,0,0:0:0:0:
320,192,114269,1,0,0:0:0:0:
320,192,114475,1,0,0:0:0:0:
64,192,114680,1,0,0:0:0:0:
192,192,114680,1,0,0:0:0:0:
64,192,114886,1,0,0:0:0:0:
192,192,114886,1,0,0:0:0:0:
64,192,115091,1,0,0:0:0:0:
448,192,115296,1,0,0:0:0:0:
64,192,115297,1,0,0:0:0:0:
192,192,115400,1,0,0:0:0:0:
320,192,115502,1,0,0:0:0:0:
448,192,115605,1,0,0:0:0:0:
64,192,115708,1,0,0:0:0:0:
192,192,115708,1,0,0:0:0:0:
320,192,115708,1,0,0:0:0:0:
448,192,115913,1,0,0:0:0:0:
192,192,116119,1,0,0:0:0:0:
64,192,116324,1,0,0:0:0:0:
192,192,116324,1,0,0:0:0:0:
448,192,116324,1,0,0:0:0:0:
320,192,116530,1,0,0:0:0:0:
64,192,116735,1,0,0:0:0:0:
192,192,116735,1,0,0:0:0:0:
192,192,116941,1,0,0:0:0:0:
320,192,116941,1,0,0:0:0:0:
448,0,116941,128,0,117043:0:0:0:0:
64,192,117146,1,0,0:0:0:0:
192,192,117352,1,0,0:0:0:0:
64,192,117557,1,0,0:0:0:0:
192,192,117557,1,0,0:0:0:0:
448,192,117557,1,0,0:0:0:0:
320,192,117763,1,0,0:0:0:0:
64,192,117968,1,0,0:0:0:0:
192,192,117968,1,0,0:0:0:0:
320,192,118105,1,0,0:0:0:0:
64,192,118173,1,0,0:0:0:0:
192,192,118173,1,0,0:0:0:0:
448,192,118276,1,0,0:0:0:0:
64,192,118379,1,0,0:0:0:0:
192,192,118447,1,0,0:0:0:0:
320,192,118533,1,0,0:0:0:0:
64,192,118584,1,0,0:0:0:0:
448,192,118584,1,0,0:0:0:0:
192,192,118687,1,0,0:0:0:0:
320,192,118790,1,0,0:0:0:0:
448,192,118893,1,0,0:0:0:0:
64,192,118995,1,0,0:0:0:0:
192,192,118995,1,0,0:0:0:0:
320,192,118995,1,0,0:0:0:0:
448,192,119098,1,0,0:0:0:0:
320,192,119201,1,0,0:0:0:0:
192,192,119269,1,0,0:0:0:0:
64,192,119406,1,0,0:0:0:0:
448,192,119406,1,0,0:0:0:0:
320,192,119457,1,0,0:0:0:0:
192,192,119543,1,0,0:0:0:0:
320,192,119611,1,0,0:0:0:0:
64,192,119612,1,0,0:0:0:0:
448,192,119612,1,0,0:0:0:0:
192,192,119680,1,0,0:0:0:0:
320,192,119749,1,0,0:0:0:0:
64,192,119817,1,0,0:0:0:0:
448,192,119817,1,0,0:0:0:0:
192,192,119885,1,0,0:0:0:0:
320,192,119954,1,0,0:0:0:0:
192,192,120023,1,0,0:0:0:0:
64,192,120091,1,0,0:0:0:0:
448,192,120177,1,0,0:0:0:0:
192,192,120228,1,0,0:0:0:0:
320,192,120228,1,0,0:0:0:0:
64,192,120228,1,0,0:0:0:0:
448,192,120331,1,0,0:0:0:0:
320,192,120400,1,0,0:0:0:0:
192,192,120433,1,0,0:0:0:0:
64,192,120468,1,0,0:0:0:0:
448,192,120536,1,0,0:0:0:0:
320,192,120605,1,0,0:0:0:0:
64,192,120639,1,0,0:0:0:0:
192,192,120639,1,0,0:0:0:0:
448,192,120716,1,0,0:0:0:0:
64,192,120844,1,0,0:0:0:0:
320,192,120844,1,0,0:0:0:0:
192,192,120844,1,0,0:0:0:0:
192,192,121050,1,0,0:0:0:0:
320,192,121255,1,0,0:0:0:0:
64,192,121256,1,0,0:0:0:0:
64,192,121461,1,0,0:0:0:0:
320,192,121461,1,0,0:0:0:0:
448,192,121564,1,0,0:0:0:0:
64,192,121667,1,0,0:0:0:0:
64,192,121872,1,0,0:0:0:0:
448,192,121872,1,0,0:0:0:0:
320,0,121872,128,0,122078:0:0:0:0:
192,192,122078,1,0,0:0:0:0:
320,192,122215,1,0,0:0:0:0:
64,192,122283,1,0,0:0:0:0:
192,192,122283,1,0,0:0:0:0:
448,0,122283,128,0,122386:0:0:0:0:
192,192,122489,1,0,0:0:0:0:
320,192,122489,1,0,0:0:0:0:
64,192,122694,1,0,0:0:0:0:
320,192,122694,1,0,0:0:0:0:
192,192,122900,1,0,0:0:0:0:
320,192,122900,1,0,0:0:0:0:
64,0,122900,128,0,123105:0:0:0:0:
192,192,123105,1,0,0:0:0:0:
320,192,123105,1,0,0:0:0:0:
448,192,123208,1,0,0:0:0:0:
192,192,123311,1,0,0:0:0:0:
320,192,123311,1,0,0:0:0:0:
64,192,123516,1,0,0:0:0:0:
320,192,123516,1,0,0:0:0:0:
448,192,123516,1,0,0:0:0:0:
64,192,123721,1,0,0:0:0:0:
320,192,123824,1,0,0:0:0:0:
192,192,123926,1,0,0:0:0:0:
64,192,123927,1,0,0:0:0:0:
448,192,124029,1,0,0:0:0:0:
192,192,124132,1,0,0:0:0:0:
320,192,124132,1,0,0:0:0:0:
448,192,124235,1,0,0:0:0:0:
320,192,124337,1,0,0:0:0:0:
64,192,124338,1,0,0:0:0:0:
448,192,124440,1,0,0:0:0:0:
64,192,124543,1,0,0:0:0:0:
192,192,124543,1,0,0:0:0:0:
320,192,124543,1,0,0:0:0:0:
448,192,124646,1,0,0:0:0:0:
320,192,124748,1,0,0:0:0:0:
192,192,124749,1,0,0:0:0:0:
448,192,124851,1,0,0:0:0:0:
64,192,124954,1,0,0:0:0:0:
192,192,124954,1,0,0:0:0:0:
320,192,124954,1,0,0:0:0:0:
448,192,125057,1,0,0:0:0:0:
320,192,125159,1,0,0:0:0:0:
192,192,125160,1,0,0:0:0:0:
448,192,125262,1,0,0:0:0:0:
320,192,125365,1,0,0:0:0:0:
192,192,125468,1,0,0:0:0:0:
320,192,125570,1,0,0:0:0:0:
64,192,125571,1,0,0:0:0:0:
448,0,125571,128,0,125674:0:0:0:0:
192,192,125673,1,0,0:0:0:0:
320,192,125776,1,0,0:0:0:0:
64,192,125878,1,0,0:0:0:0:
192,192,125981,1,0,0:0:0:0:
448,192,125982,1,0,0:0:0:0:
320,192,126084,1,0,0:0:0:0:
64,192,126187,1,0,0:0:0:0:
448,192,126187,1,0,0:0:0:0:
320,192,126290,1,0,0:0:0:0:
192,192,126393,1,0,0:0:0:0:
64,192,126495,1,0,0:0:0:0:
320,192,126598,1,0,0:0:0:0:
448,192,126598,1,0,0:0:0:0:
192,192,126701,1,0,0:0:0:0:
64,192,126804,1,0,0:0:0:0:
448,192,126804,1,0,0:0:0:0:
192,192,126906,1,0,0:0:0:0:
64,192,127009,1,0,0:0:0:0:
320,192,127009,1,0,0:0:0:0:
448,192,127112,1,0,0:0:0:0:
192,192,127215,1,0,0:0:0:0:
320,192,127317,1,0,0:0:0:0:
64,192,127420,1,0,0:0:0:0:
448,192,127420,1,0,0:0:0:0:
192,192,127523,1,0,0:0:0:0:
320,192,127626,1,0,0:0:0:0:
448,192,127626,1,0,0:0:0:0:
64,192,127728,1,0,0:0:0:0:
192,192,127831,1,0,0:0:0:0:
320,192,127831,1,0,0:0:0:0:
448,192,127934,1,0,0:0:0:0:
64,192,128037,1,0,0:0:0:0:
320,192,128139,1,0,0:0:0:0:
64,192,128242,1,0,0:0:0:0:
192,192,128242,1,0,0:0:0:0:
320,192,128345,1,0,0:0:0:0:
192,192,128448,1,0,0:0:0:0:
448,192,128448,1,0,0:0:0:0:
64,192,128550,1,0,0:0:0:0:
320,192,128653,1,0,0:0:0:0:
192,192,128756,1,0,0:0:0:0:
64,192,128858,1,0,0:0:0:0:
448,192,128858,1,0,0:0:0:0:
192,192,128961,1,0,0:0:0:0:
320,192,129064,1,0,0:0:0:0:
448,192,129167,1,0,0:0:0:0:
64,192,129269,1,0,0:0:0:0:
192,192,129269,1,0,0:0:0:0:
320,192,129372,1,0,0:0:0:0:
64,192,129475,1,0,0:0:0:0:
448,192,129475,1,0,0:0:0:0:
320,192,129578,1,0,0:0:0:0:
192,192,129680,1,0,0:0:0:0:
448,192,129783,1,0,0:0:0:0:
64,192,129886,1,0,0:0:0:0:
320,192,129886,1,0,0:0:0:0:
192,192,129989,1,0,0:0:0:0:
64,192,130091,1,0,0:0:0:0:
448,192,130091,1,0,0:0:0:0:
320,192,130194,1,0,0:0:0:0:
192,192,130297,1,0,0:0:0:0:
448,192,130297,1,0,0:0:0:0:
64,192,130400,1,0,0:0:0:0:
320,192,130502,1,0,0:0:0:0:
192,192,130605,1,0,0:0:0:0:
320,192,130708,1,0,0:0:0:0:
448,192,130708,1,0,0:0:0:0:
192,192,130811,1,0,0:0:0:0:
64,192,130913,1,0,0:0:0:0:
448,0,130913,128,0,131941:0:0:0:0:
320,192,131016,1,0,0:0:0:0:
64,192,131119,1,0,0:0:0:0:
192,192,131119,1,0,0:0:0:0:
320,192,131222,1,0,0:0:0:0:
64,192,131324,1,0,0:0:0:0:
192,192,131427,1,0,0:0:0:0:
320,192,131530,1,0,0:0:0:0:
192,192,131633,1,0,0:0:0:0:
64,192,131735,1,0,0:0:0:0:
320,192,131838,1,0,0:0:0:0:
64,192,131941,1,0,0:0:0:0:
192,192,132043,1,0,0:0:0:0:
64,192,132146,1,0,0:0:0:0:
320,192,132146,1,0,0:0:0:0:
448,192,132146,1,0,0:0:0:0:
192,192,132249,1,0,0:0:0:0:
320,192,132352,1,0,0:0:0:0:
448,192,132454,1,0,0:0:0:0:
64,192,132557,1,0,0:0:0:0:
192,192,132557,1,0,0:0:0:0:
320,192,132660,1,0,0:0:0:0:
64,192,132763,1,0,0:0:0:0:
448,192,132763,1,0,0:0:0:0:
192,192,132865,1,0,0:0:0:0:
320,192,132968,1,0,0:0:0:0:
448,192,133071,1,0,0:0:0:0:
64,192,133174,1,0,0:0:0:0:
192,192,133174,1,0,0:0:0:0:
320,192,133276,1,0,0:0:0:0:
192,192,133379,1,0,0:0:0:0:
448,192,133379,1,0,0:0:0:0:
64,192,133482,1,0,0:0:0:0:
320,192,133585,1,0,0:0:0:0:
448,192,133585,1,0,0:0:0:0:
192,192,133687,1,0,0:0:0:0:
64,192,133790,1,0,0:0:0:0:
448,192,133893,1,0,0:0:0:0:
64,192,133996,1,0,0:0:0:0:
192,192,133996,1,0,0:0:0:0:
320,192,134098,1,0,0:0:0:0:
192,192,134201,1,0,0:0:0:0:
448,192,134201,1,0,0:0:0:0:
64,192,134304,1,0,0:0:0:0:
320,192,134407,1,0,0:0:0:0:
448,192,134407,1,0,0:0:0:0:
192,192,134509,1,0,0:0:0:0:
64,192,134612,1,0,0:0:0:0:
320,192,134715,1,0,0:0:0:0:
192,192,134817,1,0,0:0:0:0:
448,192,134817,1,0,0:0:0:0:
64,192,134920,1,0,0:0:0:0:
320,192,135023,1,0,0:0:0:0:
448,192,135023,1,0,0:0:0:0:
192,192,135126,1,0,0:0:0:0:
64,192,135228,1,0,0:0:0:0:
320,192,135228,1,0,0:0:0:0:
448,192,135331,1,0,0:0:0:0:
64,192,135434,1,0,0:0:0:0:
192,192,135537,1,0,0:0:0:0:
320,192,135639,1,0,0:0:0:0:
448,192,135639,1,0,0:0:0:0:
64,192,135742,1,0,0:0:0:0:
192,192,135845,1,0,0:0:0:0:
320,192,135845,1,0,0:0:0:0:
448,192,135948,1,0,0:0:0:0:
64,192,136050,1,0,0:0:0:0:
192,192,136050,1,0,0:0:0:0:
320,192,136153,1,0,0:0:0:0:
64,192,136256,1,0,0:0:0:0:
192,192,136359,1,0,0:0:0:0:
320,192,136461,1,0,0:0:0:0:
448,192,136461,1,0,0:0:0:0:
192,192,136564,1,0,0:0:0:0:
64,192,136667,1,0,0:0:0:0:
448,192,136667,1,0,0:0:0:0:
320,192,136770,1,0,0:0:0:0:
64,192,136872,1,0,0:0:0:0:
192,192,136872,1,0,0:0:0:0:
448,192,136975,1,0,0:0:0:0:
192,192,137078,1,0,0:0:0:0:
320,192,137181,1,0,0:0:0:0:
64,192,137283,1,0,0:0:0:0:
448,192,137283,1,0,0:0:0:0:
192,192,137386,1,0,0:0:0:0:
320,192,137489,1,0,0:0:0:0:
448,192,137489,1,0,0:0:0:0:
192,192,137592,1,0,0:0:0:0:
64,192,137694,1,0,0:0:0:0:
320,192,137694,1,0,0:0:0:0:
448,192,137797,1,0,0:0:0:0:
64,192,137900,1,0,0:0:0:0:
448,192,138002,1,0,0:0:0:0:
64,192,138105,1,0,0:0:0:0:
192,192,138208,1,0,0:0:0:0:
64,192,138311,1,0,0:0:0:0:
320,192,138311,1,0,0:0:0:0:
448,192,138413,1,0,0:0:0:0:
64,192,138516,1,0,0:0:0:0:
192,192,138619,1,0,0:0:0:0:
64,192,138722,1,0,0:0:0:0:
320,192,138722,1,0,0:0:0:0:
448,192,138722,1,0,0:0:0:0:
192,192,138824,1,0,0:0:0:0:
320,192,138927,1,0,0:0:0:0:
448,192,139030,1,0,0:0:0:0:
64,192,139133,1,0,0:0:0:0:
192,192,139133,1,0,0:0:0:0:
320,192,139235,1,0,0:0:0:0:
64,192,139338,1,0,0:0:0:0:
448,192,139338,1,0,0:0:0:0:
320,192,139441,1,0,0:0:0:0:
64,192,139543,1,0,0:0:0:0:
192,192,139544,1,0,0:0:0:0:
448,192,139646,1,0,0:0:0:0:
320,192,139748,1,0,0:0:0:0:
192,192,139851,1,0,0:0:0:0:
448,192,139954,1,0,0:0:0:0:
64,192,139955,1,0,0:0:0:0:
320,192,140057,1,0,0:0:0:0:
64,192,140160,1,0,0:0:0:0:
192,192,140263,1,0,0:0:0:0:
448,192,140365,1,0,0:0:0:0:
320,192,140366,1,0,0:0:0:0:
192,192,140468,1,0,0:0:0:0:
64,192,140571,1,0,0:0:0:0:
448,192,140571,1,0,0:0:0:0:
320,192,140674,1,0,0:0:0:0:
64,192,140776,1,0,0:0:0:0:
192,192,140776,1,0,0:0:0:0:
320,192,140879,1,0,0:0:0:0:
192,192,140982,1,0,0:0:0:0:
448,192,141085,1,0,0:0:0:0:
64,192,141187,1,0,0:0:0:0:
320,192,141187,1,0,0:0:0:0:
192,192,141290,1,0,0:0:0:0:
320,192,141393,1,0,0:0:0:0:
448,192,141393,1,0,0:0:0:0:
192,192,141496,1,0,0:0:0:0:
448,192,141598,1,0,0:0:0:0:
64,0,141598,128,0,141650:0:0:0:0:
320,192,141701,1,0,0:0:0:0:
192,192,141804,1,0,0:0:0:0:
64,192,141907,1,0,0:0:0:0:
320,192,142009,1,0,0:0:0:0:
448,192,142009,1,0,0:0:0:0:
64,192,142112,1,0,0:0:0:0:
192,192,142215,1,0,0:0:0:0:
320,192,142318,1,0,0:0:0:0:
64,192,142420,1,0,0:0:0:0:
448,192,142420,1,0,0:0:0:0:
192,192,142523,1,0,0:0:0:0:
320,192,142626,1,0,0:0:0:0:
448,192,142626,1,0,0:0:0:0:
64,192,142729,1,0,0:0:0:0:
448,192,142831,1,0,0:0:0:0:
192,192,142831,1,0,0:0:0:0:
64,192,142933,1,0,0:0:0:0:
320,192,143036,1,0,0:0:0:0:
192,192,143139,1,0,0:0:0:0:
320,192,143242,1,0,0:0:0:0:
448,192,143242,1,0,0:0:0:0:
64,192,143344,1,0,0:0:0:0:
192,192,143447,1,0,0:0:0:0:
320,192,143550,1,0,0:0:0:0:
64,192,143652,1,0,0:0:0:0:
448,192,143653,1,0,0:0:0:0:
320,192,143755,1,0,0:0:0:0:
192,192,143858,1,0,0:0:0:0:
64,192,143859,1,0,0:0:0:0:
448,192,143961,1,0,0:0:0:0:
320,192,144063,1,0,0:0:0:0:
64,192,144063,1,0,0:0:0:0:
192,192,144166,1,0,0:0:0:0:
320,192,144269,1,0,0:0:0:0:
448,192,144372,1,0,0:0:0:0:
64,192,144474,1,0,0:0:0:0:
192,192,144474,1,0,0:0:0:0:
320,192,144577,1,0,0:0:0:0:
192,192,144681,1,0,0:0:0:0:
320,192,144783,1,0,0:0:0:0:
64,192,144886,1,0,0:0:0:0:
448,192,144886,1,0,0:0:0:0:
320,192,144989,1,0,0:0:0:0:
192,192,145092,1,0,0:0:0:0:
64,192,145194,1,0,0:0:0:0:
192,192,145297,1,0,0:0:0:0:
320,192,145297,1,0,0:0:0:0:
448,192,145297,1,0,0:0:0:0:
64,192,145400,1,0,0:0:0:0:
320,192,145503,1,0,0:0:0:0:
192,192,145605,1,0,0:0:0:0:
64,192,145708,1,0,0:0:0:0:
448,192,145708,1,0,0:0:0:0:
320,192,145811,1,0,0:0:0:0:
64,192,145914,1,0,0:0:0:0:
192,192,145914,1,0,0:0:0:0:
320,192,146015,1,0,0:0:0:0:
64,192,146118,1,0,0:0:0:0:
448,192,146118,1,0,0:0:0:0:
320,192,146222,1,0,0:0:0:0:
192,192,146324,1,0,0:0:0:0:
64,192,146426,1,0,0:0:0:0:
320,192,146530,1,0,0:0:0:0:
448,192,146530,1,0,0:0:0:0:
64,192,146633,1,0,0:0:0:0:
448,192,146735,1,0,0:0:0:0:
320,192,146838,1,0,0:0:0:0:
64,192,146940,1,0,0:0:0:0:
192,192,146941,1,0,0:0:0:0:
320,192,147044,1,0,0:0:0:0:
64,192,147146,1,0,0:0:0:0:
448,192,147146,1,0,0:0:0:0:
192,192,147249,1,0,0:0:0:0:
320,192,147352,1,0,0:0:0:0:
448,192,147352,1,0,0:0:0:0:
192,192,147455,1,0,0:0:0:0:
64,192,147557,1,0,0:0:0:0:
320,192,147659,1,0,0:0:0:0:
448,192,147762,1,0,0:0:0:0:
64,192,147763,1,0,0:0:0:0:
192,192,147763,1,0,0:0:0:0:
320,192,147865,1,0,0:0:0:0:
64,192,147968,1,0,0:0:0:0:
192,192,148071,1,0,0:0:0:0:
320,192,148173,1,0,0:0:0:0:
64,192,148174,1,0,0:0:0:0:
448,192,148174,1,0,0:0:0:0:
192,192,148276,1,0,0:0:0:0:
448,192,148378,1,0,0:0:0:0:
320,192,148482,1,0,0:0:0:0:
192,192,148584,1,0,0:0:0:0:
64,192,148585,1,0,0:0:0:0:
448,192,148585,1,0,0:0:0:0:
320,192,148688,1,0,0:0:0:0:
64,192,148790,1,0,0:0:0:0:
192,192,148893,1,0,0:0:0:0:
320,192,148996,1,0,0:0:0:0:
448,192,148996,1,0,0:0:0:0:
64,192,149099,1,0,0:0:0:0:
192,192,149201,1,0,0:0:0:0:
320,192,149304,1,0,0:0:0:0:
192,192,149407,1,0,0:0:0:0:
448,192,149407,1,0,0:0:0:0:
64,192,149509,1,0,0:0:0:0:
320,192,149612,1,0,0:0:0:0:
192,192,149715,1,0,0:0:0:0:
320,192,149818,1,0,0:0:0:0:
448,192,149818,1,0,0:0:0:0:
64,192,149920,1,0,0:0:0:0:
192,192,150023,1,0,0:0:0:0:
320,192,150126,1,0,0:0:0:0:
64,192,150229,1,0,0:0:0:0:
448,192,150229,1,0,0:0:0:0:
192,192,150331,1,0,0:0:0:0:
320,192,150434,1,0,0:0:0:0:
192,192,150536,1,0,0:0:0:0:
320,192,150640,1,0,0:0:0:0:
448,192,150640,1,0,0:0:0:0:
64,192,150742,1,0,0:0:0:0:
192,192,150742,1,0,0:0:0:0:
320,192,150844,1,0,0:0:0:0:
448,192,150845,1,0,0:0:0:0:
64,192,150947,1,0,0:0:0:0:
192,192,150948,1,0,0:0:0:0:
320,192,151050,1,0,0:0:0:0:
448,192,151050,1,0,0:0:0:0:
192,192,151152,1,0,0:0:0:0:
64,192,151153,1,0,0:0:0:0:
448,192,151255,1,0,0:0:0:0:
320,192,151256,1,0,0:0:0:0:
64,192,151358,1,0,0:0:0:0:
192,192,151358,1,0,0:0:0:0:
320,192,151461,1,0,0:0:0:0:
448,192,151462,1,0,0:0:0:0:
64,192,151563,1,0,0:0:0:0:
192,192,151563,1,0,0:0:0:0:
448,192,151666,1,0,0:0:0:0:
320,192,151667,1,0,0:0:0:0:
64,192,151770,1,0,0:0:0:0:
192,192,151770,1,0,0:0:0:0:
320,192,151873,1,0,0:0:0:0:
448,0,151873,128,0,153051:0:0:0:0:
64,0,153254,128,0,153458:0:0:0:0:
64,0,153662,128,0,154430:0:0:0:0:
448,0,154685,128,0,155106:0:0:0:0:
192,0,155106,128,0,155625:0:0:0:0:
448,192,155560,1,0,0:0:0:0:
320,0,155625,128,0,157694:0:0:0:0:
192,192,156004,1,0,0:0:0:0:
64,192,156382,1,0,0:0:0:0:
192,192,156900,1,0,0:0:0:0:
448,192,157360,1,0,0:0:0:0:
64,0,157895,128,0,160020:0:0:0:0:
64,192,161638,1,0,0:0:0:0:
192,0,161638,128,0,161781:0:0:0:0:
192,192,161924,1,0,0:0:0:0:
320,0,161924,128,0,162067:0:0:0:0:
64,192,162066,1,0,0:0:0:0:
192,192,162209,1,0,0:0:0:0:
320,192,162505,1,0,0:0:0:0:
192,192,163059,1,0,0:0:0:0:
64,192,163244,1,0,0:0:0:0:
320,192,163392,1,0,0:0:0:0:
192,192,163574,1,0,0:0:0:0:
320,192,163720,1,0,0:0:0:0:
192,192,164020,1,0,0:0:0:0:
64,192,164327,1,0,0:0:0:0:
64,192,164828,1,0,0:0:0:0:
192,192,164928,1,0,0:0:0:0:
64,192,165305,1,0,0:0:0:0:
192,192,165381,1,0,0:0:0:0:
320,192,165531,1,0,0:0:0:0:
448,192,166072,1,0,0:0:0:0:
320,192,166358,1,0,0:0:0:0:
192,192,166455,1,0,0:0:0:0:
448,192,166703,1,0,0:0:0:0:
320,0,166703,128,0,168470:0:0:0:0:
64,0,167193,128,0,170974:0:0:0:0:
