osu file format v12

[General]
AudioFilename: I Burn.mp3
AudioLeadIn: 2000
PreviewTime: 433697
Countdown: 0
SampleSet: Soft
StackLeniency: 0.7
Mode: 0
LetterboxInBreaks: 0
EpilepsyWarning: 1
WidescreenStoryboard: 1

[Editor]
DistanceSpacing: 1.5
BeatDivisor: 4
GridSize: 4

[Metadata]
Title:I Burn (Extended Remix feat. Casey Lee Williams)
TitleUnicode:I Burn (Extended Remix feat. Casey Lee Williams)
Artist:Jeff Williams
ArtistUnicode:Jeff Williams
Creator:happy623
Version:Marathon
Source:RWBY
Tags:theme song monty oum rooster teeth red white black yellow yang xiao long Roosterteeth soundtrack blake belladonna ruby rose weiss schnee trailer flame blaze mirror shadows Faust
BeatmapID:343060
BeatmapSetID:137196

[Difficulty]
HPDrainRate:7
CircleSize:4
OverallDifficulty:7
ApproachRate:9
SliderMultiplier:1.6
SliderTickRate:1

[Events]
//Background and Video events
0,0,"bg.jpg",0,0
//Break Periods
2,116670,128479
2,262235,271116
2,358559,365123
//Storyboard Layer 0 (Background)
//Storyboard Layer 1 (Fail)
//Storyboard Layer 2 (Pass)
//Storyboard Layer 3 (Foreground)
//Storyboard Sound Samples
//Background Colour Transformations
3,100,163,162,255

[TimingPoints]
82,428.571428571429,4,2,4,20,1,0
82,-200,4,2,4,20,0,0
18939,-200,4,2,4,5,0,0
19153,-200,4,2,4,20,0,0
54939,-133.333333333333,4,2,4,20,0,0
65224,-200,4,2,4,20,0,0
66939,447.761194029851,4,2,4,20,1,0
67386,-100,4,2,4,15,0,0
67834,410.958904109589,4,2,4,20,1,0
67834,-133.333333333333,4,2,4,20,0,0
68450,-133.333333333333,4,2,4,25,0,0
68932,426.439232409382,4,2,4,20,1,0
68932,-133.333333333333,4,2,2,10,0,0
69039,-133.333333333333,4,2,2,30,0,0
69785,-133.333333333333,4,2,2,10,0,0
69891,-133.333333333333,4,2,2,30,0,0
70638,-133.333333333333,4,2,2,10,0,0
70744,-133.333333333333,4,2,2,30,0,0
71491,-133.333333333333,4,2,2,10,0,0
71597,-133.333333333333,4,2,2,30,0,0
71917,-133.333333333333,4,2,2,40,0,0
73623,-133.333333333333,4,2,2,50,0,0
75329,428.571428571429,4,2,2,60,1,0
82186,-100,4,2,2,30,0,0
82293,-100,4,2,2,60,0,0
85400,466.926070038911,4,2,2,60,1,0
85633,419.58041958042,4,2,2,60,1,0
87311,437.956204379562,4,2,4,20,1,0
87748,431.654676258993,4,2,4,20,1,0
89042,428.571428571429,4,2,2,60,1,0
95899,-100,4,2,2,30,0,0
96006,-100,4,2,2,60,0,0
102756,-100,4,2,2,20,0,0
102863,-100,4,2,2,60,0,0
109613,-100,4,2,2,20,0,0
109720,-100,4,2,2,50,0,0
114756,-100,4,2,4,40,0,0
114863,-100,4,2,2,60,0,0
116470,-100,4,2,4,50,0,0
130184,427.960057061341,4,2,2,60,1,0
130184,-200,4,2,2,60,0,0
130825,-133.333333333333,4,2,2,60,0,0
131467,-100,4,2,2,60,0,0
131895,-200,4,2,2,60,0,0
132537,-133.333333333333,4,2,2,60,0,0
133179,-100,4,2,2,60,0,0
133607,-200,4,2,2,60,0,0
134249,-133.333333333333,4,2,2,60,0,0
134891,-100,4,2,2,60,0,0
135319,-200,4,2,2,60,0,0
135961,-133.333333333333,4,2,2,60,0,0
136603,-100,4,2,2,60,0,0
137031,-200,4,2,2,40,0,0
137149,-200,4,2,2,60,0,0
137673,-133.333333333333,4,2,2,60,0,0
138315,-100,4,2,2,60,0,0
138743,-200,4,2,2,60,0,0
139385,-133.333333333333,4,2,2,60,0,0
140027,-100,4,2,2,60,0,0
140455,-200,4,2,2,60,0,0
141096,-133.333333333333,4,2,2,60,0,0
141524,465.116279069767,4,2,4,20,1,0
141756,428.571428571429,4,2,4,20,1,0
141756,-100,4,2,2,60,0,0
142184,-133.333333333333,4,2,2,30,0,0
143256,-100,4,2,0,30,0,0
143470,-100,4,2,2,80,0,0
143506,-100,4,2,0,30,0,0
143899,-100,4,2,2,60,0,0
150756,-100,4,2,2,20,0,0
150863,-100,4,2,2,60,0,0
157613,-100,4,2,2,20,0,0
157720,-100,4,2,2,60,0,0
164470,-100,4,2,2,20,0,0
164577,-100,4,2,2,60,0,0
167899,-100,4,2,2,30,0,0
168006,-100,4,2,2,60,0,0
171327,-100,4,2,2,20,0,0
171434,-100,4,2,2,60,0,0
178184,-100,4,2,2,30,0,0
178292,-100,4,2,2,60,0,0
181613,-100,4,1,1,20,0,0
181720,-100,4,2,2,60,0,0
185042,-100,4,2,2,20,0,0
185149,-100,4,2,2,60,0,0
188470,-100,4,1,1,20,0,0
188577,-100,4,2,2,60,0,0
191899,-100,4,2,2,30,0,0
192006,-100,4,2,2,60,0,0
192756,-100,4,2,2,30,0,0
192863,-100,4,2,2,60,0,0
195327,428.571428571429,4,2,4,20,1,0
197041,-100,4,2,4,15,0,0
198541,510.204081632653,4,2,4,10,1,0
199561,412.371134020619,4,2,4,20,1,0
199561,-133.333333333333,4,2,0,50,0,0
201210,-133.333333333333,4,2,0,40,0,0
202859,-133.333333333333,4,2,0,50,0,0
203684,-133.333333333333,4,2,0,60,0,0
204509,-133.333333333333,4,2,0,70,0,0
206158,408.163265306122,4,2,4,20,1,0
206158,-133.333333333333,4,2,0,75,0,0
207790,-100,4,2,0,75,0,0
209015,425.531914893617,4,2,0,75,1,0
209440,410.958904109589,4,1,1,60,1,1
209542,-100,4,2,2,60,0,0
216015,-100,4,1,1,20,0,0
216118,-100,4,2,2,60,0,0
221768,-133.333333333333,4,1,0,30,0,0
222590,-100,4,1,1,30,0,0
222693,-100,4,2,2,60,0,0
229166,-100,4,1,1,20,0,0
229268,-100,4,2,2,60,0,0
234097,405.405405405405,4,2,2,60,1,0
234097,-133.333333333333,4,2,2,60,0,0
234401,416.666666666667,4,2,2,20,1,0
234401,-200,4,2,2,60,0,0
234713,422.535211267606,4,2,2,60,1,0
234713,-133.333333333333,4,2,2,60,0,0
235135,419.58041958042,4,2,2,60,1,0
235135,-200,4,2,2,60,0,0
235554,335.195530726257,4,2,2,60,1,0
235554,-200,4,2,2,60,0,0
235721,410.958904109589,4,1,1,60,1,1
235823,-100,4,2,2,60,0,0
242296,-100,4,1,1,20,0,0
242399,-100,4,2,2,60,0,0
248049,-200,4,1,0,40,0,0
248152,-200,4,2,2,60,0,0
248871,-100,4,1,1,40,0,1
248974,-100,4,2,2,60,0,1
255447,-100,4,1,1,30,0,1
255549,-100,4,2,2,60,0,1
260994,416.666666666667,4,2,2,60,1,1
262035,324.324324324324,4,2,2,60,1,0
262035,-133.333333333333,4,2,2,50,0,0
271764,-100,4,2,2,20,0,0
275332,324.324324324324,4,2,2,60,1,0
285710,-100,4,1,1,25,0,0
285791,-100,4,2,2,65,0,0
296088,-100,4,1,1,40,0,0
296169,-100,4,2,2,65,0,0
301277,-100,4,1,1,20,0,0
301359,-100,4,2,2,65,0,0
306467,-100,4,1,1,20,0,0
306548,-100,4,2,2,65,0,0
313277,-200,4,2,2,65,0,0
313602,-133.333333333333,4,2,2,40,0,0
313683,-133.333333333333,4,2,2,65,0,0
313926,-133.333333333333,4,2,2,5,0,0
314007,-133.333333333333,4,2,2,65,0,0
314250,-100,4,1,1,35,0,1
314413,-100,4,2,2,70,0,1
323980,-133.333333333333,4,2,2,65,0,1
324304,-133.333333333333,4,2,2,5,0,1
324386,-133.333333333333,4,2,2,40,0,1
324629,-100,4,1,1,40,0,1
324710,-100,4,2,2,70,0,1
334845,-100,4,2,2,70,0,0
335007,-100,4,1,1,40,0,1
335088,-100,4,2,2,70,0,1
340196,-100,4,1,1,40,0,1
340277,-100,4,2,2,70,0,1
345223,-100,4,2,2,70,0,0
345386,-100,4,1,1,40,0,1
345467,-100,4,2,2,70,0,1
350575,-100,4,2,4,50,0,1
350656,-100,4,2,2,70,0,1
353169,-100,4,2,4,50,0,1
353250,-100,4,2,2,70,0,1
355602,-100,4,2,2,70,0,0
355764,-100,4,2,4,60,0,1
355926,-100,4,2,2,70,0,0
361926,474.683544303797,4,2,2,70,1,0
365723,410.958904109589,4,2,4,60,1,0
365723,-200,4,2,2,60,0,0
372298,-200,4,1,1,30,0,0
372401,-200,4,2,2,40,0,0
373942,-200,4,1,1,30,0,0
374044,-200,4,2,2,40,0,0
375586,409.556313993174,4,1,1,30,1,0
375586,-100,4,1,1,30,0,0
375688,-100,4,2,2,50,0,0
376405,-100,4,2,2,55,0,0
377206,-100,4,1,1,30,0,0
377275,-100,4,2,0,60,0,0
378452,413.793103448276,4,2,2,60,1,0
378452,-133.333333333333,4,2,2,60,0,0
378865,410.958904109589,4,1,1,40,1,1
378865,-100,4,1,1,50,0,1
379070,-100,4,2,2,60,0,0
405166,405.95399188092,4,2,2,60,1,0
405166,-133.333333333333,4,2,2,60,0,0
405977,-200,4,2,2,60,0,0
406282,410.958904109589,4,1,1,40,1,1
406487,-100,4,2,2,60,0,0
430939,-100,4,2,2,70,0,0
431761,-100,4,2,2,80,0,0
432583,405.405405405405,4,2,2,80,1,0
433697,465.116279069767,4,1,1,60,1,1
433697,-200,4,2,0,60,0,0
434162,410.958904109589,4,1,1,60,1,1
434162,-66.6666666666667,4,1,1,60,0,1
434264,-66.6666666666667,4,2,2,60,0,1
434572,-83.3333333333333,4,2,2,60,0,1
440326,-133.333333333333,4,2,2,60,0,1
440737,-66.6666666666667,4,1,1,60,0,1
440840,-66.6666666666667,4,2,2,60,0,1
441148,-83.3333333333333,4,2,2,60,0,1
447107,-83.3333333333333,4,2,2,60,0,0
447312,-83.3333333333333,4,1,1,80,0,1
447518,-83.3333333333333,4,2,2,60,0,0

[Colours]
Combo1 : 162,146,184
Combo2 : 170,4,0
Combo3 : 227,232,236
Combo4 : 115,115,115
Combo5 : 239,214,69
Combo6 : 213,83,108
Combo7 : 255,166,77
Combo8 : 187,208,244

[HitObjects]
160,276,82,2,0,P|122:289|79:275,1,80,2|0,0:0|0:0,0:0:0:0:
231,123,939,2,0,P|218:87|228:48,1,80,2|0,0:0|0:0,0:0:0:0:
348,256,1796,2,0,P|385:242|428:256,1,80,2|0,0:0|0:0,0:0:0:0:
80,324,2653,54,0,L|136:316,1,40,2|0,0:0|0:0,0:0:0:0:
200,332,3082,2,0,L|256:324,1,40,2|0,0:0|0:0,0:0:0:0:
423,192,3510,54,0,P|383:188|344:192,1,80,2|0,0:0|0:0,0:0:0:0:
60,280,4367,2,0,P|100:284|156:276,1,80,2|0,0:0|0:0,0:0:0:0:
440,172,5224,2,0,L|360:152,1,80,2|0,0:0|0:0,0:0:0:0:
56,64,6082,54,0,L|21:84,1,40,2|0,0:0|0:0,0:0:0:0:
146,99,6510,2,0,L|112:120,1,40,2|0,0:0|0:0,0:0:0:0:
40,216,6939,54,0,P|80:220|119:211,1,80,2|0,0:0|0:0,0:0:0:0:
302,160,7796,2,0,L|224:176,1,80,2|0,0:0|0:0,0:0:0:0:
473,220,8653,2,0,L|396:236,1,80,2|0,0:0|0:0,0:0:0:0:
76,260,9510,54,0,L|68:220,1,40,2|0,0:0|0:0,0:0:0:0:
140,331,9939,2,0,L|148:292,1,40,2|0,0:0|0:0,0:0:0:0:
188,136,10367,54,0,L|200:228,1,80,2|0,0:0|0:0,0:0:0:0:
312,328,11224,1,2,0:0:0:0:
392,312,11653,1,0,0:0:0:0:
296,320,12082,1,2,0:0:0:0:
404,324,12510,1,0,0:0:0:0:
480,360,13796,54,0,P|484:316|472:276,1,80,4|0,0:0|0:0,0:0:0:0:
424,220,14439,1,0,0:0:0:0:
324,156,14653,2,0,P|284:156|237:145,2,80,2|0|4,0:0|0:0|0:0,0:0:0:0:
480,136,15939,1,0,0:0:0:0:
184,256,16367,1,2,0:0:0:0:
124,200,16582,1,0,0:0:0:0:
44,204,16796,2,0,P|21:208|4:220,1,40
72,364,17224,54,0,L|164:344,1,80,4|0,0:0|0:0,0:0:0:0:
272,352,17867,1,0,0:0:0:0:
56,340,18082,2,0,P|92:320|140:308,2,80,2|0|12,0:0|0:0|0:0,0:0:0:0:
272,352,19367,1,0,0:0:0:0:
360,44,19796,1,2,0:0:0:0:
428,84,20010,1,0,0:0:0:0:
424,164,20224,2,0,P|420:184|408:208,1,40
176,256,20653,54,0,P|168:220|176:172,1,80,4|0,0:0|0:0,0:0:0:0:
336,112,21510,2,0,P|344:148|336:196,1,80,2|0,0:0|0:0,0:0:0:0:
140,328,22367,1,4,0:0:0:0:
140,328,23224,1,2,0:0:0:0:
208,284,23439,1,0,0:0:0:0:
268,336,23653,2,0,L|324:344,1,40
427,286,24082,54,0,L|348:276,1,80,4|0,0:0|0:0,0:0:0:0:
112,80,24939,2,0,L|204:92,1,80,2|0,0:0|0:0,0:0:0:0:
400,288,25796,1,4,0:0:0:0:
400,288,27510,54,0,L|348:280,1,40,4|0,0:0|0:0,0:0:0:0:
240,298,27939,2,0,L|279:306,1,40,2|0,0:0|0:0,0:0:0:0:
260,159,28367,2,0,L|221:156,1,40,0|0,0:0|0:0,0:0:0:0:
296,64,28796,2,0,L|336:80,1,40,2|0,0:0|0:0,0:0:0:0:
448,260,29224,54,0,L|396:268,1,40,4|0,0:0|0:0,0:0:0:0:
312,228,29653,2,0,L|264:228,1,40,2|0,0:0|0:0,0:0:0:0:
96,288,30082,2,0,L|88:244,1,40
147,152,30510,2,0,L|156:104,1,40,2|0,0:0|0:0,0:0:0:0:
64,344,30939,54,0,L|116:336,1,40,4|0,0:0|0:0,0:0:0:0:
204,348,31367,2,0,L|248:332,1,40,2|0,0:0|0:0,0:0:0:0:
288,204,31796,2,0,L|300:160,1,40,0|0,0:0|0:0,0:0:0:0:
204,124,32224,2,0,L|200:76,1,40,2|0,0:0|0:0,0:0:0:0:
56,320,32653,54,0,L|12:300,1,40,4|0,0:0|0:0,0:0:0:0:
192,172,33082,2,0,L|208:216,1,40,2|0,0:0|0:0,0:0:0:0:
56,168,33510,2,0,L|104:188,1,40,0|0,0:0|0:0,0:0:0:0:
168,268,33939,2,0,L|220:264,1,40,2|0,0:0|0:0,0:0:0:0:
448,304,34367,54,0,P|392:240|416:168,1,160,4|0,0:0|0:0,0:0:0:0:
332,332,35439,1,0,0:0:0:0:
448,304,35653,2,0,L|396:312,1,40,2|0,0:0|0:0,0:0:0:0:
100,52,36082,54,0,P|160:96|248:120,1,160,4|0,0:0|0:0,0:0:0:0:
100,164,37153,1,0,0:0:0:0:
100,52,37367,2,0,L|76:96,1,40,2|0,0:0|0:0,0:0:0:0:
292,328,37796,54,0,P|304:248|336:168,1,160,4|0,0:0|0:0,0:0:0:0:
184,292,38867,1,0,0:0:0:0:
292,328,39082,2,0,L|256:288,1,40,2|0,0:0|0:0,0:0:0:0:
88,136,39510,53,4,0:0:0:0:
88,136,41224,6,0,L|128:128,1,40,4|0,0:0|0:0,0:0:0:0:
180,188,41653,2,0,L|236:200,1,40,2|0,0:0|0:0,0:0:0:0:
284,244,42082,2,0,L|408:220,1,120,2|0,0:0|0:0,0:0:0:0:
140,320,42939,70,0,L|184:328,1,40,4|0,0:0|0:0,0:0:0:0:
299,317,43367,2,0,L|260:324,1,40,2|0,0:0|0:0,0:0:0:0:
89,122,43796,2,0,L|116:240,1,120,2|0,0:0|0:0,0:0:0:0:
124,40,44653,38,0,L|160:56,1,40,4|0,0:0|0:0,0:0:0:0:
236,32,45082,2,0,L|244:72,1,40,2|0,0:0|0:0,0:0:0:0:
320,96,45510,2,0,L|280:228,1,120,2|0,0:0|0:0,0:0:0:0:
364,196,46367,70,0,L|280:300,1,120,4|0,0:0|0:0,0:0:0:0:
212,312,47224,2,0,P|188:308|164:316,1,40,2|0,0:0|0:0,0:0:0:0:
60,343,47653,2,0,P|80:347|100:344,1,40,2|0,0:0|0:0,0:0:0:0:
212,312,48082,38,0,P|268:296|328:252,1,120,4|0,0:0|0:0,0:0:0:0:
364,192,48939,2,0,P|381:178|396:148,1,40,2|0,0:0|0:0,0:0:0:0:
336,104,49367,2,0,P|324:80|300:68,1,40,2|0,0:0|0:0,0:0:0:0:
276,4,49796,70,0,L|248:128,1,120,4|0,0:0|0:0,0:0:0:0:
180,264,50653,1,2,0:0:0:0:
176,272,51082,1,2,0:0:0:0:
140,356,51296,1,0,0:0:0:0:
172,284,51510,38,0,P|228:228|304:188,1,160,4|2,0:0|0:0,0:0:0:0:
456,228,52796,1,0,0:0:0:0:
460,236,53224,69,4,0:0:0:0:
56,132,54939,54,0,P|88:116|136:108,1,60.0000022888184,4|0,0:0|0:0,0:0:0:0:
200,116,55367,1,2,0:0:0:0:
284,152,55582,1,0,0:0:0:0:
52,288,55796,2,0,P|100:316|184:324,1,120.000004577637,4|2,0:0|0:0,0:0:0:0:
256,288,56439,1,0,0:0:0:0:
459,288,56653,70,0,P|408:317|349:326,1,120.000004577637,4|2,0:0|0:0,0:0:0:0:
252,312,57296,1,0,0:0:0:0:
192,236,57510,2,0,P|144:212|68:212,1,120.000004577637,4|2,0:0|0:0,0:0:0:0:
256,288,58153,1,0,0:0:0:0:
312,76,58367,38,0,P|360:100|436:100,1,120.000004577637,4|2,0:0|0:0,0:0:0:0:
492,44,59010,1,0,0:0:0:0:
425,102,59224,2,0,P|397:159|392:232,1,120.000004577637,4|2,0:0|0:0,0:0:0:0:
428,296,59867,1,0,0:0:0:0:
340,284,60082,70,0,P|312:272|280:272,1,60.0000022888184,4|0,0:0|0:0,0:0:0:0:
140,312,60510,2,0,P|170:316|200:312,1,60.0000022888184,2|0,0:0|0:0,0:0:0:0:
8,348,60939,2,0,P|56:300|60:232,1,120.000004577637,4|6,0:0|0:0,0:0:0:0:
36,164,61582,1,0,0:0:0:0:
24,76,61796,54,0,P|64:40|144:40,1,120.000004577637,4|2,0:0|0:0,0:0:0:0:
300,300,62653,1,4,0:0:0:0:
296,212,62867,1,0,0:0:0:0:
376,252,63082,1,6,0:0:0:0:
256,368,63296,1,4,0:0:0:0:
91,318,63510,22,0,P|148:300|208:304,1,120.000004577637,4|2,0:0|0:0,0:0:0:0:
448,180,64367,1,4,0:0:0:0:
452,192,64582,1,0,0:0:0:0:
456,204,64796,1,6,0:0:0:0:
460,216,65010,1,4,0:0:0:0:
460,296,65224,86,0,B|416:296|392:256|392:256|352:268|316:256|316:256|284:280|244:288|244:288|216:248|176:240,1,320,4|4,0:0|0:0,0:0:0:0:
164,320,67386,1,2,0:0:0:0:
164,320,67834,2,0,L|152:240,1,60.0000022888184,4|4,0:0|0:0,0:0:0:0:
312,172,68244,2,0,L|308:232,1,60.0000022888184,4|4,0:0|0:0,0:0:0:0:
64,100,68932,6,2,P|92:79|128:68,1,60.0000022888184,8|0,0:0|0:0,0:0:0:0:
200,104,69358,2,2,L|260:96,1,60.0000022888184,0|0,0:0|0:0,0:0:0:0:
336,144,69785,2,2,L|400:164,1,60.0000022888184,8|0,0:0|0:0,0:0:0:0:
260,280,70211,2,2,P|232:288|188:288,1,60.0000022888184,0|0,0:0|0:0,0:0:0:0:
48,192,70638,54,2,P|76:184|120:184,1,60.0000022888184,8|0,0:0|0:0,0:0:0:0:
196,192,71064,2,2,P|228:196|268:192,1,60.0000022888184,0|0,0:0|0:0,0:0:0:0:
344,184,71491,2,2,P|376:180|408:180,1,60.0000022888184,8|0,0:0|0:0,0:0:0:0:
492,76,71917,2,2,L|416:64,1,60.0000022888184,0|0,0:0|0:0,0:0:0:0:
256,180,72343,54,2,L|316:174,1,60.0000022888184,8|0,0:0|0:0,0:0:0:0:
148,92,72770,2,2,L|88:88,1,60.0000022888184,0|0,0:0|0:0,0:0:0:0:
288,96,73196,2,2,L|347:89,1,60.0000022888184,8|0,0:0|0:0,0:0:0:0:
112,36,73623,2,2,L|172:40,1,60.0000022888184,0|0,0:0|0:0,0:0:0:0:
372,140,74049,54,2,L|431:133,1,60.0000022888184,8|0,0:0|0:0,0:0:0:0:
44,84,74476,2,2,L|104:88,1,60.0000022888184,0|0,0:0|0:0,0:0:0:0:
184,252,74902,2,2,L|244:260,1,60.0000022888184,8|0,0:0|0:0,0:0:0:0:
420,276,75329,54,0,P|380:264|336:268,1,80,12|2,0:0|0:0,0:0:0:0:
224,292,75757,2,0,L|120:272,1,80,8|2,0:0|0:0,0:0:0:0:
40,216,76186,1,0,0:0:0:0:
64,96,76400,1,2,0:0:0:0:
60,208,76614,1,8,0:0:0:0:
84,88,76829,1,2,0:0:0:0:
172,180,77043,54,0,P|212:160|276:160,1,80,0|2,0:0|0:0,0:0:0:0:
384,274,77471,2,0,P|378:235|360:200,1,80,8|2,0:0|0:0,0:0:0:0:
140,292,77900,1,0,0:0:0:0:
252,332,78114,1,2,0:0:0:0:
132,316,78329,1,8,0:0:0:0:
260,308,78543,1,2,0:0:0:0:
396,64,78757,54,0,L|372:144,1,80,0|2,0:0|0:0,0:0:0:0:
252,136,79186,2,0,L|240:240,1,80,8|2,0:0|0:0,0:0:0:0:
124,213,79614,2,0,L|140:292,1,80,0|2,0:0|0:0,0:0:0:0:
436,344,80043,1,8,0:0:0:0:
256,328,80257,1,2,0:0:0:0:
392,304,80471,53,0,0:0:0:0:
212,288,80686,1,2,0:0:0:0:
396,140,80900,1,8,0:0:0:0:
320,232,81114,1,2,0:0:0:0:
212,180,81329,2,0,L|160:152,2,40,0|0|2,0:0|0:0|0:0,0:0:0:0:
116,252,81757,2,0,L|64:264,2,40,8|0|2,0:0|0:0|0:0,0:0:0:0:
360,316,82186,54,0,P|400:308|424:252,1,80,4|2,0:0|0:0,0:0:0:0:
405,85,82614,2,0,L|392:164,1,80,8|2,0:0|0:0,0:0:0:0:
360,316,83043,2,0,P|373:277|336:228,1,80,0|2,0:0|0:0,0:0:0:0:
182,160,83471,2,0,L|244:212,1,80,8|2,0:0|0:0,0:0:0:0:
364,324,83900,53,0,0:0:0:0:
64,340,84329,1,8,0:0:0:0:
336,104,84757,2,0,P|296:96|252:100,1,80,0|2,0:0|0:0,0:0:0:0:
148,148,85186,2,0,L|48:160,1,80,8|2,0:0|0:0,0:0:0:0:
280,272,85633,53,0,0:0:0:0:
340,220,86052,1,0,0:0:0:0:
412,256,86472,1,0,0:0:0:0:
396,336,86891,1,0,0:0:0:0:
316,344,87311,53,4,0:0:0:0:
476,360,87748,1,8,0:0:0:0:
240,320,89042,54,0,P|204:296|204:228,1,80,4|2,0:0|0:0,0:0:0:0:
204,144,89470,1,8,0:0:0:0:
304,76,89684,53,2,0:0:0:0:
336,100,89792,1,0,0:0:0:0:
348,140,89899,1,0,0:0:0:0:
260,224,90113,1,2,0:0:0:0:
152,276,90327,1,8,0:0:0:0:
112,272,90434,1,0,0:0:0:0:
72,284,90542,1,2,0:0:0:0:
244,336,90756,54,0,P|288:340|344:328,1,80,0|2,0:0|0:0,0:0:0:0:
432,284,91184,1,8,0:0:0:0:
332,216,91399,53,2,0:0:0:0:
332,176,91506,1,0,0:0:0:0:
308,144,91613,1,0,0:0:0:0:
224,60,91827,1,2,0:0:0:0:
140,148,92042,1,8,0:0:0:0:
116,180,92149,1,0,0:0:0:0:
116,220,92256,1,2,0:0:0:0:
204,300,92470,54,0,L|216:216,1,80,0|2,0:0|0:0,0:0:0:0:
300,136,92899,2,0,P|332:104|340:48,1,80,8|2,0:0|0:0,0:0:0:0:
170,71,93327,54,0,P|182:109|212:136,1,80,0|2,0:0|0:0,0:0:0:0:
368,240,93756,1,8,0:0:0:0:
328,228,93863,1,0,0:0:0:0:
288,228,93970,1,2,0:0:0:0:
180,280,94184,2,0,L|84:264,1,80,0|2,0:0|0:0,0:0:0:0:
40,164,94613,2,0,L|136:180,1,80,8|2,0:0|0:0,0:0:0:0:
240,164,95042,53,0,0:0:0:0:
324,44,95256,1,2,0:0:0:0:
440,156,95470,1,8,0:0:0:0:
440,156,95577,1,0,0:0:0:0:
440,156,95684,1,2,0:0:0:0:
504,324,95899,54,0,P|464:332|408:304,1,80,4|2,1:2|0:0,0:0:0:0:
271,227,96327,2,0,P|310:220|348:232,1,80,8|2,0:0|0:0,0:0:0:0:
175,304,96756,2,2,P|136:311|99:300,1,80,8|2,0:0|0:0,0:0:0:0:
0,180,97184,2,2,P|38:172|76:184,1,80,8|2,0:0|0:0,0:0:0:0:
176,304,97613,54,0,P|212:288|256:300,1,80,0|2,0:0|0:0,0:0:0:0:
420,356,98042,1,8,0:0:0:0:
400,116,98470,53,0,0:0:0:0:
288,232,98684,1,2,0:0:0:0:
172,132,98899,2,0,P|132:124|84:136,1,80,8|2,0:0|0:0,0:0:0:0:
4,212,99327,1,0,0:0:0:0:
200,256,99542,1,2,0:0:0:0:
88,296,99756,1,8,0:0:0:0:
288,340,99970,53,2,0:0:0:0:
288,340,100077,1,0,0:0:0:0:
288,340,100184,1,0,0:0:0:0:
168,344,100399,1,2,0:0:0:0:
408,324,100613,1,8,0:0:0:0:
328,236,100827,1,2,0:0:0:0:
88,188,101042,53,0,0:0:0:0:
72,68,101256,1,2,0:0:0:0:
184,112,101470,1,8,0:0:0:0:
440,288,101899,53,0,0:0:0:0:
416,172,102113,1,2,0:0:0:0:
320,248,102327,1,8,0:0:0:0:
164,328,102756,54,0,P|88:324|44:248,1,160,4|8,1:2|0:0,0:0:0:0:
60,140,103399,1,2,0:0:0:0:
44,104,103506,1,0,0:0:0:0:
28,68,103613,2,0,P|64:60|124:84,1,80,0|2,0:0|0:0,0:0:0:0:
248,180,104042,2,0,P|292:180|340:168,1,80,8|2,0:0|0:0,0:0:0:0:
432,152,104470,54,0,L|252:84,1,160,0|8,0:0|0:0,0:0:0:0:
72,288,105113,1,2,0:0:0:0:
64,172,105327,2,0,P|108:176|144:204,1,80,0|2,0:0|0:0,0:0:0:0:
288,296,105756,2,0,L|380:288,1,80,8|2,0:0|0:0,0:0:0:0:
468,252,106184,54,0,L|308:268,1,160,0|8,0:0|0:0,0:0:0:0:
192,292,106827,1,2,0:0:0:0:
104,212,107042,1,0,0:0:0:0:
104,212,107149,2,0,L|72:184,1,40,0|2,0:0|0:0,0:0:0:0:
77,53,107470,1,8,0:0:0:0:
77,53,107577,2,0,L|108:80,1,40,0|2,0:0|0:0,0:0:0:0:
280,248,107899,54,0,L|440:216,1,160,0|8,0:0|0:0,0:0:0:0:
296,36,108542,1,2,0:0:0:0:
208,117,108756,2,0,P|196:155|192:195,1,80,0|2,0:0|0:0,0:0:0:0:
184,316,109184,1,8,0:0:0:0:
184,316,109292,1,0,0:0:0:0:
184,316,109399,1,2,0:0:0:0:
327,205,109613,54,0,P|320:126|303:48,1,160,4|8,1:2|0:0,0:0:0:0:
184,28,110256,1,2,0:0:0:0:
112,202,110470,1,0,0:0:0:0:
112,202,110577,2,0,L|136:168,1,40,0|2,0:0|0:0,0:0:0:0:
156,290,110899,1,8,0:0:0:0:
156,290,111006,2,0,L|188:248,1,40,0|2,0:0|0:0,0:0:0:0:
441,297,111327,54,0,P|368:268|296:232,1,160,0|8,0:0|0:0,0:0:0:0:
220,68,111970,1,2,0:0:0:0:
312,148,112184,2,0,P|352:152|404:168,1,80,0|2,0:0|0:0,0:0:0:0:
121,162,112613,2,0,L|76:168,2,40,8|0|2,0:0|0:0|0:0,0:0:0:0:
88,340,113042,54,0,P|165:316|248:304,1,160,0|8,0:0|0:0,0:0:0:0:
420,328,113684,1,2,0:0:0:0:
374,146,113899,2,0,L|368:192,2,40,0|0|2,0:0|0:0|0:0,0:0:0:0:
133,47,114327,2,0,P|172:56|208:76,1,80,8|2,0:0|0:0,0:0:0:0:
420,328,114756,53,4,0:0:0:0:
92,328,115184,1,8,0:0:0:0:
344,192,115613,53,0,0:0:0:0:
168,192,116042,1,8,0:0:0:0:
256,56,116470,53,4,0:0:0:0:
84,144,130184,54,0,P|120:124|164:124,1,80,4|8,3:0|0:0,0:0:0:0:
338,170,130825,2,0,L|216:196,1,120.000004577637,4|0,3:0|0:0,0:0:0:0:
124,260,131467,2,0,P|128:288|152:308,1,40,4|0,3:0|0:0,0:0:0:0:
226,341,131681,2,0,P|225:321|216:304,1,40,4|0,3:0|0:0,0:0:0:0:
116,252,131895,54,0,P|104:212|120:164,1,80,4|8,3:0|0:0,0:0:0:0:
250,32,132537,2,0,L|176:136,1,120.000004577637,4|0,3:0|0:0,0:0:0:0:
280,204,133179,2,0,P|299:200|324:188,1,40,4|0,3:0|0:0,0:0:0:0:
357,93,133393,2,0,P|336:96|320:108,1,40,4|0,3:0|0:0,0:0:0:0:
276,212,133607,54,0,P|236:236|200:244,1,80,4|8,3:0|0:0,0:0:0:0:
74,125,134249,2,0,P|80:184|124:232,1,120.000004577637,4|0,3:0|0:0,0:0:0:0:
232,268,134891,2,0,P|256:264|292:276,1,40,4|0,3:0|0:0,0:0:0:0:
339,338,135105,2,0,P|319:342|300:340,1,40,4|0,3:0|0:0,0:0:0:0:
228,264,135319,54,0,P|264:236|312:224,1,80,4|8,3:0|0:0,0:0:0:0:
499,249,135961,2,0,L|368:264,1,120.000004577637,4|0,3:0|0:0,0:0:0:0:
216,188,136603,2,0,B|383:175|156:196,2,40,4|0|4,3:0|0:0|3:0,0:0:0:0:
392,72,137031,54,0,P|432:72|476:76,1,80,4|8,1:2|0:0,0:0:0:0:
512,312,137673,2,0,P|452:304|388:268,1,120.000004577637,4|0,3:0|0:0,0:0:0:0:
316,196,138315,2,0,P|316:172|296:152,1,40,4|0,3:0|0:0,0:0:0:0:
220,148,138529,2,0,P|220:172|240:192,1,40,4|0,3:0|0:0,0:0:0:0:
308,276,138743,54,0,L|392:312,1,80,4|8,3:0|0:0,0:0:0:0:
116,228,139385,2,0,L|236:276,1,120.000004577637,4|0,3:0|0:0,0:0:0:0:
368,196,140027,2,0,L|330:183,1,40,4|0,3:0|0:0,0:0:0:0:
252,297,140241,2,0,L|292:300,1,40,4|0,3:0|0:0,0:0:0:0:
168,328,140455,54,0,L|88:320,1,80,4|8,3:0|0:0,0:0:0:0:
373,319,141096,2,0,L|496:308,1,120.000004577637,4|0,3:0|0:0,0:0:0:0:
168,233,141756,2,0,L|208:236,1,40,4|0,3:0|0:0,0:0:0:0:
284,144,141970,2,0,L|244:135,1,40,4|0,3:0|0:0,0:0:0:0:
333,233,142184,53,4,3:0:0:0:
373,319,142827,1,4,3:0:0:0:
460,292,143256,22,0,L|477:287,5,13.3333333333333,2|2|2|2|2|2,0:0|0:0|0:0|0:0|0:0|0:0,0:0:0:0:
432,256,143470,2,0,L|432:228,4,20,2|2|0|2|0,0:0|0:0|0:0|0:0|0:0,0:0:0:0:
188,312,143898,22,0,P|144:308|104:284,1,80,0|2,0:0|0:0,0:0:0:0:
53,61,144327,2,0,L|64:144,1,80,8|2,0:0|0:0,0:0:0:0:
72,168,144648,1,0,0:0:0:0:
76,196,144756,2,0,L|112:124,1,80,0|2,0:0|0:0,0:0:0:0:
52,316,145184,1,8,0:0:0:0:
52,316,145291,1,0,0:0:0:0:
52,316,145398,1,2,0:0:0:0:
236,288,145613,54,0,L|160:264,1,80,0|2,0:0|0:0,0:0:0:0:
352,320,146041,2,0,L|448:304,1,80,8|2,0:0|0:0,0:0:0:0:
456,300,146363,1,0,0:0:0:0:
484,292,146470,2,0,L|400:268,1,80,0|2,0:0|0:0,0:0:0:0:
304,204,146898,1,8,0:0:0:0:
288,168,147006,1,0,0:0:0:0:
288,128,147113,1,2,0:0:0:0:
372,44,147327,54,0,L|451:33,1,80,0|2,0:0|0:0,0:0:0:0:
252,52,147756,2,0,L|164:40,1,80,8|2,0:0|0:0,0:0:0:0:
144,40,148077,1,0,0:0:0:0:
116,36,148184,2,0,L|196:80,1,80,0|2,0:0|0:0,0:0:0:0:
360,176,148613,1,8,0:0:0:0:
336,144,148720,1,0,0:0:0:0:
300,128,148827,1,2,0:0:0:0:
112,193,149041,54,0,L|188:168,1,80,0|2,0:0|0:0,0:0:0:0:
52,296,149470,2,0,P|112:280|184:296,1,120,8|0,0:0|0:0,0:0:0:0:
196,300,149898,2,0,P|232:300|276:284,1,80,0|2,0:0|0:0,0:0:0:0:
436,220,150327,1,8,0:0:0:0:
416,188,150434,1,0,0:0:0:0:
380,168,150541,1,2,0:0:0:0:
431,332,150756,54,0,P|360:304|272:312,1,160,4|8,1:0|0:0,0:0:0:0:
40,356,151613,2,0,P|28:312|40:264,1,80,0|2,0:0|0:0,0:0:0:0:
44,260,151934,1,0,0:0:0:0:
56,244,152041,2,0,L|48:144,1,80,8|2,0:0|0:0,0:0:0:0:
88,52,152470,54,0,L|100:188,1,120
116,192,152898,2,0,P|152:208|196:196,1,80,8|2,0:0|0:0,0:0:0:0:
164,328,153327,1,0,0:0:0:0:
272,272,153541,1,2,0:0:0:0:
376,332,153756,1,8,0:0:0:0:
376,332,153863,1,0,0:0:0:0:
376,332,153970,1,2,0:0:0:0:
380,212,154184,54,0,L|408:76,1,120
420,72,154613,1,8,0:0:0:0:
196,258,155041,2,0,P|236:256|268:232,1,80,0|2,0:0|0:0,0:0:0:0:
308,128,155470,1,8,0:0:0:0:
308,128,155577,1,0,0:0:0:0:
308,128,155684,1,2,0:0:0:0:
392,344,155898,54,0,L|304:332,1,80,0|2,0:0|0:0,0:0:0:0:
72,340,156327,1,8,0:0:0:0:
56,348,156756,54,0,L|144:336,1,80,0|2,0:0|0:0,0:0:0:0:
364,268,157184,1,8,0:0:0:0:
356,228,157291,1,0,0:0:0:0:
368,188,157398,1,2,0:0:0:0:
464,52,157613,53,4,1:2:0:0:
464,52,158041,1,8,0:0:0:0:
464,52,158470,2,0,P|464:88|428:124,1,80,0|2,0:0|0:0,0:0:0:0:
240,100,158898,1,8,0:0:0:0:
280,92,159006,1,0,0:0:0:0:
320,100,159113,1,2,0:0:0:0:
420,248,159327,53,0,0:0:0:0:
420,248,159756,1,8,0:0:0:0:
420,248,160184,2,0,P|376:240|340:240,1,80,0|2,0:0|0:0,0:0:0:0:
144,256,160613,1,8,0:0:0:0:
180,244,160720,1,0,0:0:0:0:
220,240,160827,1,2,0:0:0:0:
60,324,161041,53,0,0:0:0:0:
420,248,161470,1,8,0:0:0:0:
60,324,161898,2,0,P|92:289|136:272,1,80,0|2,0:0|0:0,0:0:0:0:
420,248,162327,1,8,0:0:0:0:
384,232,162434,1,0,0:0:0:0:
344,228,162541,1,2,0:0:0:0:
496,288,162756,53,0,0:0:0:0:
192,96,163184,1,8,0:0:0:0:
256,328,163613,2,0,L|228:252,1,80,0|2,0:0|0:0,0:0:0:0:
336,84,164041,1,8,0:0:0:0:
324,124,164148,1,0,0:0:0:0:
312,164,164256,1,2,0:0:0:0:
264,340,164470,54,0,L|168:204,1,160,4|8,1:2|0:0,0:0:0:0:
436,64,165327,1,8,0:0:0:0:
396,68,165434,1,0,0:0:0:0:
360,88,165541,1,2,0:0:0:0:
348,128,165648,1,0,0:0:0:0:
356,168,165756,1,8,0:0:0:0:
352,208,165863,1,0,0:0:0:0:
324,236,165970,1,2,0:0:0:0:
204,252,166184,54,0,P|128:256|40:280,1,160,0|8,0:0|0:0,0:0:0:0:
280,344,167041,1,0,0:0:0:0:
424,200,167256,1,2,0:0:0:0:
160,336,167470,1,8,0:0:0:0:
396,316,167684,1,2,0:0:0:0:
176,248,167898,6,0,P|112:248|72:204,1,120,4|0,1:2|0:0,0:0:0:0:
84,132,168327,2,0,P|120:104|160:104,1,80,8|2,0:0|0:0,0:0:0:0:
356,288,168756,1,0,0:0:0:0:
144,176,168970,1,2,0:0:0:0:
224,88,169184,1,8,0:0:0:0:
380,216,169613,70,0,P|432:292|420:328,1,120,0|0,0:0|0:0,0:0:0:0:
368,364,170041,2,0,P|324:360|296:336,1,80,8|2,0:0|0:0,0:0:0:0:
412,116,170470,1,0,0:0:0:0:
356,288,170684,1,2,0:0:0:0:
256,220,170898,1,8,0:0:0:0:
48,336,171327,38,0,P|96:288|80:224,1,120,4|0,0:0|0:0,0:0:0:0:
68,164,171756,2,0,L|92:68,1,80,8|2,0:0|0:0,0:0:0:0:
20,264,172184,69,0,0:0:0:0:
52,240,172291,1,0,0:0:0:0:
92,240,172398,1,2,0:0:0:0:
128,260,172506,1,0,0:0:0:0:
140,300,172613,1,8,0:0:0:0:
164,332,172720,1,0,0:0:0:0:
204,328,172827,1,2,0:0:0:0:
300,352,173041,38,0,L|428:340,1,120
484,292,173470,2,0,L|404:299,1,80,8|2,0:0|0:0,0:0:0:0:
196,284,173898,1,0,0:0:0:0:
304,232,174113,1,2,0:0:0:0:
248,132,174327,1,8,0:0:0:0:
236,92,174434,1,0,0:0:0:0:
240,52,174541,1,2,0:0:0:0:
476,96,174756,70,0,P|424:136|428:204,1,120
436,264,175184,2,0,L|376:320,1,80,8|2,0:0|0:0,0:0:0:0:
64,324,175613,2,0,L|144:336,1,80,0|2,0:0|0:0,0:0:0:0:
256,324,176041,1,8,0:0:0:0:
220,312,176148,1,0,0:0:0:0:
180,316,176256,1,2,0:0:0:0:
212,220,176470,38,0,L|80:204,1,120
100,284,176898,2,0,P|60:284|28:252,1,80,8|2,0:0|0:0,0:0:0:0:
212,220,177327,2,0,P|244:197|283:187,1,80,0|2,0:0|0:0,0:0:0:0:
460,264,177756,2,0,L|512:272,2,40,8|0|2,0:0|0:0|0:0,0:0:0:0:
212,220,178184,70,0,P|232:176|320:140,1,120,4|0,0:0|0:0,0:0:0:0:
372,148,178613,2,0,P|408:152|472:152,1,80,8|2,0:0|0:0,0:0:0:0:
300,224,179041,1,0,0:0:0:0:
300,224,179148,1,0,0:0:0:0:
300,224,179256,1,2,0:0:0:0:
384,308,179470,2,0,P|352:336|308:340,1,80,8|2,0:0|0:0,0:0:0:0:
96,336,179898,37,0,0:0:0:0:
96,336,180327,1,8,0:0:0:0:
96,336,180756,1,0,0:0:0:0:
96,336,181184,1,8,0:0:0:0:
96,336,181613,6,0,B|76:324|76:324|104:312|104:312|72:264|100:236,1,120,4|0,0:0|0:0,0:0:0:0:
124,175,182041,2,0,P|128:136|112:100,1,80,8|2,0:0|0:0,0:0:0:0:
184,232,182470,1,0,0:0:0:0:
44,148,182684,1,2,0:0:0:0:
260,276,182898,2,0,L|248:328,2,40,8|0|2,0:0|0:0|0:0,0:0:0:0:
349,70,183327,70,0,P|321:122|332:180,1,120
392,236,183756,2,0,L|408:332,1,80,8|2,0:0|0:0,0:0:0:0:
396,136,184184,2,0,L|228:116,1,160,0|8,0:0|0:0,0:0:0:0:
216,120,184720,1,0,0:0:0:0:
196,124,184827,1,2,0:0:0:0:
40,308,185041,38,0,P|104:268|200:284,1,160,4|8,0:0|0:0,0:0:0:0:
408,364,185684,1,2,0:0:0:0:
292,332,185898,2,0,L|328:256,1,80,0|2,0:0|0:0,0:0:0:0:
436,52,186327,1,8,0:0:0:0:
340,124,186541,1,2,0:0:0:0:
156,72,186756,70,0,P|214:61|276:80,1,120
340,124,187184,2,0,P|356:164|344:216,1,80,8|2,0:0|0:0,0:0:0:0:
136,280,187613,1,0,0:0:0:0:
256,276,187827,1,2,0:0:0:0:
364,328,188041,2,0,L|400:344,2,40,8|0|2,0:0|0:0|0:0,0:0:0:0:
136,280,188470,54,0,P|92:236|112:164,1,120,4|0,0:0|0:0,0:0:0:0:
144,116,188898,2,0,P|168:84|172:32,1,80,8|2,0:0|0:0,0:0:0:0:
168,212,189327,2,0,P|208:192|264:196,1,80,0|2,0:0|0:0,0:0:0:0:
352,240,189756,1,8,0:0:0:0:
384,264,189863,1,0,0:0:0:0:
396,304,189970,1,2,0:0:0:0:
352,240,190184,22,0,P|376:188|340:112,1,120
292,84,190613,2,0,L|216:44,1,80,8|2,0:0|0:0,0:0:0:0:
44,72,191041,2,0,L|128:120,1,80,0|2,0:0|0:0,0:0:0:0:
192,204,191470,2,0,L|188:256,2,40,8|0|2,0:0|0:0|0:0,0:0:0:0:
441,55,191898,86,0,P|362:48|292:84,1,160,4|8,0:0|0:0,0:0:0:0:
70,328,192756,2,0,P|149:335|220:300,1,160,4|8,0:0|0:0,0:0:0:0:
436,192,193613,21,0,0:0:0:0:
392,124,194041,1,8,0:0:0:0:
316,96,194470,85,0,0:0:0:0:
236,108,194898,1,8,0:0:0:0:
256,348,195327,21,4,0:0:0:0:
256,192,195434,12,2,198541,0:0:0:0:
88,220,199561,6,0,P|128:196|184:196,2,90.0000034332277,2|2|2,0:0|0:0|0:0,0:0:0:0:
245,333,200591,2,0,P|210:286|152:280,1,120.000004577637,2|2,0:0|0:0,0:0:0:0:
168,368,201210,38,0,L|128:380,3,30.0000011444092,2|0|0|0,0:0|0:0|0:0|0:0,0:0:0:0:
108,344,201622,2,0,L|60:328,3,30.0000011444092,2|0|0|0,0:0|0:0|0:0|0:0,0:0:0:0:
100,296,202035,2,0,L|72:252,3,30.0000011444092
128,272,202447,69,0,0:0:0:0:
140,264,202550,1,0,0:0:0:0:
156,260,202653,1,0,0:0:0:0:
172,260,202756,1,0,0:0:0:0:
184,268,202859,37,2,0:0:0:0:
196,288,202963,1,0,0:0:0:0:
200,312,203066,1,0,0:0:0:0:
188,332,203169,1,2,0:0:0:0:
168,344,203272,1,0,0:0:0:0:
144,344,203375,1,0,0:0:0:0:
120,336,203478,1,2,0:0:0:0:
104,320,203581,1,0,0:0:0:0:
96,296,203684,69,0,0:0:0:0:
108,268,203787,1,0,0:0:0:0:
132,252,203890,1,2,0:0:0:0:
164,252,203993,1,0,0:0:0:0:
188,272,204097,1,0,0:0:0:0:
208,296,204200,1,0,0:0:0:0:
236,308,204303,1,2,0:0:0:0:
264,304,204406,1,0,0:0:0:0:
288,288,204509,37,2,0:0:0:0:
304,256,204612,1,0,0:0:0:0:
288,224,204715,1,0,0:0:0:0:
256,204,204818,1,0,0:0:0:0:
220,208,204921,1,2,0:0:0:0:
196,232,205024,1,0,0:0:0:0:
188,268,205128,1,0,0:0:0:0:
208,300,205231,1,0,0:0:0:0:
188,332,205334,69,0,0:0:0:0:
152,344,205437,1,0,0:0:0:0:
116,340,205540,1,0,0:0:0:0:
96,312,205643,1,0,0:0:0:0:
96,276,205746,1,0,0:0:0:0:
116,248,205849,1,0,0:0:0:0:
152,236,205952,1,0,0:0:0:0:
164,204,206055,1,0,0:0:0:0:
148,172,206158,37,2,0:0:0:0:
148,152,206260,1,0,0:0:0:0:
152,132,206362,1,0,0:0:0:0:
156,112,206464,1,0,0:0:0:0:
160,92,206566,1,2,0:0:0:0:
168,72,206668,1,0,0:0:0:0:
176,52,206770,1,0,0:0:0:0:
192,40,206872,1,0,0:0:0:0:
212,36,206974,69,2,0:0:0:0:
232,48,207076,1,0,0:0:0:0:
240,68,207178,1,0,0:0:0:0:
240,88,207280,1,0,0:0:0:0:
236,108,207382,1,2,0:0:0:0:
228,128,207484,1,0,0:0:0:0:
220,148,207586,1,0,0:0:0:0:
212,168,207688,1,0,0:0:0:0:
212,192,207790,38,0,L|192:224,1,26.6666666666667,2|0,0:0|0:0,0:0:0:0:
244,216,207926,2,0,L|244:256,1,26.6666666666667,0|2,0:0|0:0,0:0:0:0:
284,224,208062,2,0,L|304:264,1,26.6666666666667
324,212,208198,2,0,L|356:240,1,26.6666666666667,2|0,0:0|0:0,0:0:0:0:
352,184,208334,2,0,L|396:192,1,26.6666666666667,0|2,0:0|0:0,0:0:0:0:
360,144,208470,2,0,L|404:136,1,26.6666666666667
352,104,208606,2,0,L|396:84,1,26.6666666666667,2|0,0:0|0:0,0:0:0:0:
328,72,208743,2,2,L|372:44,1,26.6666666666667
288,60,208879,2,0,L|304:24,1,26.6666666666667,0|0,0:0|0:0,0:0:0:0:
256,64,209015,1,4,3:0:0:0:
272,144,209440,70,0,L|180:168,1,80,4|2,0:0|0:0,0:0:0:0:
56,244,209850,2,0,L|132:266,1,80,8|2,0:0|0:0,0:0:0:0:
232,340,210261,2,0,L|328:328,1,80,0|2,0:0|0:0,0:0:0:0:
380,232,210672,2,0,L|436:152,1,80,8|2,0:0|0:0,0:0:0:0:
232,340,211083,37,0,0:0:0:0:
112,352,211289,1,2,0:0:0:0:
232,340,211494,1,8,0:0:0:0:
232,340,211905,70,0,P|232:272|212:208,1,120
148,252,212316,2,0,P|160:300|156:332,1,80,8|2,0:0|0:0,0:0:0:0:
208,96,212727,38,0,P|204:136|208:184,1,80,0|2,0:0|0:0,0:0:0:0:
232,340,213138,1,8,0:0:0:0:
88,272,213344,1,2,0:0:0:0:
244,236,213549,2,0,L|296:224,2,40,0|0|2,0:0|0:0|0:0,0:0:0:0:
12,300,213960,2,0,P|8:248|28:216,1,80,8|2,0:0|0:0,0:0:0:0:
176,180,214371,70,0,L|312:144,1,120
368,168,214782,2,0,L|447:164,1,80,8|2,0:0|0:0,0:0:0:0:
312,224,215193,37,0,0:0:0:0:
92,232,215398,1,2,0:0:0:0:
204,276,215604,1,8,0:0:0:0:
64,116,215809,1,2,0:0:0:0:
204,276,216015,70,0,P|248:320|320:304,1,120,4|0,0:0|0:0,0:0:0:0:
272,248,216426,2,0,L|244:160,1,80,8|2,0:0|0:0,0:0:0:0:
172,84,216837,1,0,0:0:0:0:
172,84,216940,2,0,L|184:44,1,40,0|2,0:0|0:0,0:0:0:0:
81,185,217248,2,0,P|121:183|168:196,1,80,8|2,0:0|0:0,0:0:0:0:
373,299,217659,38,0,P|315:287|272:248,1,120
256,167,218070,2,0,P|263:129|256:89,1,80,8|2,0:0|0:0,0:0:0:0:
160,240,218481,1,0,0:0:0:0:
160,240,218583,2,0,L|108:264,1,40,0|2,0:0|0:0,0:0:0:0:
2,360,218892,2,0,P|42:360|80:348,1,80,8|2,0:0|0:0,0:0:0:0:
192,300,219303,69,0,0:0:0:0:
308,324,219508,1,2,0:0:0:0:
400,248,219713,1,8,0:0:0:0:
400,248,220124,38,0,P|412:200|392:164,1,80,0|2,0:0|0:0,0:0:0:0:
364,152,220433,1,0,0:0:0:0:
324,152,220535,1,8,0:0:0:0:
292,180,220638,1,0,0:0:0:0:
296,220,220741,1,2,0:0:0:0:
128,260,220946,69,0,0:0:0:0:
152,292,221049,1,0,0:0:0:0:
192,300,221152,1,2,0:0:0:0:
228,284,221255,1,0,0:0:0:0:
240,248,221357,1,8,0:0:0:0:
232,208,221460,1,0,0:0:0:0:
200,184,221563,1,2,0:0:0:0:
56,144,221768,102,0,B|100:112|168:104|168:104|88:96|96:36,1,210.000008010865,8|0,0:0|0:0,0:0:0:0:
96,59,222590,54,0,L|216:40,1,120,4|0,0:0|0:0,0:0:0:0:
264,104,223001,2,0,L|176:120,1,80,8|2,0:0|0:0,0:0:0:0:
344,144,223412,1,0,0:0:0:0:
360,352,223618,1,2,0:0:0:0:
412,244,223823,1,8,0:0:0:0:
344,344,224029,1,2,0:0:0:0:
412,244,224234,70,0,L|296:220,1,80,0|2,0:0|0:0,0:0:0:0:
256,244,224542,2,0,L|196:248,1,40,0|8,0:0|0:0,0:0:0:0:
108,300,224850,1,2,0:0:0:0:
108,300,225056,38,0,L|80:184,1,120
124,116,225467,2,0,L|136:72,2,40,8|0|2,0:0|0:0|0:0,0:0:0:0:
192,312,225878,70,0,P|252:336|320:316,1,120,0|0,0:0|0:0,0:0:0:0:
432,259,226289,2,0,P|393:251|356:264,1,80,8|2,0:0|0:0,0:0:0:0:
240,300,226700,1,0,0:0:0:0:
268,60,226905,1,2,0:0:0:0:
220,168,227111,1,8,0:0:0:0:
320,232,227316,1,2,0:0:0:0:
220,168,227522,38,0,P|184:164|132:184,1,80,0|2,0:0|0:0,0:0:0:0:
76,224,227830,2,0,P|60:252|68:272,1,40,0|8,0:0|0:0,0:0:0:0:
180,276,228138,1,2,0:0:0:0:
220,168,228344,2,0,L|320:156,1,80,0|2,0:0|0:0,0:0:0:0:
380,320,228755,2,0,L|456:308,2,40,8|0|2,0:0|0:0|0:0,0:0:0:0:
180,276,229166,70,0,P|112:336|20:324,1,160,4|8,0:0|0:0,0:0:0:0:
76,224,229782,1,2,0:0:0:0:
257,260,229987,2,0,P|218:264|180:275,1,80,0|2,0:0|0:0,0:0:0:0:
376,276,230398,1,8,0:0:0:0:
416,280,230501,1,0,0:0:0:0:
452,264,230604,1,2,0:0:0:0:
257,260,230809,38,0,P|220:216|244:144,1,120
300,196,231220,2,0,L|388:176,1,80,8|2,0:0|0:0,0:0:0:0:
257,260,231631,2,0,L|160:272,1,80,0|2,0:0|0:0,0:0:0:0:
72,320,232042,1,8,0:0:0:0:
112,324,232145,1,0,0:0:0:0:
148,336,232248,1,2,0:0:0:0:
420,324,232453,70,0,L|264:360,1,160,0|8,0:0|0:0,0:0:0:0:
264,360,233275,1,0,0:0:0:0:
312,164,233481,1,2,0:0:0:0:
224,248,233686,1,8,0:0:0:0:
224,248,234097,22,0,L|164:216,1,60.0000022888184,4|0,0:0|0:0,0:0:0:0:
104,80,234401,6,0,L|152:68,1,40
176,88,234713,2,0,L|240:76,1,60.0000022888184,2|0,0:0|0:0,0:0:0:0:
380,264,235135,6,0,L|328:256,1,40,2|0,0:0|0:0,0:0:0:0:
92,260,235554,6,0,L|104:228,1,20,2|0,0:0|0:0,0:0:0:0:
92,260,235721,38,0,P|120:320|188:324,1,120,4|0,0:0|0:0,0:0:0:0:
248,320,236131,2,0,L|348:320,1,80,8|2,0:0|0:0,0:0:0:0:
428,256,236542,2,0,L|368:196,1,80,0|2,0:0|0:0,0:0:0:0:
284,116,236953,1,8,0:0:0:0:
144,196,237159,1,2,0:0:0:0:
144,36,237364,37,0,0:0:0:0:
180,180,237775,1,8,0:0:0:0:
184,188,238186,70,0,P|224:188|268:200,1,80,0|2,0:0|0:0,0:0:0:0:
422,293,238597,2,0,P|382:293|344:284,1,80,8|2,0:0|0:0,0:0:0:0:
180,180,239008,38,0,P|128:144|56:132,1,120
8,180,239419,2,0,L|108:40,1,160,8|0,0:0|0:0,0:0:0:0:
116,44,239933,1,0,0:0:0:0:
132,40,240036,1,2,0:0:0:0:
236,100,240241,2,0,P|280:104|320:120,1,80,8|2,0:0|0:0,0:0:0:0:
436,248,240652,70,0,L|316:224,1,120
244,256,241063,2,0,L|148:252,1,80,8|2,0:0|0:0,0:0:0:0:
304,320,241474,37,0,0:0:0:0:
192,180,241679,1,2,0:0:0:0:
24,244,241885,1,8,0:0:0:0:
24,244,241988,1,0,0:0:0:0:
24,244,242090,1,2,0:0:0:0:
309,167,242296,70,0,P|249:164|192:180,1,120,4|0,0:0|0:0,0:0:0:0:
120,220,242707,2,0,P|104:184|60:152,1,80,8|2,0:0|0:0,0:0:0:0:
24,244,243118,1,0,0:0:0:0:
32,284,243221,1,0,0:0:0:0:
64,308,243323,1,2,0:0:0:0:
184,312,243529,2,0,P|226:299|280:296,1,80,8|2,0:0|0:0,0:0:0:0:
436,336,243940,37,0,0:0:0:0:
436,336,244351,1,8,0:0:0:0:
436,336,244762,1,0,0:0:0:0:
436,336,245173,2,0,L|464:292,2,40,8|0|2,0:0|0:0|0:0,0:0:0:0:
436,336,245584,70,0,P|384:304|316:296,1,120
248,292,245994,2,0,L|152:276,1,80,8|2,0:0|0:0,0:0:0:0:
48,296,246405,37,0,0:0:0:0:
84,180,246611,1,2,0:0:0:0:
68,144,246714,1,0,0:0:0:0:
72,104,246816,1,8,0:0:0:0:
100,76,246919,1,0,0:0:0:0:
140,68,247022,1,2,0:0:0:0:
84,180,247227,69,0,0:0:0:0:
124,176,247330,1,0,0:0:0:0:
152,204,247433,1,2,0:0:0:0:
152,244,247536,1,0,0:0:0:0:
124,272,247638,1,8,0:0:0:0:
84,264,247741,1,0,0:0:0:0:
68,228,247844,1,2,0:0:0:0:
192,312,248049,102,0,B|272:304|272:304|232:280|232:280|232:260,1,140,8|0,0:0|0:0,0:0:0:0:
256,192,248871,54,0,P|312:160|372:180,1,120,4|0,0:0|0:0,0:0:0:0:
320,240,249282,2,0,P|348:276|344:320,1,80,8|2,0:0|0:0,0:0:0:0:
236,268,249693,2,0,L|136:244,2,80,0|2|8,0:0|0:0|0:0,0:0:0:0:
408,212,250310,1,2,0:0:0:0:
308,144,250515,70,0,P|260:100|240:100,1,80,0|2,0:0|0:0,0:0:0:0:
172,120,250823,2,0,L|116:116,1,40,0|8,0:0|0:0,0:0:0:0:
228,188,251131,37,2,0:0:0:0:
208,304,251337,1,0,0:0:0:0:
116,228,251542,1,2,0:0:0:0:
328,280,251748,1,8,0:0:0:0:
368,288,251851,1,0,0:0:0:0:
404,308,251953,1,2,0:0:0:0:
500,236,252159,70,0,P|472:192|476:140,1,80,0|2,0:0|0:0,0:0:0:0:
484,88,252467,2,0,P|458:80|436:76,1,40,0|8,0:0|0:0,0:0:0:0:
328,104,252775,1,2,0:0:0:0:
208,120,252981,2,0,P|167:104|112:100,1,80,0|2,0:0|0:0,0:0:0:0:
131,284,253392,2,0,P|171:278|208:264,1,80,8|2,0:0|0:0,0:0:0:0:
116,188,253803,38,0,L|-4:184,2,120,0|2|2,0:0|0:0|0:0,0:0:0:0:
352,224,254625,1,0,0:0:0:0:
232,216,254830,1,2,0:0:0:0:
288,324,255036,1,8,0:0:0:0:
288,324,255138,1,0,0:0:0:0:
288,324,255241,1,2,0:0:0:0:
351,224,255447,70,0,P|385:177|378:119,1,120,4|0,0:0|0:0,0:0:0:0:
310,79,255857,2,0,P|299:117|308:156,1,80,8|2,0:0|0:0,0:0:0:0:
412,280,256268,2,0,L|460:300,2,40,0|0|2,0:0|0:0|0:0,0:0:0:0:
212,148,256679,2,0,L|137:121,1,80,8|2,0:0|0:0,0:0:0:0:
244,260,257090,38,0,L|112:216,1,120,0|2,0:0|0:0,0:0:0:0:
60,180,257501,2,0,P|52:128|84:88,1,80,8|2,0:0|0:0,0:0:0:0:
168,44,257912,1,0,0:0:0:0:
168,44,258323,1,8,0:0:0:0:
172,84,258426,1,0,0:0:0:0:
176,124,258529,1,2,0:0:0:0:
278,316,258734,70,0,P|260:256|296:200,1,120
340,266,259145,2,0,L|428:266,1,80,8|2,0:0|0:0,0:0:0:0:
468,172,259556,2,0,L|424:156,2,40,0|0|2,0:0|0:0|0:0,0:0:0:0:
348,176,259967,37,8,0:0:0:0:
164,208,260173,1,2,0:0:0:0:
256,192,260378,12,0,262035,0:0:0:0:
256,192,271764,12,0,275007,0:0:0:0:
120,88,275332,5,0,0:0:0:0:
120,88,275494,1,2,0:0:0:0:
313,61,275656,70,0,P|274:53|236:64,1,80,8|2,0:0|0:0,0:0:0:0:
172,164,275980,2,0,L|148:248,1,80,0|2,0:0|0:0,0:0:0:0:
196,352,276304,1,8,0:0:0:0:
316,332,276467,1,2,0:0:0:0:
76,312,276629,37,0,0:0:0:0:
76,312,276791,1,2,0:0:0:0:
257,240,276953,70,0,P|296:216|348:216,1,80,8|2,0:0|0:0,0:0:0:0:
448,240,277277,2,0,L|472:144,1,80,0|2,0:0|0:0,0:0:0:0:
412,56,277602,1,8,0:0:0:0:
296,84,277764,1,2,0:0:0:0:
248,320,277926,37,0,0:0:0:0:
248,320,278088,1,2,0:0:0:0:
115,185,278250,70,0,P|116:144|144:100,1,80,8|2,0:0|0:0,0:0:0:0:
296,84,278575,2,0,P|320:124|356:140,1,80,0|2,0:0|0:0,0:0:0:0:
456,192,278899,2,0,L|424:276,1,80,8|2,0:0|0:0,0:0:0:0:
88,324,279223,37,0,0:0:0:0:
268,336,279386,1,2,0:0:0:0:
120,236,279548,70,0,P|96:204|104:140,1,80,8|2,0:0|0:0,0:0:0:0:
140,56,279872,1,0,0:0:0:0:
236,128,280034,1,2,0:0:0:0:
208,244,280196,1,8,0:0:0:0:
320,204,280359,1,2,0:0:0:0:
156,132,280521,37,0,0:0:0:0:
336,288,280683,1,2,0:0:0:0:
140,320,280845,70,0,P|92:328|40:308,1,80,8|2,0:0|0:0,0:0:0:0:
14,204,281169,2,0,P|52:196|92:204,1,80,0|2,0:0|0:0,0:0:0:0:
208,244,281494,1,8,0:0:0:0:
320,204,281656,1,2,0:0:0:0:
172,104,281818,37,0,0:0:0:0:
80,260,281980,1,2,0:0:0:0:
320,204,282142,70,0,P|312:168|344:104,1,80,8|2,0:0|0:0,0:0:0:0:
192,180,282467,2,0,P|200:216|168:280,1,80,0|2,0:0|0:0,0:0:0:0:
112,55,282791,2,0,P|149:71|172:104,1,80,8|2,0:0|0:0,0:0:0:0:
16,192,283115,37,0,0:0:0:0:
196,188,283277,1,2,0:0:0:0:
407,304,283440,70,0,L|328:312,1,80,8|2,0:0|0:0,0:0:0:0:
104,304,283764,2,0,L|184:312,1,80,0|2,0:0|0:0,0:0:0:0:
292,252,284088,1,8,0:0:0:0:
280,136,284250,37,2,0:0:0:0:
252,104,284332,1,0,0:0:0:0:
216,92,284413,1,0,0:0:0:0:
96,108,284575,1,2,0:0:0:0:
64,132,284656,1,0,0:0:0:0:
48,168,284737,69,8,0:0:0:0:
60,208,284818,1,0,0:0:0:0:
100,208,284899,1,2,0:0:0:0:
132,232,284980,1,0,0:0:0:0:
152,268,285061,1,0,0:0:0:0:
144,308,285142,1,0,0:0:0:0:
120,340,285223,1,2,0:0:0:0:
80,348,285304,1,0,0:0:0:0:
40,340,285386,1,8,0:0:0:0:
16,308,285467,1,0,0:0:0:0:
8,268,285548,1,2,0:0:0:0:
24,232,285629,1,0,0:0:0:0:
60,208,285710,38,0,L|56:116,1,80,4|2,0:0|0:0,0:0:0:0:
128,32,286034,1,8,0:0:0:0:
184,136,286196,1,2,0:0:0:0:
264,44,286359,69,0,0:0:0:0:
304,44,286440,1,0,0:0:0:0:
336,68,286521,1,2,0:0:0:0:
356,104,286602,1,0,0:0:0:0:
356,144,286683,1,8,0:0:0:0:
328,172,286764,1,0,0:0:0:0:
288,172,286845,1,2,0:0:0:0:
252,188,286926,1,0,0:0:0:0:
244,228,287007,37,0,0:0:0:0:
132,272,287169,1,2,0:0:0:0:
124,152,287332,2,0,P|96:124|40:120,1,80,8|2,0:0|0:0,0:0:0:0:
48,236,287656,69,0,0:0:0:0:
100,344,287818,1,2,0:0:0:0:
140,352,287899,1,0,0:0:0:0:
176,340,287980,1,8,0:0:0:0:
204,312,288061,1,0,0:0:0:0:
212,272,288142,1,2,0:0:0:0:
200,232,288223,1,8,0:0:0:0:
172,204,288304,37,8,0:0:0:0:
320,308,288467,1,2,0:0:0:0:
300,192,288629,70,0,P|284:156|300:104,1,80,8|2,0:0|0:0,0:0:0:0:
388,188,288953,2,0,P|420:165|474:172,1,80,0|2,0:0|0:0,0:0:0:0:
344,264,289277,1,8,0:0:0:0:
240,328,289440,1,2,0:0:0:0:
200,332,289521,1,0,0:0:0:0:
164,320,289602,37,0,0:0:0:0:
60,172,289764,1,2,0:0:0:0:
180,224,289926,2,0,P|200:184|184:144,1,80,8|2,0:0|0:0,0:0:0:0:
100,72,290250,69,0,0:0:0:0:
188,240,290413,1,2,0:0:0:0:
108,64,290575,1,8,0:0:0:0:
212,124,290737,1,10,0:0:0:0:
244,104,290818,1,8,0:0:0:0:
284,100,290899,38,0,L|363:90,1,80,0|2,0:0|0:0,0:0:0:0:
108,184,291223,1,8,0:0:0:0:
212,124,291386,1,2,0:0:0:0:
296,208,291548,69,0,0:0:0:0:
332,188,291629,1,0,0:0:0:0:
372,188,291710,1,2,0:0:0:0:
499,296,291872,2,0,P|459:304|420:308,1,80,8|2,0:0|0:0,0:0:0:0:
380,304,292115,1,0,0:0:0:0:
340,292,292196,38,0,P|296:288|260:292,1,80,0|2,0:0|0:0,0:0:0:0:
224,308,292440,1,0,0:0:0:0:
184,316,292521,2,0,P|140:320|96:308,1,80,8|2,0:0|0:0,0:0:0:0:
20,228,292845,69,0,0:0:0:0:
36,192,292926,1,0,0:0:0:0:
72,172,293007,1,2,0:0:0:0:
192,180,293169,2,0,P|232:188|280:168,1,80,8|2,0:0|0:0,0:0:0:0:
296,148,293413,1,8,0:0:0:0:
316,112,293494,38,0,P|312:76|320:28,1,80,0|2,0:0|0:0,0:0:0:0:
400,192,293818,1,8,0:0:0:0:
304,264,293980,2,0,P|264:256|208:276,1,80,2|0,0:0|0:0,0:0:0:0:
42,324,294304,2,0,P|81:332|120:324,1,80,2|8,0:0|0:0,0:0:0:0:
316,248,294629,2,0,P|276:240|220:260,1,80,2|0,0:0|0:0,0:0:0:0:
28,340,294953,69,2,0:0:0:0:
112,256,295115,1,8,0:0:0:0:
12,192,295277,37,2,0:0:0:0:
4,164,295359,1,0,0:0:0:0:
8,136,295440,1,0,0:0:0:0:
24,112,295521,1,0,0:0:0:0:
52,100,295602,1,2,0:0:0:0:
80,100,295683,1,0,0:0:0:0:
104,116,295764,1,8,0:0:0:0:
116,140,295845,1,0,0:0:0:0:
116,168,295926,1,10,0:0:0:0:
104,192,296007,1,0,0:0:0:0:
88,216,296088,70,0,L|188:208,1,80,4|2,0:0|0:0,0:0:0:0:
396,276,296413,1,8,0:0:0:0:
404,288,296737,38,0,P|360:292|316:272,1,80,0|2,0:0|0:0,0:0:0:0:
264,180,297061,2,0,L|244:76,1,80,8|2,0:0|0:0,0:0:0:0:
136,60,297386,69,0,0:0:0:0:
144,180,297548,1,2,0:0:0:0:
224,268,297710,2,0,P|262:277|295:299,1,80,8|2,0:0|0:0,0:0:0:0:
104,268,298034,2,0,P|65:277|32:299,1,80,0|2,0:0|0:0,0:0:0:0:
164,348,298359,1,8,0:0:0:0:
196,368,298440,1,8,0:0:0:0:
236,368,298521,1,10,0:0:0:0:
268,344,298602,1,8,0:0:0:0:
276,304,298683,38,0,L|284:208,1,80,0|2,0:0|0:0,0:0:0:0:
300,44,299007,2,0,P|232:116|180:88,1,160,8|0,0:0|0:0,0:0:0:0:
96,20,299494,1,2,0:0:0:0:
236,208,299656,2,0,L|315:215,1,80,8|2,0:0|0:0,0:0:0:0:
420,276,299980,69,0,0:0:0:0:
484,376,300142,1,2,0:0:0:0:
452,200,300304,2,2,L|440:120,1,80,8|2,0:0|0:0,0:0:0:0:
360,32,300629,1,0,0:0:0:0:
360,32,300710,1,0,0:0:0:0:
360,32,300791,1,2,0:0:0:0:
256,92,300953,1,8,0:0:0:0:
220,76,301034,1,0,0:0:0:0:
180,76,301115,1,2,0:0:0:0:
144,92,301196,1,8,0:0:0:0:
116,120,301277,38,0,L|50:73,1,80,4|2,0:0|0:0,0:0:0:0:
176,224,301602,1,8,0:0:0:0:
180,232,301926,69,0,0:0:0:0:
384,256,302088,1,2,0:0:0:0:
204,332,302250,2,0,P|243:326|276:304,1,80,8|2,0:0|0:0,0:0:0:0:
88,308,302575,37,0,0:0:0:0:
80,80,302737,1,2,0:0:0:0:
44,196,302899,69,8,0:0:0:0:
44,196,303061,1,2,0:0:0:0:
152,144,303223,1,0,0:0:0:0:
192,136,303304,1,0,0:0:0:0:
232,148,303386,2,0,L|332:132,1,80,2|8,0:0|0:0,0:0:0:0:
428,160,303710,2,0,L|480:152,1,40,10|0,0:0|0:0,0:0:0:0:
412,180,303872,38,0,P|388:204|396:268,1,80,0|2,0:0|0:0,0:0:0:0:
456,344,304196,2,0,L|280:328,1,160,8|0,0:0|0:0,0:0:0:0:
64,336,304683,1,2,0:0:0:0:
180,308,304845,2,0,P|200:268|192:216,1,80,8|2,0:0|0:0,0:0:0:0:
64,116,305169,69,0,0:0:0:0:
72,132,305494,1,8,0:0:0:0:
80,148,305818,1,0,0:0:0:0:
88,164,306142,1,8,0:0:0:0:
408,308,306467,37,4,0:0:0:0:
404,292,306791,1,8,0:0:0:0:
412,324,307115,1,0,0:0:0:0:
400,276,307440,1,8,0:0:0:0:
44,268,307764,69,0,0:0:0:0:
280,316,307926,1,0,0:0:0:0:
160,296,308088,37,8,0:0:0:0:
164,304,308413,1,0,0:0:0:0:
168,312,308737,69,8,0:0:0:0:
420,148,309061,1,0,0:0:0:0:
224,292,309386,1,8,0:0:0:0:
132,80,309710,1,0,0:0:0:0:
128,72,310034,1,8,0:0:0:0:
356,172,310359,37,0,0:0:0:0:
184,128,310521,1,0,0:0:0:0:
244,232,310683,1,8,0:0:0:0:
32,344,311007,70,0,L|192:324,1,160,0|8,0:0|0:0,0:0:0:0:
36,340,311656,37,0,0:0:0:0:
44,332,311818,1,2,0:0:0:0:
52,324,311980,1,8,0:0:0:0:
60,316,312142,1,2,0:0:0:0:
88,200,312304,69,0,0:0:0:0:
112,224,312467,1,2,0:0:0:0:
72,184,312629,37,8,0:0:0:0:
124,236,312791,1,2,0:0:0:0:
268,232,312953,69,0,0:0:0:0:
264,244,313034,1,0,0:0:0:0:
264,256,313115,1,2,0:0:0:0:
264,268,313196,1,0,0:0:0:0:
268,280,313277,2,0,P|288:316|312:328,1,60,8|0,0:0|0:0,0:0:0:0:
332,332,313602,6,0,P|392:296|396:244,1,120.000004577637,0|0,0:0|0:0,0:0:0:0:
328,192,314088,1,0,0:0:0:0:
132,89,314250,22,0,P|169:102|201:127,1,80,4|2,0:0|0:0,0:0:0:0:
216,248,314575,2,0,L|208:327,1,80,8|2,0:0|0:0,0:0:0:0:
292,156,314899,1,0,0:0:0:0:
412,168,315061,1,2,0:0:0:0:
364,56,315223,2,0,P|321:40|276:40,1,80,8|2,0:0|0:0,0:0:0:0:
248,48,315467,1,0,0:0:0:0:
208,56,315548,70,0,P|168:56|116:40,1,80,0|2,0:0|0:0,0:0:0:0:
12,20,315872,1,8,0:0:0:0:
76,124,316034,1,2,0:0:0:0:
40,236,316196,1,0,0:0:0:0:
40,236,316277,1,0,0:0:0:0:
40,236,316359,1,2,0:0:0:0:
136,308,316521,2,0,P|176:295|224:296,1,80,8|2,0:0|0:0,0:0:0:0:
444,356,316845,37,0,0:0:0:0:
476,240,317007,1,2,0:0:0:0:
360,208,317169,1,8,0:0:0:0:
328,328,317331,1,2,0:0:0:0:
264,132,317494,2,0,P|236:100|192:80,1,80,0|2,0:0|0:0,0:0:0:0:
27,70,317818,2,0,P|52:101|88:120,1,80,8|2,0:0|0:0,0:0:0:0:
128,128,318061,1,0,0:0:0:0:
168,124,318142,70,0,L|160:212,1,80,0|2,0:0|0:0,0:0:0:0:
148,324,318467,1,8,0:0:0:0:
256,268,318629,1,2,0:0:0:0:
360,332,318791,2,0,P|400:336|440:320,1,80,0|2,0:0|0:0,0:0:0:0:
492,216,319115,1,8,0:0:0:0:
432,112,319277,37,2,0:0:0:0:
396,92,319359,1,0,0:0:0:0:
356,84,319440,1,0,0:0:0:0:
240,116,319602,2,0,L|164:90,1,80,2|8,0:0|0:0,0:0:0:0:
392,232,319926,2,0,L|316:208,1,80,2|0,0:0|0:0,0:0:0:0:
120,300,320250,2,0,L|198:283,1,80,2|8,0:0|0:0,0:0:0:0:
12,244,320575,1,2,0:0:0:0:
40,216,320656,1,0,0:0:0:0:
44,176,320737,70,0,L|60:92,1,80,0|2,0:0|0:0,0:0:0:0:
164,44,321061,1,8,0:0:0:0:
256,120,321223,1,2,0:0:0:0:
352,48,321386,1,0,0:0:0:0:
392,44,321467,1,0,0:0:0:0:
432,56,321548,1,2,0:0:0:0:
496,160,321710,1,8,0:0:0:0:
380,192,321872,37,2,0:0:0:0:
344,208,321953,1,0,0:0:0:0:
304,212,322034,1,0,0:0:0:0:
188,240,322196,2,0,L|88:208,1,80,2|8,0:0|0:0,0:0:0:0:
148,100,322521,2,0,L|104:16,1,80,2|0,0:0|0:0,0:0:0:0:
268,116,322845,2,0,L|360:128,1,80,2|8,0:0|0:0,0:0:0:0:
196,208,323169,2,0,P|204:236|172:288,1,80,2|0,0:0|0:0,0:0:0:0:
176,288,323413,69,0,0:0:0:0:
168,296,323494,1,2,0:0:0:0:
156,304,323575,1,0,0:0:0:0:
144,308,323656,1,0,0:0:0:0:
132,312,323737,1,0,0:0:0:0:
120,312,323818,1,2,0:0:0:0:
108,312,323899,1,0,0:0:0:0:
96,312,323980,6,0,P|28:260|24:224,1,120.000004577637,0|0,0:0|0:0,0:0:0:0:
52,144,324467,1,0,0:0:0:0:
108,228,324629,22,0,P|144:204|192:200,1,80,4|2,0:0|0:0,0:0:0:0:
296,236,324953,2,0,L|396:224,1,80,8|2,0:0|0:0,0:0:0:0:
484,176,325277,1,0,0:0:0:0:
452,292,325440,1,2,0:0:0:0:
352,144,325602,1,8,0:0:0:0:
336,108,325683,1,0,0:0:0:0:
300,88,325764,1,2,0:0:0:0:
260,84,325845,1,0,0:0:0:0:
220,92,325926,70,0,L|132:76,1,80,0|2,0:0|0:0,0:0:0:0:
44,148,326250,2,0,L|140:164,1,80,8|2,0:0|0:0,0:0:0:0:
216,236,326575,1,0,0:0:0:0:
228,272,326656,1,0,0:0:0:0:
240,312,326737,1,2,0:0:0:0:
204,200,326899,2,0,P|240:176|296:176,1,80,8|2,0:0|0:0,0:0:0:0:
316,180,327142,1,0,0:0:0:0:
356,184,327223,38,0,L|452:160,1,80,0|2,0:0|0:0,0:0:0:0:
340,88,327548,2,0,L|252:56,1,80,8|2,0:0|0:0,0:0:0:0:
152,104,327872,1,0,0:0:0:0:
152,104,327953,2,0,L|96:112,1,40,0|2,0:0|0:0,0:0:0:0:
44,208,328196,1,8,0:0:0:0:
80,220,328277,1,0,0:0:0:0:
104,252,328359,1,2,0:0:0:0:
100,292,328440,1,0,0:0:0:0:
76,324,328521,70,0,L|164:312,1,80,0|2,0:0|0:0,0:0:0:0:
272,332,328845,2,0,L|372:316,1,80,8|2,0:0|0:0,0:0:0:0:
472,324,329169,1,0,0:0:0:0:
472,324,329250,2,0,L|512:344,1,40,0|2,0:0|0:0,0:0:0:0:
472,228,329494,1,8,0:0:0:0:
444,200,329575,1,0,0:0:0:0:
408,184,329656,1,2,0:0:0:0:
368,180,329737,1,0,0:0:0:0:
328,184,329818,1,0,0:0:0:0:
216,140,329980,38,0,P|188:108|140:92,1,80,2|8,0:0|0:0,0:0:0:0:
154,290,330304,2,0,P|190:274|216:244,1,80,2|0,0:0|0:0,0:0:0:0:
36,192,330629,2,0,L|116:192,1,80,2|8,0:0|0:0,0:0:0:0:
216,244,330953,1,2,0:0:0:0:
252,256,331034,1,0,0:0:0:0:
292,256,331115,69,0,0:0:0:0:
408,220,331277,1,2,0:0:0:0:
320,136,331440,2,0,P|340:92|336:56,1,80,8|2,0:0|0:0,0:0:0:0:
232,4,331764,2,0,L|184:24,2,40,0|0|2,0:0|0:0|0:0,0:0:0:0:
160,100,332088,1,8,0:0:0:0:
80,192,332250,37,2,0:0:0:0:
68,232,332331,1,0,0:0:0:0:
56,272,332413,1,0,0:0:0:0:
164,216,332575,2,0,L|276:200,1,80,2|8,0:0|0:0,0:0:0:0:
256,324,332899,2,0,L|360:340,1,80,2|0,0:0|0:0,0:0:0:0:
476,256,333223,2,0,L|392:240,1,80,2|8,0:0|0:0,0:0:0:0:
164,308,333548,1,2,0:0:0:0:
136,276,333629,1,0,0:0:0:0:
116,240,333710,70,0,P|96:196|116:144,1,80,0|2,0:0|0:0,0:0:0:0:
172,68,334034,1,8,0:0:0:0:
288,40,334196,38,0,P|328:40|376:60,1,80,2|0,0:0|0:0,0:0:0:0:
223,344,334521,2,0,P|184:344|146:330,1,80,2|8,0:0|0:0,0:0:0:0:
256,192,334845,1,2,0:0:0:0:
340,308,335007,85,4,0:0:0:0:
256,192,335088,12,0,340034,0:0:0:0:
256,312,340196,37,4,0:0:0:0:
256,192,340277,12,0,343926,0:0:0:0:
256,192,344088,53,0,0:0:0:0:
276,212,344169,1,0,0:0:0:0:
296,232,344250,1,2,0:0:0:0:
316,252,344331,1,0,0:0:0:0:
336,272,344413,1,8,0:0:0:0:
352,296,344494,1,0,0:0:0:0:
364,320,344575,1,2,0:0:0:0:
388,304,344656,1,0,0:0:0:0:
412,288,344737,38,0,L|472:280,1,40
380,196,344899,2,0,L|432:172,1,40,2|0,0:0|0:0,0:0:0:0:
316,124,345061,2,0,L|344:72,1,40,10|0,0:0|0:0,0:0:0:0:
220,92,345223,2,0,L|224:32,1,40,2|0,0:0|0:0,0:0:0:0:
120,112,345386,69,4,0:0:0:0:
44,340,345710,1,8,0:0:0:0:
64,220,345872,1,2,0:0:0:0:
172,276,346034,1,0,0:0:0:0:
208,264,346115,1,0,0:0:0:0:
248,276,346196,1,2,0:0:0:0:
268,312,346277,1,0,0:0:0:0:
260,352,346359,1,8,0:0:0:0:
376,320,346521,2,0,P|392:312|440:308,1,40,2|2,0:0|0:0,0:0:0:0:
376,320,346683,38,0,L|360:232,1,80,0|2,0:0|0:0,0:0:0:0:
360,120,347007,2,0,P|332:80|272:76,1,80,8|2,0:0|0:0,0:0:0:0:
184,84,347331,1,0,0:0:0:0:
152,108,347413,1,0,0:0:0:0:
148,148,347494,2,0,L|88:212,1,80,2|8,0:0|0:0,0:0:0:0:
64,324,347818,2,0,L|24:304,1,40,2|2,0:0|0:0,0:0:0:0:
64,324,347980,70,0,P|101:298|152:292,1,80,0|2,0:0|0:0,0:0:0:0:
252,304,348304,1,8,0:0:0:0:
336,172,348467,1,2,0:0:0:0:
208,96,348629,1,0,0:0:0:0:
200,136,348710,1,0,0:0:0:0:
212,172,348791,1,2,0:0:0:0:
336,172,348953,2,0,P|356:132|340:84,1,80,8|2,0:0|0:0,0:0:0:0:
320,72,349196,1,2,0:0:0:0:
280,60,349277,38,0,L|200:40,1,80,0|2,0:0|0:0,0:0:0:0:
35,98,349602,2,0,P|72:116|88:164,1,80,8|2,0:0|0:0,0:0:0:0:
64,268,349926,2,0,L|36:304,2,40,0|0|2,0:0|0:0|0:0,0:0:0:0:
172,220,350250,2,0,P|212:208|272:220,1,80,8|2,0:0|0:0,0:0:0:0:
288,228,350494,1,2,0:0:0:0:
320,252,350575,70,0,L|480:232,1,160,4|8,0:0|0:0,0:0:0:0:
272,112,351223,2,0,L|324:80,2,40,0|0|2,0:0|0:0|0:0,0:0:0:0:
74,111,351548,2,0,P|114:115|160:144,1,80,8|2,0:0|0:0,0:0:0:0:
176,160,351791,1,2,0:0:0:0:
188,200,351872,38,0,L|208:288,1,80,0|2,0:0|0:0,0:0:0:0:
308,340,352196,2,0,P|300:296|328:248,1,80,8|2,0:0|0:0,0:0:0:0:
424,216,352521,1,0,0:0:0:0:
424,216,352602,1,0,0:0:0:0:
424,216,352683,1,2,0:0:0:0:
348,120,352845,2,0,P|308:104|256:104,1,80,8|2,0:0|0:0,0:0:0:0:
232,108,353088,1,2,0:0:0:0:
192,116,353169,70,0,B|156:100|83:100|83:100|136:68,1,160,4|8,0:0|0:0,0:0:0:0:
232,24,353656,1,2,0:0:0:0:
352,40,353818,1,0,0:0:0:0:
388,60,353899,1,0,0:0:0:0:
408,96,353980,1,2,0:0:0:0:
424,216,354142,2,0,L|408:296,1,80,8|2,0:0|0:0,0:0:0:0:
384,328,354386,1,2,0:0:0:0:
352,356,354467,38,0,P|312:344|268:344,1,80,0|2,0:0|0:0,0:0:0:0:
156,340,354791,2,0,L|64:320,1,80,8|2,0:0|0:0,0:0:0:0:
8,224,355115,1,0,0:0:0:0:
128,204,355277,1,2,0:0:0:0:
156,172,355359,1,0,0:0:0:0:
160,132,355440,2,0,P|128:96|92:72,1,80,8|2,0:0|0:0,0:0:0:0:
256,192,355764,5,4,0:3:0:0:
256,192,355845,12,0,358359,0:0:0:0:
364,292,365723,102,0,L|424:280,2,60,4|0|8,3:0|0:0|0:0,0:0:0:0:
256,344,366750,1,0,0:0:0:0:
204,256,366955,2,0,L|184:232,1,20,2|0,3:0|0:0,0:0:0:0:
184,276,367161,2,0,L|152:268,1,20,2|0,3:0|0:0,0:0:0:0:
184,304,367366,102,0,L|120:320,2,60,4|0|8,3:0|0:0|0:0,0:0:0:0:
328,236,368394,1,0,0:0:0:0:
316,156,368599,2,0,L|320:124,1,20,2|0,3:0|0:0,0:0:0:0:
288,164,368805,2,0,L|272:140,1,20,2|0,3:0|0:0,0:0:0:0:
264,184,369010,6,0,L|204:160,2,60,4|0|8,3:0|0:0|0:0,0:0:0:0:
284,344,370038,1,0,0:0:0:0:
212,308,370243,2,0,L|192:268,1,40,2|2,3:0|3:0,0:0:0:0:
160,252,370551,1,0,0:0:0:0:
132,224,370654,102,0,L|104:168,2,60,4|0|8,3:0|0:0|0:0,0:0:0:0:
292,216,371681,1,0,0:0:0:0:
372,228,371887,2,0,L|392:204,1,20,2|0,3:0|0:0,0:0:0:0:
396,252,372092,2,0,L|432:248,1,20,2|0,3:0|0:0,0:0:0:0:
396,284,372298,22,0,L|416:304,3,20,4|0|2|0,0:0|0:0|0:0|0:0,0:0:0:0:
372,312,372709,102,0,L|384:344,3,20,8|0|2|0,0:0|0:0|0:0|0:0,0:0:0:0:
340,328,373120,2,0,L|336:356,3,20,0|0|2|0,0:0|0:0|0:0|0:0,0:0:0:0:
308,320,373531,2,0,L|292:340,3,20,8|0|2|0,0:0|0:0|0:0|0:0,0:0:0:0:
300,296,373942,5,4,0:0:0:0:
300,276,374044,101,0,0:0:0:0:
300,256,374147,1,0,0:0:0:0:
292,236,374250,1,0,0:0:0:0:
276,220,374353,1,2,0:0:0:0:
260,212,374455,1,0,0:0:0:0:
240,208,374558,1,0,0:0:0:0:
220,208,374661,1,0,0:0:0:0:
200,216,374764,101,2,0:0:0:0:
184,228,374866,1,0,0:0:0:0:
172,244,374969,1,0,0:0:0:0:
160,260,375072,1,0,0:0:0:0:
140,268,375175,1,2,0:0:0:0:
120,264,375277,1,0,0:0:0:0:
104,252,375380,1,0,0:0:0:0:
96,236,375483,1,0,0:0:0:0:
92,216,375586,21,4,0:0:0:0:
92,184,375688,101,0,0:0:0:0:
108,156,375790,1,2,0:0:0:0:
136,140,375893,1,0,0:0:0:0:
168,136,375995,1,2,0:0:0:0:
200,148,376097,1,0,0:0:0:0:
224,168,376200,1,2,0:0:0:0:
240,196,376302,1,0,0:0:0:0:
244,228,376405,101,2,0:0:0:0:
228,256,376507,1,0,0:0:0:0:
200,272,376609,1,2,0:0:0:0:
188,300,376712,1,0,0:0:0:0:
192,332,376814,1,2,0:0:0:0:
212,356,376917,1,0,0:0:0:0:
244,364,377019,1,2,0:0:0:0:
276,356,377121,1,0,0:0:0:0:
300,336,377224,22,0,L|344:344,1,26.6666666666667
308,296,377360,2,0,L|344:292,1,26.6666666666667
300,256,377497,2,0,L|336:248,1,26.6666666666667
280,220,377633,2,0,L|304:208,1,26.6666666666667
252,192,377770,2,0,L|272:168,1,26.6666666666667
212,184,377906,2,0,L|228:136,1,26.6666666666667
176,196,378043,2,0,L|160:152,1,26.6666666666667
152,228,378179,2,0,L|120:208,1,26.6666666666667
156,268,378316,2,0,L|124:268,1,26.6666666666667
180,292,378452,70,2,P|140:320|88:312,1,90.0000034332277,4|0,0:0|0:0,0:0:0:0:
120,240,378865,38,0,L|104:148,1,80,4|2,0:0|0:0,0:0:0:0:
228,64,379275,2,0,P|272:60|312:76,1,80,8|2,0:0|0:0,0:0:0:0:
441,278,379686,2,0,P|400:272|368:248,1,80,0|2,0:0|0:0,0:0:0:0:
156,104,380097,2,0,P|192:140|264:136,1,120,8|0,0:0|0:0,0:0:0:0:
304,79,380508,22,0,L|400:64,1,80,4|2,0:0|0:0,0:0:0:0:
256,272,380919,2,0,L|188:336,1,80,8|2,0:0|0:0,0:0:0:0:
128,96,381330,2,0,L|184:156,1,80,0|2,0:0|0:0,0:0:0:0:
363,243,381741,2,0,P|304:238|256:271,1,120,8|0,0:0|0:0,0:0:0:0:
220,344,382152,86,0,L|132:332,1,80,4|2,0:0|0:0,0:0:0:0:
132,100,382563,2,0,L|196:180,1,80,8|2,0:0|0:0,0:0:0:0:
447,232,382974,2,0,L|368:244,1,80,0|2,0:0|0:0,0:0:0:0:
248,252,383385,1,8,0:0:0:0:
88,332,383591,1,2,0:0:0:0:
336,160,383796,22,0,B|328:84|328:84|284:108|244:84,1,160,4|8,0:0|0:0,0:0:0:0:
176,180,384412,1,2,0:0:0:0:
288,20,384618,1,8,0:0:0:0:
292,28,385029,1,8,0:0:0:0:
288,68,385132,1,0,0:0:0:0:
268,104,385234,1,2,0:0:0:0:
97,184,385440,86,0,P|136:175|176:180,1,80,4|2,0:0|0:0,0:0:0:0:
399,247,385851,2,0,L|320:244,1,80,8|2,0:0|0:0,0:0:0:0:
56,306,386262,2,0,L|136:288,1,80,0|2,0:0|0:0,0:0:0:0:
408,120,386673,2,0,P|349:119|308:160,1,120,8|0,0:0|0:0,0:0:0:0:
380,196,387084,22,0,L|368:288,1,80,4|2,0:0|0:0,0:0:0:0:
136,332,387495,2,0,P|140:288|172:248,1,80,8|2,0:0|0:0,0:0:0:0:
329,82,387906,2,0,L|308:160,1,80,0|2,0:0|0:0,0:0:0:0:
284,340,388317,2,0,P|296:276|260:232,1,120,8|0,0:0|0:0,0:0:0:0:
184,232,388728,86,0,L|104:200,1,80,4|2,0:0|0:0,0:0:0:0:
284,340,389138,2,0,P|320:328|368:328,1,80,8|2,0:0|0:0,0:0:0:0:
444,236,389549,2,0,P|443:196|431:158,1,80,0|2,0:0|0:0,0:0:0:0:
328,96,389960,2,0,L|204:80,1,120,8|0,0:0|0:0,0:0:0:0:
136,112,390371,22,0,B|120:160|96:176|96:176|116:208|88:256|88:256|136:248|168:280,1,240,4|2,0:0|0:0,0:0:0:0:
244,358,391193,2,0,B|216:328|216:328|164:372|108:332,1,160,0|8,0:0|0:0,0:0:0:0:
96,316,391707,1,0,0:0:0:0:
84,300,391810,1,2,0:0:0:0:
88,80,392015,85,4,0:0:0:0:
36,188,392221,1,2,0:0:0:0:
164,60,392426,1,8,0:0:0:0:
172,68,392837,1,0,0:0:0:0:
208,88,392940,1,0,0:0:0:0:
248,88,393043,1,2,0:0:0:0:
443,54,393248,2,0,L|364:64,1,80,8|2,0:0|0:0,0:0:0:0:
484,76,393659,22,0,L|392:84,1,80,4|2,0:0|0:0,0:0:0:0:
288,200,394070,2,0,L|196:208,1,80,8|2,0:0|0:0,0:0:0:0:
84,336,394481,2,0,L|4:342,1,80,0|2,0:0|0:0,0:0:0:0:
200,368,394892,1,8,0:0:0:0:
164,252,395097,1,2,0:0:0:0:
123,75,395303,86,0,P|157:97|176:132,1,80,4|2,0:0|0:0,0:0:0:0:
200,368,395714,2,0,P|232:334|276:332,1,80,8|2,0:0|0:0,0:0:0:0:
444,348,396125,2,0,B|436:328|416:320|416:320|432:312|412:268,1,80,0|2,0:0|0:0,0:0:0:0:
416,76,396536,1,8,0:0:0:0:
356,180,396741,1,2,0:0:0:0:
140,72,396947,22,0,B|148:96|148:96|128:116|128:116|156:144,1,80,4|0,0:0|0:0,0:0:0:0:
184,312,397358,2,0,B|192:288|192:288|180:272|180:272|193:259|216:220,1,80,8|2,0:0|0:0,0:0:0:0:
416,76,397769,2,0,B|428:104|428:104|392:120|392:120|436:148|424:212,1,160,0|8,0:0|0:0,0:0:0:0:
400,316,398385,1,2,0:0:0:0:
356,180,398591,86,0,P|328:152|324:104,1,80,4|2,0:0|0:0,0:0:0:0:
156,204,399001,2,0,P|184:232|188:280,1,80,8|2,0:0|0:0,0:0:0:0:
88,340,399412,2,0,L|8:368,1,80,0|2,0:0|0:0,0:0:0:0:
152,200,399823,2,0,P|136:164|156:112,1,80,8|2,0:0|0:0,0:0:0:0:
248,64,400234,22,0,L|344:48,1,80,4|2,0:0|0:0,0:0:0:0:
208,188,400645,2,0,L|300:196,1,80,8|2,0:0|0:0,0:0:0:0:
128,280,401056,2,0,L|224:332,1,80,0|2,0:0|0:0,0:0:0:0:
72,192,401467,1,8,0:0:0:0:
144,96,401673,1,2,0:0:0:0:
260,128,401878,86,0,L|280:84,3,40,4|0|2|0,0:0|0:0|0:0|0:0,0:0:0:0:
280,152,402289,102,0,L|316:128,3,40,8|0|2|0,0:0|0:0|0:0|0:0,0:0:0:0:
292,188,402700,2,0,L|340:176,3,40,0|0|2|0,0:0|0:0|0:0|0:0,0:0:0:0:
292,224,403111,2,0,L|336:224,3,40,8|0|2|0,0:0|0:0|0:0|0:0,0:0:0:0:
276,248,403522,5,4,0:0:0:0:
275,287,403625,101,0,0:0:0:0:
254,320,403728,1,2,0:0:0:0:
218,337,403830,1,0,0:0:0:0:
179,333,403933,1,8,0:0:0:0:
149,308,404036,1,0,0:0:0:0:
136,270,404138,1,2,0:0:0:0:
145,232,404241,1,0,0:0:0:0:
173,204,404344,102,0,L|220:188,1,40,0|0,0:0|0:0,0:0:0:0:
220,96,404549,2,0,L|276:100,1,40,2|0,0:0|0:0,0:0:0:0:
340,48,404755,2,0,L|372:96,1,40,8|0,0:0|0:0,0:0:0:0:
440,136,404960,2,0,L|424:192,1,40,2|0,0:0|0:0,0:0:0:0:
384,284,405166,22,0,L|392:260,5,20.0000007629395,4|0|0|2|0|0,0:0|0:0|0:0|0:0|0:0|0:0,0:0:0:0:
348,296,405571,2,0,L|344:268,5,20.0000007629395,4|0|0|2|0|0,0:0|0:0|0:0|0:0|0:0|0:0,0:0:0:0:
312,276,405977,70,2,L|320:232,1,40,0|2,0:0|0:0,0:0:0:0:
332,164,406282,38,0,P|344:124|320:76,1,80,4|2,0:0|0:0,0:0:0:0:
300,64,406590,1,0,0:0:0:0:
264,52,406692,2,0,L|164:28,1,80,8|2,0:0|0:0,0:0:0:0:
64,240,407103,2,0,L|142:224,2,80,0|2|8,0:0|0:0|0:0,0:0:0:0:
236,144,407720,1,2,0:0:0:0:
64,240,407925,22,0,P|104:256|156:248,1,80,4|2,0:0|0:0,0:0:0:0:
176,236,408234,1,0,0:0:0:0:
212,224,408336,2,0,L|304:208,1,80,8|2,0:0|0:0,0:0:0:0:
450,132,408747,2,0,P|440:170|408:192,1,80,0|2,0:0|0:0,0:0:0:0:
296,152,409158,2,0,P|248:108|184:116,1,120,8|0,0:0|0:0,0:0:0:0:
224,184,409569,86,0,L|232:284,1,80,4|2,0:0|0:0,0:0:0:0:
304,356,409980,1,8,0:0:0:0:
388,272,410186,1,2,0:0:0:0:
400,232,410288,1,0,0:0:0:0:
388,192,410391,2,0,L|392:104,1,80,0|2,0:0|0:0,0:0:0:0:
284,164,410802,2,0,L|256:36,1,120,8|0,0:0|0:0,0:0:0:0:
184,20,411213,22,0,P|176:64|192:96,1,80,4|2,0:0|0:0,0:0:0:0:
284,164,411624,2,0,L|264:256,1,80,8|2,0:0|0:0,0:0:0:0:
82,311,412035,2,0,P|120:299|160:300,1,80,0|2,0:0|0:0,0:0:0:0:
320,336,412446,1,8,0:0:0:0:
356,352,412549,1,0,0:0:0:0:
396,356,412651,1,2,0:0:0:0:
436,344,412754,1,0,0:0:0:0:
468,316,412857,85,4,0:0:0:0:
472,320,413268,2,0,P|480:264|452:232,1,80,8|2,0:0|0:0,0:0:0:0:
376,168,413679,1,0,0:0:0:0:
376,168,413782,1,0,0:0:0:0:
376,168,413884,1,2,0:0:0:0:
260,192,414090,2,0,L|136:168,1,120,8|0,0:0|0:0,0:0:0:0:
72,132,414501,22,0,P|60:172|92:224,1,80,4|2,0:0|0:0,0:0:0:0:
176,268,414912,2,0,P|216:264|272:288,1,80,8|2,0:0|0:0,0:0:0:0:
284,300,415220,1,0,0:0:0:0:
312,328,415323,2,0,L|404:312,1,80,0|2,0:0|0:0,0:0:0:0:
480,236,415734,1,8,0:0:0:0:
480,236,415836,2,0,L|488:180,2,40,0|2|0,0:0|0:0|0:0,0:0:0:0:
480,236,416145,86,0,P|440:216|392:216,1,80,4|2,0:0|0:0,0:0:0:0:
284,212,416555,2,0,L|180:188,1,80,8|2,0:0|0:0,0:0:0:0:
180,196,416864,1,0,0:0:0:0:
156,200,416966,2,0,L|304:128,1,160,0|8,0:0|0:0,0:0:0:0:
420,104,417583,1,2,0:0:0:0:
459,349,417788,22,0,P|427:326|410:290,1,80,4|2,0:0|0:0,0:0:0:0:
420,104,418199,2,0,P|392:64|344:56,1,80,12|2,0:0|0:0,0:0:0:0:
138,181,418610,2,0,L|296:152,1,160,4|12,0:0|0:0,0:0:0:0:
208,284,419432,85,4,0:0:0:0:
88,276,419638,1,2,0:0:0:0:
288,196,419843,2,0,P|328:176|380:176,1,80,12|2,0:0|0:0,0:0:0:0:
486,261,420254,2,0,P|451:279|412:284,1,80,4|2,0:0|0:0,0:0:0:0:
184,324,420665,1,12,0:0:0:0:
292,272,420871,1,2,0:0:0:0:
100,240,421076,22,0,P|76:216|84:144,1,80,4|2,0:0|0:0,0:0:0:0:
84,136,421384,1,0,0:0:0:0:
108,104,421487,2,0,L|200:44,1,80,12|2,0:0|0:0,0:0:0:0:
240,160,421898,2,0,L|332:144,1,80,4|2,0:0|0:0,0:0:0:0:
380,264,422309,2,0,L|459:274,1,80,12|2,0:0|0:0,0:0:0:0:
180,256,422720,86,0,P|136:268|84:252,1,80,4|2,0:0|0:0,0:0:0:0:
72,240,423028,1,0,0:0:0:0:
52,204,423131,2,0,L|28:120,1,80,12|2,0:0|0:0,0:0:0:0:
287,37,423542,2,0,P|208:32|140:76,1,160,12|4,0:0|0:0,0:0:0:0:
164,240,424158,1,2,0:0:0:0:
236,144,424364,21,4,0:0:0:0:
300,244,424569,1,2,0:0:0:0:
244,136,424775,85,12,0:0:0:0:
336,248,424980,1,2,0:0:0:0:
252,128,425186,21,4,0:0:0:0:
376,252,425391,1,2,0:0:0:0:
260,120,425597,85,12,0:0:0:0:
220,112,425699,1,0,0:0:0:0:
184,128,425802,1,2,0:0:0:0:
168,164,425905,1,0,0:0:0:0:
176,204,426008,22,0,L|88:220,1,80,4|0,0:0|0:0,0:0:0:0:
280,276,426418,2,0,L|208:320,1,80,12|2,0:0|0:0,0:0:0:0:
444,260,426829,2,0,L|448:312,2,40,4|0|2,0:0|0:0|0:0,0:0:0:0:
380,156,427240,2,0,L|400:76,1,80,12|2,0:0|0:0,0:0:0:0:
288,192,427651,86,0,L|288:144,2,40,4|0|2,0:0|0:0|0:0,0:0:0:0:
80,68,428062,2,0,L|100:112,2,40,12|0|2,0:0|0:0|0:0,0:0:0:0:
144,300,428473,2,0,L|172:260,2,40,4|0|2,0:0|0:0|0:0,0:0:0:0:
344,76,428884,2,0,L|376:124,2,40,12|0|2,0:0|0:0|0:0,0:0:0:0:
136,200,429295,85,4,0:0:0:0:
136,200,429398,1,0,0:0:0:0:
136,200,429501,1,2,0:0:0:0:
136,200,429603,1,0,0:0:0:0:
136,200,429706,1,12,0:0:0:0:
136,200,429809,1,0,0:0:0:0:
136,200,429912,1,2,0:0:0:0:
136,200,430014,1,0,0:0:0:0:
136,200,430117,5,4,0:0:0:0:
152,196,430220,1,0,0:0:0:0:
168,196,430323,1,2,0:0:0:0:
184,204,430425,1,0,0:0:0:0:
192,216,430528,1,12,0:0:0:0:
192,232,430631,1,0,0:0:0:0:
184,248,430734,1,2,0:0:0:0:
172,256,430836,1,0,0:0:0:0:
156,260,430939,101,4,0:0:0:0:
124,252,431042,1,0,0:0:0:0:
104,228,431145,1,2,0:0:0:0:
104,196,431247,1,0,0:0:0:0:
120,168,431350,1,12,0:0:0:0:
148,152,431453,1,0,0:0:0:0:
180,148,431555,1,2,0:0:0:0:
212,160,431658,1,0,0:0:0:0:
232,184,431761,5,4,0:0:0:0:
240,224,431864,1,0,0:0:0:0:
232,264,431966,1,2,0:0:0:0:
208,296,432069,1,0,0:0:0:0:
168,308,432172,1,12,0:0:0:0:
128,308,432275,1,0,0:0:0:0:
92,292,432377,1,2,0:0:0:0:
68,260,432480,1,0,0:0:0:0:
52,224,432583,6,0,L|8:204,1,26.6666666666667,4|0,0:0|0:0,0:0:0:0:
48,184,432718,2,0,L|20:152,1,26.6666666666667
60,144,432853,2,0,L|40:104,1,26.6666666666667
84,112,432988,2,0,L|80:68,1,26.6666666666667,4|0,0:0|0:0,0:0:0:0:
116,88,433123,2,0,L|120:48,1,26.6666666666667,8|0,0:0|0:0,0:0:0:0:
152,76,433259,2,0,L|172:40,1,26.6666666666667
192,76,433393,1,4,0:0:0:0:
172,244,433697,70,2,P|156:208|128:200,1,60,0|0,0:0|0:0,0:0:0:0:
100,313,434162,38,0,P|176:264|268:296,1,180.000006866455,4|2,0:0|0:0,0:0:0:0:
316,340,434572,22,0,L|424:320,1,95.9999970703126,12|2,0:0|0:0,0:0:0:0:
498,116,434983,2,0,P|488:160|444:192,1,95.9999970703126,4|2,0:0|0:0,0:0:0:0:
68,236,435394,1,12,0:0:0:0:
256,192,435600,1,2,0:0:0:0:
54,111,435805,86,0,P|29:71|32:24,1,95.9999970703126,4|2,0:0|0:0,0:0:0:0:
244,92,436216,2,0,L|222:185,1,95.9999970703126,12|2,0:0|0:0,0:0:0:0:
164,368,436627,2,0,P|140:332|88:320,1,95.9999970703126,4|2,0:0|0:0,0:0:0:0:
16,352,436935,1,2,0:0:0:0:
84,308,437038,2,0,P|96:256|80:216,1,95.9999970703126,12|2,0:0|0:0,0:0:0:0:
424,80,437449,22,0,P|360:76|312:140,1,143.999995605469,4|2,0:0|0:0,0:0:0:0:
316,216,437860,2,0,L|223:242,1,95.9999970703126,12|2,0:0|0:0,0:0:0:0:
44,304,438271,1,4,0:0:0:0:
232,344,438477,1,2,0:0:0:0:
136,136,438682,1,12,0:0:0:0:
464,276,438888,1,2,0:0:0:0:
452,292,438990,1,2,0:0:0:0:
440,308,439093,86,0,L|292:296,1,143.999995605469,4|2,0:0|0:0,0:0:0:0:
224,256,439504,2,0,P|184:240|132:248,1,95.9999970703126,12|2,0:0|0:0,0:0:0:0:
432,340,439915,2,0,L|448:240,1,95.9999970703126,4|2,0:0|0:0,0:0:0:0:
480,168,440326,70,0,P|464:120|416:92,1,90.0000034332277,12|2,0:0|0:0,0:0:0:0:
496,44,440737,38,0,P|412:20|352:96,1,180.000006866455,4|2,0:1|0:0,0:0:0:0:
316,152,441148,22,0,L|220:192,1,95.9999970703126,12|2,0:0|0:0,0:0:0:0:
13,362,441559,2,0,P|56:336|112:336,1,95.9999970703126,4|2,0:0|0:0,0:0:0:0:
484,368,441970,1,12,0:0:0:0:
292,312,442175,1,2,0:0:0:0:
328,164,442381,86,0,P|296:104|216:92,1,143.999995605469,4|2,0:0|0:0,0:0:0:0:
156,132,442792,2,0,P|140:176|160:236,1,95.9999970703126,12|2,0:0|0:0,0:0:0:0:
445,360,443203,2,0,P|440:308|408:280,1,95.9999970703126,4|2,0:0|0:0,0:0:0:0:
328,272,443511,1,2,0:0:0:0:
408,268,443614,2,0,P|428:228|396:172,1,95.9999970703126,12|2,0:0|0:0,0:0:0:0:
368,372,444025,22,0,P|412:288|396:212,1,143.999995605469,4|2,0:0|0:0,0:0:0:0:
352,184,444435,2,0,L|332:76,1,95.9999970703126,12|2,0:0|0:0,0:0:0:0:
140,24,444846,1,4,0:0:0:0:
288,92,445052,1,2,0:0:0:0:
268,252,445257,1,12,0:0:0:0:
368,372,445463,1,2,0:0:0:0:
119,255,445668,86,0,P|117:164|196:119,1,191.999994140625,4|12,0:0|0:0,0:0:0:0:
208,372,446285,1,2,0:0:0:0:
388,344,446490,2,0,P|428:320|436:264,1,95.9999970703126,4|2,0:0|0:0,0:0:0:0:
124,40,446901,2,0,P|84:64|76:120,1,95.9999970703126,4|2,0:0|0:0,0:0:0:0:
256,356,447312,21,4,0:0:0:0:
