osu file format v13

[General]
AudioFilename: Triforcedelapoop.mp3
AudioLeadIn: 0
PreviewTime: 78251
Countdown: 0
SampleSet: Normal
StackLeniency: 0.7
Mode: 0
LetterboxInBreaks: 0
EpilepsyWarning: 1
WidescreenStoryboard: 0

[Editor]
Bookmarks: 80737,104285
DistanceSpacing: 1
BeatDivisor: 2
GridSize: 4
TimelineZoom: 4.699998

[Metadata]
Title:La Triforce de la Poop
TitleUnicode:La Triforce de la Poop
Artist:Jefaischierlesgens
ArtistUnicode:Jefaischierlesgens
Creator:_Gezo_
Version:123Lunatic
Source:
Tags:the legend of zelda cd-i ytpmv
BeatmapID:196773
BeatmapSetID:53569

[Difficulty]
HPDrainRate:7
CircleSize:4
OverallDifficulty:7
ApproachRate:8
SliderMultiplier:1.6
SliderTickRate:1

[Events]
//Background and Video events
0,0,"triforcedelapoopbg.jpg",0,0
Video,0,"La triforce de la poop.avi"
//Break Periods
2,20613,24724
2,72458,74610
2,101587,103529
//Storyboard Layer 0 (Background)
//Storyboard Layer 1 (Fail)
//Storyboard Layer 2 (Pass)
//Storyboard Layer 3 (Foreground)
//Storyboard Sound Samples

[TimingPoints]
8846,361.489336064586,4,2,0,50,1,0
9207,-200,4,2,0,50,0,0
20323,-200,4,1,0,30,0,0
25474,-100,4,1,0,30,0,0
26558,-100,4,2,0,50,0,0
28366,-100,4,1,0,30,0,0
29089,-100,4,2,0,50,0,0
31981,-100,4,2,2,60,0,0
78251,-100,4,2,2,60,0,1
98676,-100,4,2,2,25,0,1
101387,-100,4,2,2,60,0,0
104279,-100,4,2,2,60,0,1
127414,-100,4,2,2,60,0,0

[Colours]
Combo1 : 255,90,100
Combo2 : 0,128,255
Combo3 : 230,158,0

[HitObjects]
160,64,14629,5,0,0:0:0:0:
88,28,14810,2,0,B|72:72|96:108,1,80,2|2,0:0|0:0,0:0:0:0:
44,168,15352,1,0,0:0:0:0:
124,176,15533,2,0,B|152:212|132:252,1,80,2|2,0:0|0:0,0:0:0:0:
196,300,16075,2,0,B|176:340|216:364|256:340|240:300,1,120
244,220,16798,2,0,B|227:179|267:155|307:179|287:219,1,120
328,288,17521,5,2,0:0:0:0:
376,352,17702,1,0,0:0:0:0:
448,316,17883,1,0,0:0:0:0:
412,244,18063,1,0,0:0:0:0:
468,188,18244,1,2,0:0:0:0:
408,132,18425,1,0,0:0:0:0:
444,60,18606,1,0,0:0:0:0:
376,20,18786,1,0,0:0:0:0:
324,80,18967,5,2,0:0:0:0:
256,36,19148,1,0,0:0:0:0:
188,80,19329,1,2,0:0:0:0:
136,20,19509,1,0,0:0:0:0:
68,60,19690,1,2,0:0:0:0:
104,132,19871,1,2,0:0:0:0:
44,188,20052,1,2,0:0:0:0:
100,244,20232,1,2,0:0:0:0:
64,316,20413,1,0,0:0:0:0:
256,40,25474,5,0,0:0:0:0:
100,320,25835,1,0,0:0:0:0:
420,320,26197,1,0,0:0:0:0:
256,192,26739,5,0,1:0:0:0:
256,192,26920,2,0,B|164:192,1,80
208,264,27281,2,0,B|256:264|256:264|304:264|328:224|328:192,2,160,2|0|0,0:0|0:0|0:0,0:0:0:0:
256,112,28366,5,0,0:0:0:0:
116,192,28727,1,0,0:0:0:0:
256,272,29089,2,0,B|300:272|328:244,1,80
328,164,29450,2,0,B|328:332,1,160,2|0,0:0|0:0,0:0:0:0:
428,296,29993,1,0,0:0:0:0:
476,204,30173,1,0,0:0:0:0:
424,112,30354,1,2,0:0:0:0:
332,64,30535,2,0,B|332:92|332:92|272:92|244:144|256:192,2,160
232,36,31439,5,0,0:0:0:0:
136,72,31619,1,0,0:0:0:0:
76,156,31800,1,0,0:0:0:0:
72,252,31981,1,0,0:0:0:0:
164,204,32162,2,0,B|248:204,1,80
332,136,32523,2,0,B|252:136,1,80,0|8,0:0|0:0,0:0:0:0:
248,272,32885,2,0,B|320:272|320:272|372:272|392:232,1,160
448,136,33427,6,0,P|428:64|352:48,2,160,0|0|8,0:0|0:0|0:0,0:0:0:0:
476,236,34330,1,2,0:0:0:0:
392,300,34511,1,0,0:0:0:0:
312,212,34692,1,0,0:0:0:0:
228,288,34873,6,0,B|301:319,2,80,0|0|0,0:0|0:0|0:0,0:0:0:0:
164,196,35415,2,0,B|90:164,1,80,0|8,0:0|0:0,0:0:0:0:
180,84,35776,1,2,0:0:0:0:
292,44,35957,1,0,0:0:0:0:
368,136,36138,1,2,0:0:0:0:
256,176,36319,5,2,0:0:0:0:
352,244,36499,1,0,0:0:0:0:
452,204,36680,2,0,B|492:196|512:152,1,80
368,136,37042,2,0,B|328:144|308:188,2,80,8|0|0,0:0|0:0|0:0,0:0:0:0:
452,204,37584,1,0,0:0:0:0:
384,292,37765,5,0,0:0:0:0:
276,312,37945,1,0,0:0:0:0:
184,260,38126,1,0,0:0:0:0:
108,180,38307,1,0,0:0:0:0:
108,180,38488,2,0,B|152:160|136:112|136:112|120:64|160:48,1,160,8|2,0:0|0:0,0:0:0:0:
404,180,39211,2,0,B|360:160|376:112|376:112|392:64|352:48,1,160,0|2,0:0|0:0,0:0:0:0:
256,120,39753,1,0,0:0:0:0:
256,324,39934,5,8,0:0:0:0:
156,156,40115,1,0,0:0:0:0:
352,156,40296,1,2,0:0:0:0:
256,224,40476,1,2,0:0:0:0:
140,260,40657,2,0,B|120:304|84:316|84:316|120:328|144:368,1,160
220,312,41199,1,0,0:0:0:0:
256,224,41380,5,8,0:0:0:0:
352,216,41560,1,2,0:0:0:0:
412,148,41741,1,0,0:0:0:0:
360,60,41922,1,0,0:0:0:0:
260,92,42103,6,0,B|180:92,1,80,0|8,0:0|0:0,0:0:0:0:
140,161,42464,2,0,B|180:92,1,80
140,22,42825,2,0,B|180:92,1,80,8|0,0:0|0:0,0:0:0:0:
244,184,43187,1,8,0:0:0:0:
324,132,43368,1,8,0:0:0:0:
400,156,43548,6,0,B|440:240,1,80,0|2,0:0|0:0,0:0:0:0:
352,224,43910,2,0,B|392:308,3,80,0|0|8|0,0:0|0:0|0:0|0:0,0:0:0:0:
386,296,44633,1,0,0:0:0:0:
232,340,44814,5,2,0:0:0:0:
140,208,44994,1,2,0:0:0:0:
256,100,45175,6,0,B|344:100,2,80
256,180,45717,2,0,B|256:224|228:256,1,80,8|0,0:0|0:0,0:0:0:0:
168,308,46079,1,2,0:0:0:0:
136,288,46169,1,0,0:0:0:0:
124,248,46260,1,0,0:0:0:0:
148,174,46440,6,0,B|124:138|136:98,2,80
244,116,46983,2,0,B|324:100,2,80,0|8|0,0:0|0:0|0:0,0:0:0:0:
148,174,47525,2,0,B|172:210|160:250,2,80
244,116,48067,5,2,0:0:0:0:
328,40,48248,6,0,B|372:36|404:56,1,80
468,148,48609,6,0,B|447:192|412:201|412:201|428:235|408:279,2,160,10|0|4,0:0|0:0|0:0,0:0:0:0:
428,76,49513,5,0,0:0:0:0:
352,52,49694,1,2,0:0:0:0:
272,56,49875,1,2,0:0:0:0:
196,84,50055,1,2,0:0:0:0:
144,108,50236,1,0,0:0:0:0:
120,128,50417,1,0,0:0:0:0:
108,140,50598,1,0,0:0:0:0:
96,152,50778,2,0,P|84:204|144:284,1,160,0|2,0:0|0:0,0:0:0:0:
375,71,51501,2,0,P|430:126|424:204,1,160,0|2,0:0|0:0,0:0:0:0:
256,192,52224,12,12,54755,0:0:0:0:
112,72,55116,6,0,B|204:104,1,80
340,152,55478,2,0,B|248:120,1,80,0|2,0:0|0:0,0:0:0:0:
200,172,55839,1,8,0:0:0:0:
124,200,56020,5,0,0:0:0:0:
92,268,56201,2,0,B|80:308|116:340,1,80
256,352,56562,5,0,0:0:0:0:
412,72,56924,1,0,0:0:0:0:
92,68,57285,1,8,0:0:0:0:
60,140,57466,2,0,B|44:176,2,40,2|2|0,0:0|0:0|0:0,0:0:0:0:
136,164,57827,1,2,0:0:0:0:
212,188,58008,6,0,B|292:208,1,80,0|2,0:0|0:0,0:0:0:0:
236,268,58370,2,0,B|156:248,2,80,0|2|8,0:0|0:0|0:0,0:0:0:0:
312,288,58912,6,0,B|352:300,2,40,2|2|0,0:0|0:0|0:0,0:0:0:0:
440,192,59454,2,0,B|402:162|368:166|368:166|364:132|323:100,2,160,0|2|8,0:0|0:0|0:0,0:0:0:0:
436,272,60358,1,2,0:0:0:0:
400,344,60538,1,0,0:0:0:0:
348,280,60719,1,0,0:0:0:0:
276,248,60900,6,0,B|200:216,1,80
58,148,61261,2,0,B|132:180,1,80
204,144,61623,2,0,P|260:76|288:8,1,160,8|0,0:0|0:0,0:0:0:0:
336,80,62165,6,0,P|316:120|296:148,2,80,0|0|0,0:0|0:0|0:0,0:0:0:0:
392,136,62707,1,0,0:0:0:0:
456,80,62888,1,2,0:0:0:0:
461,86,63069,1,8,0:0:0:0:
464,93,63250,2,0,B|476:133|476:177,1,80
416,220,63611,1,0,0:0:0:0:
344,264,63792,6,0,B|340:312|304:332,1,80,0|2,0:0|0:0,0:0:0:0:
168,264,64153,2,0,B|172:312|208:332,1,80,0|2,0:0|0:0,0:0:0:0:
256,192,64515,2,0,B|256:132|256:132|296:132|324:168|324:192,1,160,8|0,0:0|0:0,0:0:0:0:
256,192,65238,6,0,B|256:252|256:252|216:252|188:216|188:192,3,160,0|0|10|0,0:0|0:0|0:0|0:0,0:0:0:0:
256,44,66684,6,0,B|184:80,1,80,0|2,0:0|0:0,0:0:0:0:
244,144,67045,1,0,0:0:0:0:
321,121,67226,2,0,B|340:44,1,80,2|8,0:0|0:0,0:0:0:0:
412,76,67588,2,0,B|448:116|412:144|412:144|448:172|416:216,3,160,0|0|2|0,0:0|0:0|0:0|0:0,0:0:0:0:
352,260,68853,1,8,0:0:0:0:
284,304,69033,1,2,0:0:0:0:
208,316,69214,5,0,0:0:0:0:
144,268,69395,1,2,0:0:0:0:
196,208,69576,6,0,B|252:148,1,80,2|2,0:0|0:0,0:0:0:0:
160,100,69937,2,0,L|236:68,1,80,2|2,0:0|0:0,0:0:0:0:
332,36,70299,1,8,0:0:0:0:
380,32,70389,1,2,0:0:0:0:
420,56,70479,1,0,0:0:0:0:
496,128,70660,5,0,0:0:0:0:
496,128,70751,1,2,0:0:0:0:
408,184,70931,1,2,0:0:0:0:
408,184,71022,1,0,0:0:0:0:
464,272,71202,2,0,P|440:304|404:324,1,80,2|0,0:0|0:0,0:0:0:0:
304,352,71564,5,0,0:0:0:0:
304,352,71654,1,2,0:0:0:0:
304,352,71745,2,0,B|260:364|224:348,1,80,8|0,0:0|0:0,0:0:0:0:
140,192,75360,6,0,B|80:268,2,80,0|2|0,0:0|0:0|0:0,0:0:0:0:
256,192,75902,1,0,0:0:0:0:
372,192,76083,2,0,B|432:268,2,80,8|2|0,0:0|0:0|0:0,0:0:0:0:
332,292,76625,2,0,B|316:308|256:328|196:308|180:292,2,160,0|8|0,0:0|0:0|0:0,0:0:0:0:
256,236,77528,6,0,B|256:156,1,80,8|2,0:0|0:0,0:0:0:0:
184,92,77890,2,8,B|184:172,1,80
184,268,78251,5,0,0:0:0:0:
120,200,78432,2,0,B|80:224|76:264,2,80,0|2|0,0:0|0:0|0:0,0:0:0:0:
88,108,78974,1,8,0:0:0:0:
184,92,79155,1,0,0:0:0:0:
260,148,79336,1,2,0:0:0:0:
356,132,79517,1,2,0:0:0:0:
440,184,79697,6,0,B|456:224|440:264,1,80
356,308,80059,1,0,0:0:0:0:
260,292,80240,1,0,0:0:0:0:
172,332,80420,2,0,B|96:308,1,80,8|0,0:0|0:0,0:0:0:0:
96,212,80782,2,2,B|180:192,1,80
184,92,81143,5,0,0:0:0:0:
276,60,81324,1,0,0:0:0:0:
356,112,81505,1,0,0:0:0:0:
268,148,81686,1,2,0:0:0:0:
352,196,81866,2,0,B|380:232|380:232|420:232,1,80,8|0,0:0|0:0,0:0:0:0:
324,284,82228,2,0,B|296:320|296:320|256:320,1,80
156,320,82589,6,0,B|128:284|128:284|88:284,1,80
188,232,82951,2,0,B|216:196|216:196|256:196,1,80
256,100,83312,5,10,0:0:0:0:
312,44,83493,1,0,0:0:0:0:
388,64,83674,1,8,0:0:0:0:
416,140,83855,1,8,0:0:0:0:
364,200,84035,1,0,0:0:0:0:
288,173,84216,6,0,B|256:100,1,80
192,164,84578,2,0,B|224:236,1,80,0|10,0:0|0:0,0:0:0:0:
160,305,84939,2,0,B|128:232,1,80
40,216,85300,1,0,0:0:0:0:
12,300,85481,6,0,B|44:372,1,80,0|2,0:0|0:0,0:0:0:0:
156,356,85843,2,0,B|196:368|236:364,1,80
352,292,86204,2,0,B|312:280|272:284,1,80,8|2,0:0|0:0,0:0:0:0:
124,204,86566,2,0,B|164:216|204:212,1,80,0|2,0:0|0:0,0:0:0:0:
236,140,86927,5,0,0:0:0:0:
292,84,87108,1,0,0:0:0:0:
344,144,87289,1,6,0:0:0:0:
376,216,87469,1,0,0:0:0:0:
344,288,87650,1,8,0:0:0:0:
292,348,87831,1,0,0:0:0:0:
236,288,88012,1,6,0:0:0:0:
200,216,88192,2,0,B|120:216,1,80
376,216,88554,6,0,B|456:216,1,80,8|0,0:0|0:0,0:0:0:0:
344,288,88915,2,0,B|424:288,1,80,0|8,0:0|0:0,0:0:0:0:
236,288,89277,2,0,B|156:288,1,80,0|8,0:0|0:0,0:0:0:0:
288,216,89638,1,8,0:0:0:0:
320,144,89819,6,0,B|368:132|384:96,2,80
244,124,90361,2,0,P|212:116|164:116,1,80,0|8,0:0|0:0,0:0:0:0:
96,256,90904,1,0,0:0:0:0:
208,320,91265,1,0,0:0:0:0:
288,240,91627,1,0,0:0:0:0:
210,166,91988,6,0,B|154:110,1,80,8|2,0:0|0:0,0:0:0:0:
248,88,92350,2,0,B|304:32,2,80
340,108,92892,1,0,0:0:0:0:
360,184,93073,1,0,0:0:0:0:
300,240,93253,1,2,0:0:0:0:
236,192,93434,5,8,0:0:0:0:
176,244,93615,1,0,0:0:0:0:
240,292,93795,2,0,B|300:352,2,80
240,292,94338,2,0,B|172:360,2,80,0|2|0,0:0|0:0|0:0,0:0:0:0:
240,212,94880,5,8,0:0:0:0:
100,132,95061,1,2,0:0:0:0:
240,52,95241,1,0,0:0:0:0:
200,132,95603,6,0,B|152:200,1,80
104,260,95964,1,2,0:0:0:0:
200,132,96326,6,0,B|282:139,1,80,8|0,0:0|0:0,0:0:0:0:
358,151,96687,1,2,0:0:0:0:
200,132,97049,6,0,B|192:92|116:48|64:64,1,160,2|0,0:0|0:0,0:0:0:0:
44,140,97591,1,0,0:0:0:0:
56,220,97772,1,8,0:0:0:0:
84,296,97953,1,2,0:0:0:0:
148,344,98133,1,2,0:0:0:0:
228,356,98314,1,2,0:0:0:0:
308,348,98495,1,0,0:0:0:0:
256,192,98676,12,0,99941,0:0:0:0:
256,192,100031,12,0,101387,0:0:0:0:
256,64,104279,5,0,0:0:0:0:
176,64,104459,2,0,B|180:116|216:132,1,80,2|0,0:0|0:0,0:0:0:0:
336,64,104821,2,0,B|332:116|296:132,1,80,0|8,0:0|0:0,0:0:0:0:
256,200,105182,2,0,B|256:280,2,80,0|2|2,0:0|0:0|0:0,0:0:0:0:
176,200,105725,6,0,B|128:200|128:200|52:200|52:264,1,160
128,284,106267,1,2,0:0:0:0:
228,352,106448,1,8,0:0:0:0:
324,284,106628,1,2,0:0:0:0:
420,352,106809,2,0,B|420:292|420:292|428:284|428:284|412:284|412:284|420:276|420:276|420:212,1,160,0|2,0:0|0:0,0:0:0:0:
352,68,107532,5,4,0:0:0:0:
284,108,107713,1,2,0:0:0:0:
220,64,107894,2,0,B|160:64|160:64|104:64|84:116,1,160,8|4,0:0|0:0,0:0:0:0:
160,144,108436,1,0,0:0:0:0:
236,168,108617,6,0,B|215:221|159:221|159:221|99:221,2,160,0|2|8,0:0|0:0|0:0,0:0:0:0:
316,156,109520,1,0,0:0:0:0:
384,200,109701,1,2,0:0:0:0:
400,276,109882,1,2,0:0:0:0:
352,340,110063,5,0,0:0:0:0:
304,276,110243,1,2,0:0:0:0:
256,340,110424,2,0,B|216:316|184:320|184:320|176:288|132:256,1,160,0|8,0:0|0:0,0:0:0:0:
132,96,110966,1,2,0:0:0:0:
56,176,111147,2,0,B|108:144|160:208|212:176,2,160,0|2|0,0:0|0:0|0:0,0:0:0:0:
108,328,112051,5,0,0:0:0:0:
264,360,112231,1,10,0:0:0:0:
196,292,112412,1,0,0:0:0:0:
348,244,112593,1,2,0:0:0:0:
256,220,112774,1,0,0:0:0:0:
408,164,112954,6,0,B|468:116|416:64|416:64|368:64,1,160
292,112,113497,1,2,0:0:0:0:
208,160,113677,2,0,B|165:160|165:160|113:108|173:60,2,160,8|0|0,0:0|0:0|0:0,0:0:0:0:
212,256,114581,6,0,B|248:268|248:268|288:256,2,80,8|2|0,0:0|0:0|0:0,0:0:0:0:
132,256,115123,2,0,B|132:300|132:300|157:325,1,80,8|2,0:0|0:0,0:0:0:0:
369,255,115485,2,0,B|369:299|369:299|343:324,1,80,8|8,0:0|0:0,0:0:0:0:
264,324,115846,6,0,B|253:278|279:247,2,80,0|2|0,0:0|0:0|0:0,0:0:0:0:
164,356,116389,1,2,0:0:0:0:
88,288,116569,1,8,0:0:0:0:
132,192,116750,1,0,0:0:0:0:
216,132,116931,1,2,0:0:0:0:
320,140,117112,1,2,0:0:0:0:
416,100,117292,6,0,B|432:140|416:180,1,80
320,140,117654,1,0,0:0:0:0:
348,240,117835,1,0,0:0:0:0:
316,340,118015,2,0,B|240:316,1,80,8|0,0:0|0:0,0:0:0:0:
71,317,118377,2,2,B|148:299,1,80
196,144,118738,5,0,0:0:0:0:
256,60,118919,1,0,0:0:0:0:
316,144,119100,1,0,0:0:0:0:
256,124,119280,1,2,0:0:0:0:
256,232,119461,2,0,B|284:268|284:268|324:268,1,80,8|0,0:0|0:0,0:0:0:0:
204,304,119823,2,0,B|176:340|176:340|136:340,1,80
116,224,120184,6,0,B|88:188|88:188|48:188,1,80
148,112,120546,2,0,B|176:76|176:76|216:76,1,80
256,188,120907,1,8,0:0:0:0:
340,272,121088,1,0,0:0:0:0:
284,340,121269,1,8,0:0:0:0:
204,304,121449,5,8,0:0:0:0:
124,344,121630,1,0,0:0:0:0:
80,268,121811,2,0,B|48:194,1,80
104,124,122172,2,0,B|137:197,1,80,0|8,0:0|0:0,0:0:0:0:
224,204,122534,2,0,B|191:131,1,80,0|2,0:0|0:0,0:0:0:0:
252,64,122895,1,0,0:0:0:0:
340,76,123076,6,0,B|328:132|356:152|384:176|364:232,1,160
312,300,123618,1,2,0:0:0:0:
236,344,123799,2,0,B|159:322,1,80,8|0,0:0|0:0,0:0:0:0:
84,276,124161,2,0,B|148:228,2,80,2|2|0,0:0|0:0|0:0,0:0:0:0:
256,192,124703,12,4,127414,0:0:0:0:
