osu file format v5

[General]
AudioFilename: act3edit2.mp3
AudioLeadIn: 0
PreviewTime: 37065
Countdown: 0
SampleSet: Normal
StackLeniency: 0.7
Mode: 0
LetterboxInBreaks: 1
EditorBookmarks: 14000,21161,29194,29206,51862,66885,94454,102525

[Metadata]
Title:So They Say
Artist:Jed Whedon
Creator:Headbang
Version:Hard
Source:Dr. Horrible's Sing-Along Blog
Tags:

[Difficulty]
HPDrainRate:6
CircleSize:6
OverallDifficulty:6
SliderMultiplier:1.4
SliderTickRate:2

[Events]
//Background and Video events
1,-507,"act3edit4.avi"
//Break Periods
2,20465,28168
2,51370,65829
2,94150,101444
//Storyboard Layer 0 (Background)
//Storyboard Layer 1 (Failing)
//Storyboard Layer 2 (Passing)
//Storyboard Layer 3 (Foreground)
//Storyboard Sound Samples
//Background Colour Transformations
3,100,0,0,0

[TimingPoints]
3905,448.16253361219,4,1,0,50,1

[HitObjects]
64,192,13988,5,0
128,192,14212,1,0
192,192,14436,1,0
288,192,14884,1,0
352,192,15109,1,0
352,256,15333,1,0
448,256,15781,1,0
448,128,16229,1,0
448,64,16453,1,0
384,64,16677,1,0
320,64,16901,1,0
256,64,17125,2,0,B|192:96|256:192,1,140
128,192,18022,5,0
128,256,18246,1,0
192,256,18470,1,0
256,256,18694,1,0
320,256,18918,1,0
320,192,19142,1,0
224,160,19590,1,0
224,160,19814,1,0
224,160,20038,1,0
224,160,20262,1,0
160,64,29226,5,0
192,96,29450,1,0
224,128,29674,1,4
192,224,30122,1,0
160,256,30346,1,0
128,288,30570,1,4
224,320,31018,5,0
256,288,31242,1,0
288,256,31466,1,4
384,288,31915,1,0
352,320,32139,1,0
320,352,32363,1,4
416,352,32811,1,0
448,320,33035,1,0
480,288,33259,1,4
480,160,33707,1,0
352,160,34155,5,0
224,160,34604,1,0
224,160,34828,1,0
96,320,35612,5,0
96,224,35948,1,0
160,224,36172,1,0
160,128,37965,5,0
256,128,38413,1,0
352,128,38861,1,0
352,224,39309,1,0
256,192,39758,1,0
160,224,40206,1,0
480,96,41550,5,0
416,96,41774,1,0
320,96,42222,1,0
224,96,42671,2,0,B|224:192|224:192,6,70
256,352,45135,5,0
256,256,45584,1,0
320,160,46032,1,0
256,64,46480,1,0
192,160,46928,1,0
256,256,47376,1,0
256,160,47824,1,0
320,96,48273,5,0
320,160,48497,1,0
320,320,49169,1,0
256,320,49393,1,0
96,320,50065,1,0
96,256,50289,1,0
192,128,50962,1,0
256,128,51186,1,4
256,192,66871,5,0
256,192,67095,1,0
256,192,67319,1,0
448,288,68216,1,0
224,320,69112,1,0
288,320,69336,1,0
384,320,69784,1,0
448,224,70233,1,0
448,224,70457,1,0
448,160,70681,1,0
448,160,70905,1,0
448,64,71353,1,0
352,64,71801,1,4
256,128,72249,5,0
192,128,72473,1,0
192,192,72697,1,0
128,192,72922,2,0,B|96:160|96:128,5,70
160,64,74490,6,0,B|192:32|224:32,7,70
256,192,76731,1,0
160,160,78524,1,0
224,160,78748,1,0
288,160,78972,1,0
352,160,79196,1,0
256,224,79644,1,0
64,64,80988,5,0
160,64,81437,1,0
256,64,81885,1,0
352,64,82333,1,0
448,64,82781,1,0
448,64,83229,1,4
160,256,84574,1,0
224,256,84798,1,0
224,160,85246,1,4
224,64,85694,5,0
288,64,85918,1,0
352,64,86142,1,0
352,128,86366,1,0
416,128,86590,1,0
416,192,86815,1,0
416,256,87039,1,4
64,256,88159,5,0
96,160,88607,1,0
160,256,89055,1,0
192,160,89504,1,0
256,256,89952,1,0
288,160,90400,1,0
384,160,90848,1,0
384,256,91296,5,0
384,320,91520,1,0
224,320,92193,1,0
224,256,92417,1,0
64,256,93089,1,0
64,320,93313,1,0
160,320,93761,2,0,B|256:320,1,70
128,96,102500,5,2
224,96,102948,1,2
320,96,103397,1,2
416,96,103845,1,2
416,192,104293,1,2
416,288,104741,1,2
128,128,106086,1,0
128,128,106310,1,0
192,192,106758,1,0
352,192,107430,5,0
352,256,107654,1,0
288,256,107878,1,0
224,256,108102,1,0
160,256,108326,1,0
96,256,108550,1,0
326,192,109671,2,0,B|182:192,5,140
224,96,112360,5,0
160,160,112808,1,0
160,224,113032,1,0
288,320,113704,1,0
352,320,113928,1,0
352,160,114601,1,0
288,160,114825,2,0,B|256:128|224:128|160:128|160:192,1,140
256,192,115721,12,4,117290
