osu file format v12

[General]
AudioFilename: Promise of Reunion_Vocal.mp3
AudioLeadIn: 2000
PreviewTime: 73384
Countdown: 0
SampleSet: Soft
StackLeniency: 0.7
Mode: 0
LetterboxInBreaks: 0
WidescreenStoryboard: 0

[Editor]
Bookmarks: 6056,14237,18056,19692,21328,22965,24601,26237,40964,60600,63873,67145,70418,73691,78600,80236,83509,85145,93327,96600,101509,104782,108054,109691,116236,117873,119509,124418,126054,127691,132600,134236,135873,137509
DistanceSpacing: 0.8
BeatDivisor: 4
GridSize: 4

[Metadata]
Title:Promise of Reunion
TitleUnicode:Promise of Reunion
Artist:Jayn
ArtistUnicode:Jayn
Creator:Lally
Version:Normal
Source:Ib
Tags:Garry Mary Game Eve Rose EX Industry kioku kouri Remix
BeatmapID:330394
BeatmapSetID:131137

[Difficulty]
HPDrainRate:3
CircleSize:3
OverallDifficulty:3
ApproachRate:4
SliderMultiplier:1.4
SliderTickRate:2

[Events]
//Background and Video events
0,0,"o4o.jpg",0,0
//Break Periods
2,31892,33099
2,45873,57644
//Storyboard Layer 0 (Background)
//Storyboard Layer 1 (Fail)
//Storyboard Layer 2 (Pass)
//Storyboard Layer 3 (Foreground)
//Storyboard Sound Samples
//Background Colour Transformations
3,100,163,162,255

[TimingPoints]
56,545.454545454546,3,2,1,20,1,0
6056,-100,3,2,1,15,0,0
6601,-100,3,2,1,20,0,0
14237,-100,3,2,1,15,0,0
14783,-100,3,2,1,20,0,0
27874,-200,3,2,1,20,0,0
28010,-200,3,2,1,5,0,0
29510,-200,3,2,1,20,0,0
29646,-100,3,2,1,5,0,0
34419,-133.333333333333,3,2,1,20,0,0
38237,545.454545454546,3,2,1,20,1,0
38237,-133.333333333333,3,2,1,20,0,0
39873,-133.333333333333,3,2,1,20,0,0
40146,-133.333333333333,3,2,1,5,0,0
40964,545.454545454546,3,2,1,15,1,0
41100,-100,3,2,1,5,0,0
58964,-100,3,2,1,25,0,0
72054,-200,3,2,1,25,0,0
72873,-200,3,2,1,5,0,0
73691,-100,3,2,1,25,0,0
80236,-100,3,2,1,45,0,0
80373,-100,3,2,1,25,0,0
93327,-100,3,2,1,45,0,0
93464,-100,3,2,1,25,0,0
100009,-100,3,2,1,5,0,0
100691,-100,3,2,1,25,0,0
104782,-100,3,2,1,45,0,0
104918,-100,3,2,1,25,0,0
114600,-100,3,2,1,35,0,0
117873,-100,3,2,1,45,0,0
118009,-100,3,2,1,35,0,0
140782,-100,3,2,1,15,0,0
142418,-100,3,2,1,25,0,0
148418,-100,3,2,1,15,0,0
148554,-100,3,2,1,25,0,0
163145,-100,3,2,1,25,0,0
163282,-100,3,2,1,15,0,0
163691,-100,3,2,1,25,0,0
167782,-100,3,2,1,20,0,0
168054,-100,3,2,1,15,0,0
168327,-100,3,2,1,10,0,0
168600,-100,3,2,1,5,0,0

[Colours]
Combo1 : 255,255,136
Combo2 : 157,128,219
Combo3 : 221,221,0
Combo4 : 196,0,0
Combo5 : 22,218,228
Combo6 : 253,113,116

[HitObjects]
80,276,56,2,0,P|140:268|196:188,1,140,4|0,0:0|0:0,0:0:0:0:
220,104,1146,2,0,P|292:116|360:88,2,140,2|4|0,0:0|0:0|0:0,0:0:0:0:
120,52,2783,1,2,0:0:0:0:
136,164,3328,54,0,B|156:212|128:264|164:320,1,140,4|0,0:0|0:0,0:0:0:0:
256,352,4419,1,2,0:0:0:0:
357,301,4965,2,0,B|384:264|356:212|376:164,1,140,4|0,0:0|0:0,0:0:0:0:
420,60,6056,69,12,0:0:0:0:
412,187,8237,22,0,P|356:112|288:104,1,140,4|0,0:0|0:0,0:0:0:0:
216,152,9328,2,0,P|136:180|68:172,2,140,2|4|0,0:0|0:0|0:0,0:0:0:0:
240,44,10965,1,2,0:0:0:0:
336,100,11510,6,0,P|392:136|480:124,1,140,4|0,0:0|0:0,0:0:0:0:
480,240,12601,2,0,P|428:316|360:336,2,140,2|4|0,0:0|0:0|0:0,0:0:0:0:
452,132,14237,21,12,0:0:0:0:
480,240,16419,22,0,P|432:208|372:124,1,140,4|0,0:0|0:0,0:0:0:0:
392,32,17510,2,0,P|440:64|500:148,2,140,2|12|0,0:0|0:0|0:0,0:0:0:0:
280,24,19146,1,2,0:0:0:0:
200,100,19692,6,0,P|140:136|44:128,1,140,12|0,0:0|0:0,0:0:0:0:
28,240,20783,2,0,P|128:232|180:260,2,140,2|12|0,0:0|0:0|0:0,0:0:0:0:
16,352,22419,1,2,0:0:0:0:
28,240,22965,6,0,P|32:168|92:108,1,140,12|0,0:0|0:0,0:0:0:0:
172,64,24056,1,2,0:0:0:0:
208,168,24601,2,0,P|280:224|344:220,2,140,12|0|2,0:0|0:0|0:0,0:0:0:0:
260,68,26237,2,0,P|328:77|377:125,2,140,12|0|2,0:0|0:0|0:0,0:0:0:0:
256,192,27874,12,0,31692,0:0:0:0:
328,272,34419,70,0,B|280:228|196:272|196:272|144:264|128:232,1,210.000008010865,4|2,0:0|0:0,0:0:0:0:
108,164,36056,2,0,P|120:116|168:84,1,105.000004005432,4|2,0:0|0:0,0:0:0:0:
220,336,38237,6,0,B|248:260|356:296|360:180,1,210.000008010865,4|2,0:0|0:0,0:0:0:0:
332,112,39873,1,4,0:0:0:0:
108,112,40964,5,10,0:0:0:0:
256,192,41100,12,0,43691,0:0:0:0:
36,256,58964,38,0,P|104:268|184:216,1,140,4|0,0:0|0:0,0:0:0:0:
244,160,60054,2,0,P|288:144|340:156,1,70,2|2,0:0|0:0,0:0:0:0:
360,172,60600,2,0,P|440:168|488:108,2,140,12|0|2,0:0|0:0|0:0,0:0:0:0:
304,76,62236,6,0,P|244:52|152:96,1,140,4|0,0:0|0:0,0:0:0:0:
108,164,63327,2,0,P|116:208|104:256,1,70,2|2,0:0|0:0,0:0:0:0:
84,280,63873,2,0,P|200:256|348:336,1,280,12|2,0:0|0:0,0:0:0:0:
448,296,65509,6,0,L|420:144,1,140,4|0,0:0|0:0,0:0:0:0:
400,108,66327,1,0,0:0:0:0:
348,132,66600,2,0,P|288:144|196:116,2,140,2|12|0,0:0|0:0|0:0,0:0:0:0:
424,48,68236,1,2,0:0:0:0:
503,127,68782,54,0,P|424:168|376:352,1,280,4|2,0:0|0:0,0:0:0:0:
260,360,70418,2,0,P|264:232|296:152,2,210,12|0|4,0:0|0:0|0:0,0:0:0:0:
208,28,73691,54,0,P|212:92|160:184,1,140,12|0,0:0|0:0,0:0:0:0:
136,196,74509,1,0,0:0:0:0:
92,232,74782,2,0,P|192:248|228:288,2,140,2|12|0,0:0|0:0|0:0,0:0:0:0:
64,340,76418,2,0,P|104:328|136:340,1,70,2|2,0:0|0:0,0:0:0:0:
180,364,76964,6,0,P|264:368|336:328,1,140,12|0,0:0|0:0,0:0:0:0:
392,268,78054,2,0,P|392:224|368:184,1,70,2|2,0:0|0:0,0:0:0:0:
344,160,78600,2,0,P|272:148|224:76,2,140,4|0|2,0:0|0:0|0:0,0:0:0:0:
444,112,80236,54,0,P|398:60|330:51,2,140,4|0|2,0:0|0:0|0:0,0:0:0:0:
468,164,81600,1,2,0:0:0:0:
436,212,81873,2,0,B|388:232|380:292|312:296,1,140,12|0,0:0|0:0,0:0:0:0:
216,312,82964,2,0,P|168:320|136:312,1,70,2|2,0:0|0:0,0:0:0:0:
112,272,83509,6,0,P|84:200|24:136,1,140,4|0,0:0|0:0,0:0:0:0:
8,110,84327,1,0,0:0:0:0:
48,72,84600,2,0,P|128:48|208:44,1,140,2|4,0:0|0:0,0:0:0:0:
272,112,85691,2,0,P|344:136|408:120,2,140,0|2|12,0:0|0:0|0:0,0:0:0:0:
232,72,87054,1,0,0:0:0:0:
176,80,87327,6,0,P|128:108|104:204,1,140,0|2,0:0|0:0,0:0:0:0:
108,296,88418,2,0,P|168:256|260:276,1,140,12|0,0:0|0:0,0:0:0:0:
276,296,89236,2,0,P|332:336|364:340,1,70,0|2,0:0|0:0,0:0:0:0:
432,284,90054,54,0,P|464:216|440:140,1,140,12|0,0:0|0:0,0:0:0:0:
428,104,90873,1,0,0:0:0:0:
392,64,91145,1,2,0:0:0:0:
280,64,91691,2,0,P|212:88|124:72,1,140,12|0,0:0|0:0,0:0:0:0:
96,52,92509,2,0,P|44:32|4:40,1,70,0|2,0:0|0:0,0:0:0:0:
40,144,93327,6,0,P|64:220|72:296,1,140,4|0,0:0|0:0,0:0:0:0:
88,332,94145,1,0,0:0:0:0:
136,360,94418,2,0,P|192:304|272:308,2,140,2|12|0,0:0|0:0|0:0,0:0:0:0:
100,252,96054,2,0,P|176:208|236:208,2,140,2|4|0,0:0|0:0|0:0,0:0:0:0:
44,348,97691,1,2,0:0:0:0:
256,192,98236,12,0,100623,0:0:0:0:
308,296,101509,6,0,P|340:216|320:140,1,140,4|0,0:0|0:0,0:0:0:0:
296,120,102327,1,0,0:0:0:0:
240,120,102600,2,0,P|160:128|76:108,1,140,2|12,0:0|0:0,0:0:0:0:
32,204,103691,2,0,P|68:248|76:276,2,70,0|0|2,0:0|0:0|0:0,0:0:0:0:
12,92,104782,54,0,P|64:40|144:40,1,140,4|0,0:0|0:0,0:0:0:0:
176,60,105600,2,0,P|224:80|256:84,1,70,0|2,0:0|0:0,0:0:0:0:
352,68,106418,2,0,L|320:228,2,140,12|0|2,0:0|0:0|0:0,0:0:0:0:
396,32,107782,1,2,0:0:0:0:
448,52,108054,6,0,P|484:88|480:200,1,140,4|0,0:0|0:0,0:0:0:0:
456,216,108873,2,0,P|424:256|420:288,1,70,0|2,0:0|0:0,0:0:0:0:
332,340,109691,2,0,P|200:356|172:352,1,140,4|0,0:0|0:0,0:0:0:0:
92,308,110782,2,0,P|48:256|44:228,1,70,2|2,0:0|0:0,0:0:0:0:
80,212,111327,6,0,P|108:168|96:64,1,140,12|0,0:0|0:0,0:0:0:0:
68,40,112145,1,0,0:0:0:0:
124,32,112418,2,0,P|264:48|336:20,2,210,2|0|2,0:0|0:0|0:0,0:0:0:0:
12,36,114600,54,0,P|32:128|20:192,1,140,12|0,0:0|0:0,0:0:0:0:
16,228,115418,1,0,0:0:0:0:
12,284,115691,2,0,P|76:254|156:286,2,140,2|4|0,0:0|0:0|0:0,0:0:0:0:
84,352,117327,2,0,P|136:364|172:352,1,70,2|2,0:0|0:0,0:0:0:0:
204,340,117873,6,0,P|260:288|344:288,1,140,4|0,0:0|0:0,0:0:0:0:
376,296,118691,1,0,0:0:0:0:
420,332,118964,2,0,P|476:256|472:136,2,210,2|0|2,0:0|0:0|0:0,0:0:0:0:
312,356,121145,6,0,P|204:344|168:332,1,140,12|0,0:0|0:0,0:0:0:0:
128,308,121964,2,0,P|84:284|48:280,1,70,0|2,0:0|0:0,0:0:0:0:
28,176,122782,2,0,P|96:172|180:120,1,140,12|0,0:0|0:0,0:0:0:0:
256,84,123873,1,2,0:0:0:0:
352,139,124418,54,0,P|414:171|484:176,2,140,4|0|2,0:0|0:0|0:0,0:0:0:0:
312,100,125782,1,2,0:0:0:0:
268,68,126054,2,0,P|200:40|128:56,1,140,4|0,0:0|0:0,0:0:0:0:
56,132,127145,1,2,0:0:0:0:
80,240,127691,6,0,P|112:280|120:308,1,70,4|0,0:0|0:0,0:0:0:0:
148,344,128236,2,0,P|208:364|296:328,1,140,0|2,0:0|0:0,0:0:0:0:
320,304,129054,1,2,0:0:0:0:
356,260,129327,2,0,B|340:200|384:164|356:104,2,140,12|0|2,0:0|0:0|0:0,0:0:0:0:
468,276,130964,6,0,B|452:216|496:180|468:120,1,140,12|0,0:0|0:0,0:0:0:0:
452,88,131782,1,0,0:0:0:0:
396,76,132054,2,0,P|324:100|164:76,2,210,2|0|2,0:0|0:0|0:0,0:0:0:0:
496,20,134236,54,0,P|480:64|496:164,1,140,4|0,0:0|0:0,0:0:0:0:
512,208,135054,1,0,0:0:0:0:
476,248,135327,2,0,P|408:272|328:256,1,140,2|4,0:0|0:0,0:0:0:0:
272,172,136418,2,0,P|232:140|136:148,2,140,0|2|4,0:0|0:0|0:0,0:0:0:0:
304,216,137782,2,0,P|324:252|380:272,1,70
444,324,138600,1,2,0:0:0:0:
256,192,139145,12,8,140782,0:0:0:0:
152,272,142418,38,0,P|116:220|128:124,2,140,4|0|2,0:0|0:0|0:0,0:0:0:0:
224,356,144054,1,4,0:0:0:0:
284,264,144600,2,0,P|336:228|432:240,1,140,0|2,0:0|0:0,0:0:0:0:
500,160,145691,6,0,P|460:120|356:92,1,140,4|0,0:0|0:0,0:0:0:0:
328,100,146509,1,0,0:0:0:0:
276,120,146782,2,0,P|228:132|124:96,2,140,2|4|0,0:0|0:0|0:0,0:0:0:0:
360,44,148418,1,10,0:0:0:0:
388,152,148964,6,0,B|408:220|352:236|380:312,1,140,4|0,0:0|0:0,0:0:0:0:
384,348,149782,1,0,0:0:0:0:
332,364,150054,2,0,P|276:336|180:352,1,140,2|4,0:0|0:0,0:0:0:0:
92,368,151145,1,0,0:0:0:0:
32,272,151691,1,2,0:0:0:0:
100,184,152236,54,0,P|164:184|236:124,1,140,4|0,0:0|0:0,0:0:0:0:
296,56,153327,2,0,P|348:40|452:72,2,140,2|4|0,0:0|0:0|0:0,0:0:0:0:
184,40,154964,1,2,0:0:0:0:
224,142,155509,6,0,B|252:188|328:216|336:264,1,140,4|0,0:0|0:0,0:0:0:0:
256,328,156600,1,2,0:0:0:0:
186,238,157145,2,0,B|184:216|260:188|287:142,1,140,4|0,0:0|0:0,0:0:0:0:
320,100,157964,1,0,0:0:0:0:
360,60,158236,6,0,B|416:72|452:36|504:48,2,140,2|4|0,0:0|0:0|0:0,0:0:0:0:
252,32,159873,1,2,0:0:0:0:
172,108,160418,2,0,P|108:152|40:164,1,140,4|0,0:0|0:0,0:0:0:0:
12,272,161509,1,2,0:0:0:0:
104,340,162054,54,0,P|172:352|252:308,1,140,4|0,0:0|0:0,0:0:0:0:
312,244,163145,2,0,P|368:196|392:192,1,70,2|0,0:0|0:0,0:0:0:0:
408,164,163691,2,0,P|452:116|448:28,2,140,4|0|2,0:0|0:0|0:0,0:0:0:0:
304,124,165327,2,0,P|305:55|351:4,2,140,4|0|2,0:0|0:0|0:0,0:0:0:0:
256,192,166964,12,0,168736,0:0:0:0:
