osu file format v12

[General]
AudioFilename: Promise of Reunion_Vocal.mp3
AudioLeadIn: 2000
PreviewTime: 73384
Countdown: 0
SampleSet: Soft
StackLeniency: 0.7
Mode: 0
LetterboxInBreaks: 0
WidescreenStoryboard: 0

[Editor]
Bookmarks: 6056,14237,18056,19692,21328,22965,24601,26237,40964,60600,63873,67145,70418,73691,78600,80236,83509,85145,93327,96600,101509,104782,108054,109691,116236,117873,119509,124418,126054,127691,132600,134236,135873,137509
DistanceSpacing: 1.1
BeatDivisor: 4
GridSize: 4

[Metadata]
Title:Promise of Reunion
TitleUnicode:Promise of Reunion
Artist:Jayn
ArtistUnicode:Jayn
Creator:Lally
Version:Hard
Source:Ib
Tags:Garry Mary Game Eve Rose EX Industry kioku kouri Remix
BeatmapID:330395
BeatmapSetID:131137

[Difficulty]
HPDrainRate:6
CircleSize:4
OverallDifficulty:6
ApproachRate:7
SliderMultiplier:1.8
SliderTickRate:2

[Events]
//Background and Video events
0,0,"o3o.jpg",0,0
//Break Periods
2,45873,58064
//Storyboard Layer 0 (Background)
//Storyboard Layer 1 (Fail)
//Storyboard Layer 2 (Pass)
//Storyboard Layer 3 (Foreground)
//Storyboard Sound Samples
//Background Colour Transformations
3,100,163,162,255

[TimingPoints]
56,545.454545454546,3,2,1,20,1,0
6056,-100,3,2,1,15,0,0
6601,-100,3,2,1,20,0,0
14237,-100,3,2,1,15,0,0
14783,-100,3,2,1,20,0,0
27874,-200,3,2,1,20,0,0
28010,-200,3,2,1,5,0,0
29510,-200,3,2,1,20,0,0
29646,-100,3,2,1,5,0,0
34419,-133.333333333333,3,2,1,20,0,0
38237,545.454545454546,3,2,1,20,1,0
38237,-133.333333333333,3,2,1,20,0,0
39873,-133.333333333333,3,2,1,20,0,0
40146,-133.333333333333,3,2,1,15,0,0
40964,545.454545454546,3,2,1,15,1,0
41100,-100,3,2,1,5,0,0
58964,-100,3,2,1,25,0,0
72054,-200,3,2,1,25,0,0
72873,-200,3,2,1,15,0,0
73691,-100,3,2,1,25,0,0
80236,-100,3,2,1,45,0,0
80373,-100,3,2,1,25,0,0
93327,-100,3,2,1,45,0,0
93464,-100,3,2,1,25,0,0
100009,-100,3,2,1,5,0,0
100691,-100,3,2,1,25,0,0
104782,-100,3,2,1,45,0,0
104918,-100,3,2,1,25,0,0
114600,-100,3,2,1,35,0,0
117873,-100,3,2,1,45,0,0
118009,-100,3,2,1,35,0,0
140782,-100,3,2,1,15,0,0
142418,-100,3,2,1,25,0,0
148418,-100,3,2,1,15,0,0
148554,-100,3,2,1,25,0,0
163145,-200,3,2,1,25,0,0
163282,-200,3,2,1,15,0,0
163691,-100,3,2,1,25,0,0
167782,-100,3,2,1,20,0,0
168054,-100,3,2,1,15,0,0
168327,-100,3,2,1,10,0,0
168600,-100,3,2,1,5,0,0

[Colours]
Combo1 : 255,255,136
Combo2 : 157,128,219
Combo3 : 221,221,0
Combo4 : 196,0,0
Combo5 : 22,218,228
Combo6 : 253,113,116

[HitObjects]
156,320,56,2,0,P|208:308|240:240,1,90,4|0,0:0|0:0,0:0:0:0:
268,188,601,2,0,P|299:157|343:149,1,90
440,172,1146,2,0,P|408:216|412:276,1,90,2|0,0:0|0:0,0:0:0:0:
460,332,1692,54,0,P|416:280|300:296,1,180,4|0,0:0|0:0,0:0:0:0:
240,352,2510,1,0,0:0:0:0:
192,268,2783,2,0,P|164:228|96:236,1,90,2|0,0:0|0:0,0:0:0:0:
48,304,3328,6,0,P|88:260|76:128,1,180,4|0,0:0|0:0,0:0:0:0:
36,60,4146,1,0,0:0:0:0:
136,56,4419,2,0,B|216:44|244:84|324:64,2,180,2|4|0,0:0|0:0|0:0,0:0:0:0:
136,56,6056,37,12,0:0:0:0:
93,314,8237,54,0,L|189:290,1,90,4|0,0:0|0:0,0:0:0:0:
192,208,8783,2,0,L|105:230,1,90
117,146,9328,2,0,L|213:122,1,90,2|0,0:0|0:0,0:0:0:0:
269,46,9874,54,0,P|237:110|125:90,1,180,4|0,0:0|0:0,0:0:0:0:
69,38,10692,1,0,0:0:0:0:
36,136,10965,2,0,P|40:224|64:248,1,90,2|0,0:0|0:0,0:0:0:0:
177,336,11510,6,0,P|173:248|149:224,1,90,4|0,0:0|0:0,0:0:0:0:
75,298,12056,1,0,0:0:0:0:
165,122,12601,2,0,P|225:78|337:130,2,180,2|4|0,0:0|0:0|0:0,0:0:0:0:
165,122,14237,53,12,0:0:0:0:
140,264,16419,38,0,P|164:312|224:328,1,90,4|0,0:0|0:0,0:0:0:0:
376,308,16965,2,0,P|352:260|292:244,1,90
333,141,17510,2,0,P|247:177|217:258,2,180,2|12|0,0:0|0:0|0:0,0:0:0:0:
432,120,18874,2,0,P|476:92|488:44,1,90,0|2,0:0|0:0,0:0:0:0:
396,24,19419,1,0,0:0:0:0:
432,120,19692,54,0,P|400:184|288:188,1,180,12|0,0:0|0:0,0:0:0:0:
232,136,20510,2,0,P|184:112|116:124,1,90,0|2,0:0|0:0,0:0:0:0:
92,200,21056,1,2,0:0:0:0:
92,200,21328,2,0,P|36:248|-8:360,1,180,12|0,0:0|0:0,0:0:0:0:
92,348,22146,2,0,P|120:300|176:276,1,90,0|2,0:0|0:0,0:0:0:0:
244,252,22692,1,0,0:0:0:0:
336,212,22965,6,0,P|424:160|460:72,1,180,12|0,0:0|0:0,0:0:0:0:
364,60,23783,2,0,P|344:96|284:116,1,90,0|2,0:0|0:0,0:0:0:0:
200,100,24328,1,2,0:0:0:0:
200,124,24601,6,0,L|0:176,1,180,12|0,0:0|0:0,0:0:0:0:
48,268,25419,2,0,P|104:244|156:252,1,90,0|2,0:0|0:0,0:0:0:0:
228,276,25965,1,0,0:0:0:0:
316,320,26237,2,0,P|396:344|492:280,2,180,12|0|2,0:0|0:0|0:0,0:0:0:0:
208,128,27874,38,0,P|72:128|48:256,1,270,4|4,0:0|0:0,0:0:0:0:
256,192,29646,12,4,31692,0:0:0:0:
152,272,34419,38,0,P|196:256|224:152,2,135.000005149842,4|2|2,0:0|0:0|0:0,0:0:0:0:
336,208,36056,2,0,P|320:120|292:88,1,135.000005149842,4|2,0:0|0:0,0:0:0:0:
260,144,38237,54,0,P|216:160|188:264,2,135.000005149842,4|0|2,0:0|0:0|0:0,0:0:0:0:
368,132,39873,1,6,0:0:0:0:
368,132,40964,37,10,0:0:0:0:
256,192,41100,12,0,43691,0:0:0:0:
172,272,58964,38,0,P|196:216|236:200,1,90,4|0,0:0|0:0,0:0:0:0:
308,220,59509,2,0,P|376:200|400:164,1,90
356,104,60054,2,0,P|288:124|264:160,1,90,2|2,0:0|0:0,0:0:0:0:
216,204,60600,2,0,P|168:200|136:60,1,180,12|0,0:0|0:0,0:0:0:0:
172,20,61418,1,0,0:0:0:0:
252,64,61691,1,2,0:0:0:0:
288,148,61964,1,2,0:0:0:0:
216,204,62236,6,0,P|208:272|248:316,1,90,4|0,0:0|0:0,0:0:0:0:
300,320,62782,2,0,P|248:292|140:332,1,180,0|2,0:0|0:0,0:0:0:0:
64,376,63600,1,2,0:0:0:0:
56,288,63873,2,0,B|76:212|16:184|48:104,1,180,12|0,0:0|0:0,0:0:0:0:
100,36,64691,1,0,0:0:0:0:
172,88,64964,2,0,P|220:116|268:104,1,90,2|2,0:0|0:0,0:0:0:0:
332,68,65509,6,0,P|288:112|280:252,1,180,4|0,0:0|0:0,0:0:0:0:
320,300,66327,1,0,0:0:0:0:
260,368,66600,1,2,0:0:0:0:
184,320,66873,1,2,0:0:0:0:
148,240,67145,2,0,P|120:200|68:188,1,90,12|0,0:0|0:0,0:0:0:0:
20,124,67691,2,0,P|36:56|80:32,1,90
83,188,68236,2,0,P|67:256|23:280,1,90,2|2,0:0|0:0,0:0:0:0:
28,356,68782,54,0,P|72:336|140:356,1,90,4|0,0:0|0:0,0:0:0:0:
196,372,69327,1,0,0:0:0:0:
259,308,69600,1,0,0:0:0:0:
322,244,69873,1,2,0:0:0:0:
322,244,70418,6,0,P|312:184|324:132,1,90,12|0,0:0|0:0,0:0:0:0:
405,27,70964,2,0,P|409:72|400:116,1,90
316,155,71509,2,0,P|312:110|322:67,1,90,2|2,0:0|0:0,0:0:0:0:
405,27,72054,54,0,P|336:44|268:24,1,135,4|0,0:0|0:0,0:0:0:0:
304,256,73691,70,0,L|356:176,1,90,12|0,0:0|0:0,0:0:0:0:
313,88,74236,2,0,L|264:164,1,90
212,236,74782,1,2,0:0:0:0:
148,300,75054,1,2,0:0:0:0:
144,320,75327,6,0,P|84:312|36:212,2,180,12|0|2,0:0|0:0|0:0,0:0:0:0:
228,280,76691,1,2,0:0:0:0:
228,280,76964,2,0,P|300:244|400:272,1,180,12|0,0:0|0:0,0:0:0:0:
452,332,77782,1,0,0:0:0:0:
452,332,78054,2,0,P|480:284|472:228,1,90,2|2,0:0|0:0,0:0:0:0:
460,164,78600,2,0,B|396:200|348:160|276:176,1,180,4|0,0:0|0:0,0:0:0:0:
208,224,79418,2,0,P|248:256|312:256,1,90,0|2,0:0|0:0,0:0:0:0:
156,136,80236,54,0,P|116:200|160:312,1,180,4|0,0:0|0:0,0:0:0:0:
216,344,81054,1,0,0:0:0:0:
132,372,81327,2,0,P|76:368|36:336,1,90,2|2,0:0|0:0,0:0:0:0:
112,284,81873,2,0,B|172:260|218:303|218:303|259:303|312:256,1,180,12|0,0:0|0:0,0:0:0:0:
345,219,82691,1,0,0:0:0:0:
408,155,82964,1,2,0:0:0:0:
471,91,83236,1,2,0:0:0:0:
472,60,83509,6,0,P|396:24|300:44,1,180,4|0,0:0|0:0,0:0:0:0:
240,104,84327,1,0,0:0:0:0:
180,172,84600,2,0,P|93:189|12:153,2,180,2|4|0,0:0|0:0|0:0,0:0:0:0:
180,172,86236,2,0,P|216:128|296:140,1,135,2|2,0:0|0:0,0:0:0:0:
324,164,86782,6,0,P|372:198|424:188,1,90,12|0,0:0|0:0,0:0:0:0:
488,168,87327,1,0,0:0:0:0:
492,256,87600,2,0,P|456:292|392:300,1,90,0|2,0:0|0:0,0:0:0:0:
320,300,88145,1,2,0:0:0:0:
224,268,88418,2,0,P|124:264|40:300,2,180,12|0|2,0:0|0:0|0:0,0:0:0:0:
320,300,89782,1,2,0:0:0:0:
344,280,90054,54,0,L|440:116,1,180,12|0,0:0|0:0,0:0:0:0:
480,48,90873,1,0,0:0:0:0:
392,52,91145,2,0,P|344:60|292:40,1,90,2|2,0:0|0:0,0:0:0:0:
228,4,91691,2,0,P|276:52|264:164,1,180,12|0,0:0|0:0,0:0:0:0:
204,221,92509,1,0,0:0:0:0:
140,284,92782,1,2,0:0:0:0:
140,284,93327,6,0,P|84:200|-8:164,1,180,4|0,0:0|0:0,0:0:0:0:
56,80,94145,2,0,L|160:68,1,90,0|2,0:0|0:0,0:0:0:0:
240,56,94691,1,2,0:0:0:0:
264,48,94964,2,0,P|304:88|308:216,1,180,12|0,0:0|0:0,0:0:0:0:
244,264,95782,1,0,0:0:0:0:
312,336,96054,2,0,P|360:348|420:328,1,90,2|2,0:0|0:0,0:0:0:0:
360,252,96600,6,0,P|304:240|212:344,1,180,4|0,0:0|0:0,0:0:0:0:
148,372,97418,1,0,0:0:0:0:
124,284,97691,2,0,P|96:232|44:200,1,90,2|2,0:0|0:0,0:0:0:0:
4,156,98236,1,4,0:0:0:0:
256,192,98373,12,4,99873,0:0:0:0:
228,320,100691,69,2,0:0:0:0:
139,301,100964,1,2,0:0:0:0:
90,225,101236,1,0,0:0:0:0:
200,104,101509,6,0,B|260:80|308:112|308:112|336:144|400:144,1,180,4|0,0:0|0:0,0:0:0:0:
456,148,102327,1,0,0:0:0:0:
420,64,102600,2,0,P|368:132|384:256,1,180,2|12,0:0|0:0,0:0:0:0:
404,304,103418,1,0,0:0:0:0:
324,344,103691,2,0,B|256:312|236:344|224:364|136:328,1,180,0|2,0:0|0:0,0:0:0:0:
40,188,104782,54,0,P|84:216|200:144,1,180,4|0,0:0|0:0,0:0:0:0:
224,84,105600,1,0,0:0:0:0:
292,140,105873,2,0,P|345:153|429:121,1,135,2|2,0:0|0:0,0:0:0:0:
452,100,106418,6,0,P|416:160|432:296,2,180,12|0|2,0:0|0:0|0:0,0:0:0:0:
488,16,107782,1,2,0:0:0:0:
396,16,108054,2,0,P|348:36|316:88,1,90,4|0,0:0|0:0,0:0:0:0:
328,156,108600,2,0,P|298:189|256:204,1,90
108,204,109145,2,0,P|138:171|180:156,1,90,2|2,0:0|0:0,0:0:0:0:
256,204,109691,6,0,B|316:264|372:232|392:208|392:208|440:212,2,180,4|0|2,0:0|0:0|0:0,0:0:0:0:
204,128,111054,1,2,0:0:0:0:
220,104,111327,2,0,B|184:40|144:24|144:24|108:16|48:24,1,180,12|0,0:0|0:0,0:0:0:0:
28,96,112145,2,0,P|28:148|68:184,1,90,0|2,0:0|0:0,0:0:0:0:
115,239,112691,1,2,0:0:0:0:
178,302,112964,1,4,0:0:0:0:
256,192,113100,12,0,114327,0:0:0:0:
304,84,114600,54,0,P|352:96|372:160,1,90,12|0,0:0|0:0,0:0:0:0:
392,208,115145,2,0,P|440:192|464:144,1,90,0|0,0:0|0:0,0:0:0:0:
308,180,115691,2,0,P|260:196|236:244,1,90,2|2,0:0|0:0,0:0:0:0:
200,308,116236,2,0,B|160:304|104:324|104:324|60:300|68:248,1,180,4|0,0:0|0:0,0:0:0:0:
67,166,117054,1,0,0:0:0:0:
116,92,117327,2,0,P|88:48|32:40,1,90,2|2,0:0|0:0,0:0:0:0:
36,124,117873,6,0,P|96:184|204:164,1,180,4|0,0:0|0:0,0:0:0:0:
268,140,118691,1,0,0:0:0:0:
260,228,118964,2,0,L|248:344,1,90,2|2,0:0|0:0,0:0:0:0:
388,268,119509,2,0,L|344:176,1,90,4|0,0:0|0:0,0:0:0:0:
235,56,120054,2,0,L|268:140,1,90
260,228,120600,1,2,0:0:0:0:
62,174,121145,6,0,P|27:218|14:279,1,90,12|0,0:0|0:0,0:0:0:0:
88,296,121691,2,0,P|127:223|233:235,1,180,0|2,0:0|0:0,0:0:0:0:
261,299,122509,1,2,0:0:0:0:
320,368,122782,2,0,P|364:344|384:284,1,90,12|0,0:0|0:0,0:0:0:0:
400,220,123327,2,0,P|406:161|426:125,1,90
484,72,123873,54,0,P|404:112|292:80,2,180,2|4|0,0:0|0:0|0:0,0:0:0:0:
424,4,125236,1,0,0:0:0:0:
336,12,125509,1,2,0:0:0:0:
317,97,125782,1,2,0:0:0:0:
392,148,126054,6,0,P|420:200|364:316,1,180,4|0,0:0|0:0,0:0:0:0:
212,368,127145,1,10,0:0:0:0:
108,220,127691,6,0,P|152:180|156:136,1,90,4|0,0:0|0:0,0:0:0:0:
68,136,128236,2,0,P|12:208|68:308,1,180,0|2,0:0|0:0,0:0:0:0:
112,332,129054,1,2,0:0:0:0:
196,364,129327,2,0,B|212:304|272:300|288:204,2,180,12|0|2,0:0|0:0|0:0,0:0:0:0:
372,248,130964,54,0,P|372:176|340:144,1,90,12|0,0:0|0:0,0:0:0:0:
284,124,131509,2,0,P|332:76|436:112,1,180,0|2,0:0|0:0,0:0:0:0:
468,188,132327,1,2,0:0:0:0:
472,280,132600,2,0,P|416:352|320:356,1,180,4|0,0:0|0:0,0:0:0:0:
260,308,133418,1,0,0:0:0:0:
196,248,133691,1,2,0:0:0:0:
196,248,134236,6,0,P|168:184|56:156,1,180,4|0,0:0|0:0,0:0:0:0:
8,88,135054,2,0,L|104:60,1,90,0|2,0:0|0:0,0:0:0:0:
184,64,135600,1,2,0:0:0:0:
192,100,135873,6,0,P|248:108|356:16,1,180,4|0,0:0|0:0,0:0:0:0:
428,80,136691,2,0,P|372:132|348:252,1,180,0|2,0:0|0:0,0:0:0:0:
272,280,137509,2,0,P|332:232|444:256,2,180,4|0|2,0:0|0:0|0:0,0:0:0:0:
256,192,139145,12,8,140782,0:0:0:0:
352,64,142418,6,0,P|300:76|268:144,1,90,4|0,0:0|0:0,0:0:0:0:
244,196,142963,2,0,P|213:227|169:235,1,90
72,212,143509,2,0,P|104:168|100:108,1,90,2|0,0:0|0:0,0:0:0:0:
52,52,144054,6,0,P|96:104|212:88,1,180,4|0,0:0|0:0,0:0:0:0:
276,32,144872,1,0,0:0:0:0:
336,108,145145,2,0,P|372:160|424:160,1,90,2|0,0:0|0:0,0:0:0:0:
448,84,145690,6,0,P|408:128|420:260,1,180,4|0,0:0|0:0,0:0:0:0:
444,336,146508,1,0,0:0:0:0:
348,304,146782,2,0,P|284:252|172:288,2,180,2|4|0,0:0|0:0|0:0,0:0:0:0:
348,304,148418,1,8,0:0:0:0:
131,341,148964,54,0,P|172:359|216:352,1,90,4|0,0:0|0:0,0:0:0:0:
264,276,149509,2,0,P|300:224|360:216,1,90
384,148,150054,2,0,P|348:96|288:88,1,90,2|0,0:0|0:0,0:0:0:0:
236,104,150600,6,0,P|160:128|56:80,2,180,4|0|2,0:0|0:0|0:0,0:0:0:0:
268,20,151964,1,0,0:0:0:0:
324,87,152236,2,0,B|312:140|296:180|348:196|312:280,1,180,4|0,0:0|0:0,0:0:0:0:
268,340,153054,2,0,P|224:352|172:340,1,90,0|2,0:0|0:0,0:0:0:0:
112,288,153600,1,0,0:0:0:0:
52,220,153873,2,0,B|32:144|88:120|88:120|112:88|116:48,2,180,4|0|2,0:0|0:0|0:0,0:0:0:0:
312,336,155509,6,0,B|332:260|276:236|276:236|252:204|248:164,1,180,4|0,0:0|0:0,0:0:0:0:
292,100,156327,2,0,L|332:184,1,90,0|2,0:0|0:0,0:0:0:0:
388,252,156873,1,2,0:0:0:0:
440,324,157145,2,0,P|480:352|532:348,1,90,4|0,0:0|0:0,0:0:0:0:
356,332,157691,2,0,P|316:304|264:308,1,90
196,340,158236,2,0,P|148:352|92:328,1,90,2|2,0:0|0:0,0:0:0:0:
72,260,158782,54,0,P|64:188|0:80,2,180,4|0|2,0:0|0:0|0:0,0:0:0:0:
232,180,160418,2,0,P|240:252|304:360,2,180,4|0|2,0:0|0:0|0:0,0:0:0:0:
264,96,161782,1,2,0:0:0:0:
336,40,162054,2,0,P|400:40|436:20,1,90,4|0,0:0|0:0,0:0:0:0:
256,12,162600,2,0,P|192:12|156:32,1,90
108,80,163145,70,0,L|64:128,1,45,2|0,0:0|0:0,0:0:0:0:
36,172,163691,22,0,P|88:144|220:180,1,180,4|0,0:0|0:0,0:0:0:0:
292,196,164509,1,0,0:0:0:0:
364,252,164782,2,0,P|424:216|436:180,1,90,2|2,0:0|0:0,0:0:0:0:
276,280,165327,2,0,B|196:296|180:220|84:248,2,180,4|0|2,0:0|0:0|0:0,0:0:0:0:
256,192,166964,12,0,168736,0:0:0:0:
