osu file format v14

[General]
AudioFilename: Moondust-Jaymes Young.mp3
AudioLeadIn: 0
PreviewTime: -1
Countdown: 0
SampleSet: Soft
StackLeniency: 0.7
Mode: 0
LetterboxInBreaks: 1
WidescreenStoryboard: 0
SamplesMatchPlaybackRate: 1

[Editor]
Bookmarks: 0,30830,32179,33976,35774
DistanceSpacing: 0.8
BeatDivisor: 2
GridSize: 32
TimelineZoom: 1.7

[Metadata]
Title:Moondust
TitleUnicode:Moondust
Artist:Jaymes Young
ArtistUnicode:Jaymes Young
Creator:Hero No7
Version:Dust
Source:
Tags:
BeatmapID:667561
BeatmapSetID:297374

[Difficulty]
HPDrainRate:3
CircleSize:3
OverallDifficulty:6
ApproachRate:7
SliderMultiplier:1.00000000596046
SliderTickRate:1

[Events]
//Background and Video events
0,0,"Osu! backround.jpg",0,0
//Break Periods
2,33780,38047
//Storyboard Layer 0 (Background)
//Storyboard Layer 1 (Fail)
//Storyboard Layer 2 (Pass)
//Storyboard Layer 3 (Foreground)
//Storyboard Sound Samples

[TimingPoints]
38920.6384745682,224.719101123595,4,2,0,100,1,0

[HitObjects]
256,192,7320,12,0,10080,0:0:0:0:
64,64,10948,5,0,0:0:0:0:
96,96,11341,1,0,0:0:0:0:
128,128,11729,1,0,0:0:0:0:
160,160,12179,6,0,L|288:320,1,200.000001192092
384,224,13800,1,0,0:0:0:0:
480,288,14568,2,0,L|320:128,1,200.000001192092
288,96,15431,1,0,0:0:0:0:
256,64,15850,1,0,0:0:0:0:
128,32,17063,1,0,0:0:0:0:
128,32,17789,2,0,L|64:224,1,200.000001192092
32,288,18691,1,0,0:0:0:0:
0,352,19112,1,0,0:0:0:0:
64,224,20264,1,0,0:0:0:0:
128,192,21018,2,0,L|288:320,1,200.000001192092
384,320,21869,5,0,0:0:0:0:
320,256,22298,1,0,0:0:0:0:
288,256,23500,1,0,0:0:0:0:
256,160,24279,2,0,L|384:320,1,200.000001192092
256,160,25098,1,0,0:0:0:0:
352,128,25929,1,0,0:0:0:0:
320,64,26360,1,0,0:0:0:0:
256,32,26768,1,0,0:0:0:0:
192,64,27170,1,0,0:0:0:0:
160,128,27547,1,0,0:0:0:0:
192,192,27973,1,0,0:0:0:0:
320,256,28406,1,0,0:0:0:0:
416,160,28808,1,0,0:0:0:0:
320,64,29220,2,0,L|152:119,1,150.000000894069
0,160,29980,5,0,0:0:0:0:
128,256,30381,1,0,0:0:0:0:
256,160,30774,1,0,0:0:0:0:
384,256,31175,1,0,0:0:0:0:
320,128,31566,2,0,P|384:64|512:0,1,200.000001192092
512,0,32445,1,0,0:0:0:0:
448,64,32804,1,0,0:0:0:0:
384,128,33203,1,0,0:0:0:0:
320,192,33580,1,0,0:0:0:0:
192,32,38947,5,0,0:0:0:0:
192,32,39138,1,0,0:0:0:0:
224,64,39315,2,0,P|192:160|128:160,1,100.000000596046
160,192,39711,1,0,0:0:0:0:
128,256,39884,2,0,L|192:352,1,100.000000596046
256,352,40306,1,0,0:0:0:0:
320,320,40513,1,0,0:0:0:0:
352,256,40731,1,0,0:0:0:0:
352,192,40960,1,0,0:0:0:0:
320,128,41167,2,0,P|224:96|160:160,1,200.000001192092
128,224,41807,1,0,0:0:0:0:
128,224,41994,5,0,0:0:0:0:
128,224,42187,1,0,0:0:0:0:
192,288,42380,1,0,0:0:0:0:
192,288,42575,1,0,0:0:0:0:
192,288,42766,1,0,0:0:0:0:
288,352,42958,1,0,0:0:0:0:
416,352,43155,1,0,0:0:0:0:
416,352,43350,1,0,0:0:0:0:
416,352,43544,1,0,0:0:0:0:
480,288,43736,1,0,0:0:0:0:
480,288,43924,2,0,L|352:128,1,200.000001192092
288,64,44569,1,0,0:0:0:0:
288,64,44759,1,0,0:0:0:0:
288,64,44953,1,0,0:0:0:0:
352,320,46441,5,0,0:0:0:0:
352,320,46552,1,0,0:0:0:0:
256,256,47010,1,0,0:0:0:0:
256,256,47135,1,0,0:0:0:0:
160,192,47459,1,0,0:0:0:0:
252,121,47727,1,0,0:0:0:0:
256,192,48358,12,0,49482,0:0:0:0:
352,64,49897,5,0,0:0:0:0:
288,96,50087,1,0,0:0:0:0:
224,128,50285,1,0,0:0:0:0:
64,192,50606,1,0,0:0:0:0:
64,192,51077,1,0,0:0:0:0:
64,192,51555,1,0,0:0:0:0:
96,256,51916,1,0,0:0:0:0:
96,256,52103,1,0,0:0:0:0:
96,256,52291,1,0,0:0:0:0:
192,320,52478,1,0,0:0:0:0:
192,320,52659,5,0,0:0:0:0:
288,320,52853,2,0,L|384:224,1,100.000000596046
384,192,53265,1,0,0:0:0:0:
384,192,53465,1,0,0:0:0:0:
384,192,53658,1,0,0:0:0:0:
416,32,53849,2,0,L|448:160,1,100.000000596046
384,192,54271,2,0,L|288:256,1,100.000000596046
237,214,54696,2,0,L|141:150,1,100.000000596046
101,111,55113,1,0,0:0:0:0:
98,40,55298,2,0,P|2:72|2:104,1,100.000000596046
0,116,55701,5,0,0:0:0:0:
6,176,55875,2,0,L|38:272,1,100.000000596046
64,320,56290,1,0,0:0:0:0:
192,384,56478,1,0,0:0:0:0:
192,384,56673,2,0,P|332:313|337:311,1,150.000000894069
325,315,57177,2,0,L|384:224,1,100.000000596046
415,163,57601,1,0,0:0:0:0:
448,96,57794,1,0,0:0:0:0:
410,32,57986,1,0,0:0:0:0:
256,192,58471,12,0,59370,0:0:0:0:
320,0,60120,5,0,0:0:0:0:
320,0,60325,1,0,0:0:0:0:
320,0,60526,1,0,0:0:0:0:
224,32,60727,1,0,0:0:0:0:
224,32,60918,1,0,0:0:0:0:
224,32,61122,2,0,L|128:96,1,100.000000596046
96,128,61555,1,0,0:0:0:0:
96,128,61766,1,0,0:0:0:0:
96,128,61963,2,0,L|160:224,1,100.000000596046
206,282,62391,1,0,0:0:0:0:
206,282,62585,5,0,0:0:0:0:
256,352,62771,2,0,L|348:281,1,100.000000596046
416,224,63149,2,0,P|384:128|288:128,1,200.000001192092
224,160,63784,2,0,L|128:224,1,100.000000596046
64,256,64189,1,0,0:0:0:0:
64,256,64382,1,0,0:0:0:0:
64,256,64576,1,0,0:0:0:0:
0,192,64775,2,0,P|192:96|224:96,1,200.000001192092
288,64,65419,1,0,0:0:0:0:
288,64,65662,1,0,0:0:0:0:
352,0,66084,5,0,0:0:0:0:
416,64,66485,1,0,0:0:0:0:
416,160,66931,1,0,0:0:0:0:
352,224,67327,1,0,0:0:0:0:
256,224,67684,1,0,0:0:0:0:
192,160,67909,5,0,0:0:0:0:
192,64,68082,1,0,0:0:0:0:
192,64,68279,1,0,0:0:0:0:
192,64,68472,1,0,0:0:0:0:
192,64,68661,1,0,0:0:0:0:
192,64,68864,1,0,0:0:0:0:
256,192,69257,12,0,71055,0:0:0:0:
256,192,71397,5,0,0:0:0:0:
256,192,71729,12,0,74201,0:0:0:0:
256,192,74614,5,0,0:0:0:0:
256,192,75100,12,0,77572,0:0:0:0:
448,32,78651,5,0,0:0:0:0:
352,64,79456,2,0,P|352:192|384:192,1,200.000001192092
448,224,80331,1,0,0:0:0:0:
384,288,81045,1,0,0:0:0:0:
256,192,81915,1,0,0:0:0:0:
128,0,82740,1,0,0:0:0:0:
0,96,83144,1,0,0:0:0:0:
128,192,83522,1,0,0:0:0:0:
256,192,84270,1,0,0:0:0:0:
0,288,85136,1,0,0:0:0:0:
256,192,85938,5,0,0:0:0:0:
384,192,86344,1,0,0:0:0:0:
384,288,86751,1,0,0:0:0:0:
256,192,87584,1,0,0:0:0:0:
256,32,88358,1,0,0:0:0:0:
256,192,89189,1,0,0:0:0:0:
128,384,89610,1,0,0:0:0:0:
384,384,89986,1,0,0:0:0:0:
256,192,90830,1,0,0:0:0:0:
256,192,91280,2,0,L|384:320,1,150.000000894069
416,352,91942,5,0,0:0:0:0:
448,192,92395,1,0,0:0:0:0:
256,288,92863,1,0,0:0:0:0:
352,96,93246,1,0,0:0:0:0:
128,192,93655,1,0,0:0:0:0:
256,0,94110,1,0,0:0:0:0:
64,96,94472,1,0,0:0:0:0:
320,128,94875,1,0,0:0:0:0:
96,224,95287,1,0,0:0:0:0:
352,288,95688,1,0,0:0:0:0:
512,192,96111,1,0,0:0:0:0:
384,64,96498,1,0,0:0:0:0:
256,192,96896,1,0,0:0:0:0:
384,320,97339,1,0,0:0:0:0:
384,192,97676,5,0,0:0:0:0:
256,192,98136,1,0,0:0:0:0:
128,320,98505,1,0,0:0:0:0:
0,192,98942,1,0,0:0:0:0:
128,64,99344,1,0,0:0:0:0:
128,192,99778,1,0,0:0:0:0:
256,192,100125,1,0,0:0:0:0:
320,64,100575,1,0,0:0:0:0:
192,64,100927,1,0,0:0:0:0:
256,192,101378,1,0,0:0:0:0:
320,320,101793,1,0,0:0:0:0:
192,320,102184,1,0,0:0:0:0:
256,192,102620,1,0,0:0:0:0:
352,192,102974,1,0,0:0:0:0:
160,192,103317,1,0,0:0:0:0:
0,0,103562,6,0,L|64:96,1,100.000000596046
128,192,103986,1,0,0:0:0:0:
128,192,104187,1,0,0:0:0:0:
128,192,104386,1,0,0:0:0:0:
224,224,104622,1,0,0:0:0:0:
224,224,104814,1,0,0:0:0:0:
224,224,104988,2,0,L|320:160,1,100.000000596046
352,128,105394,1,0,0:0:0:0:
352,128,105580,1,0,0:0:0:0:
352,128,105774,1,0,0:0:0:0:
420,75,105999,6,0,P|484:203|484:235,1,150.000000894069
480,288,106540,1,0,0:0:0:0:
480,288,106734,1,0,0:0:0:0:
384,352,106926,1,0,2:2:0:0:
384,352,107125,1,0,0:0:0:0:
384,352,107323,2,0,L|224:320,1,150.000000894069
128,288,107856,1,0,0:0:0:0:
128,288,108061,1,0,0:0:0:0:
128,288,108263,1,0,0:0:0:0:
64,224,108462,1,0,0:0:0:0:
32,160,108668,5,0,0:0:0:0:
32,96,108876,1,0,0:0:0:0:
128,0,109080,1,0,0:0:0:0:
224,96,109291,1,0,0:0:0:0:
128,192,109486,1,0,0:0:0:0:
224,288,109683,1,0,0:0:0:0:
320,192,109884,1,0,0:0:0:0:
320,192,110098,2,0,L|384:128,1,50.000000298023
416,96,110398,1,0,0:0:0:0:
512,192,110593,1,0,0:0:0:0:
416,288,110796,5,0,0:0:0:0:
256,288,110994,1,0,0:0:0:0:
160,192,111189,1,0,0:0:0:0:
256,96,111400,1,0,0:0:0:0:
256,96,111639,1,0,0:0:0:0:
256,96,111858,2,0,L|352:160,1,100.000000596046
339,151,112300,1,0,0:0:0:0:
339,151,112503,1,0,0:0:0:0:
339,151,112709,1,0,0:0:0:0:
384,224,112911,1,0,0:0:0:0:
256,256,113118,1,0,0:0:0:0:
192,160,113319,1,0,0:0:0:0:
374,340,113508,2,0,P|224:352|96:224,1,300.000001788138
256,192,114538,12,0,115999,0:0:0:0:
0,32,116673,6,0,L|32:128,1,100.000000596046
60,203,117089,1,0,0:0:0:0:
60,203,117291,1,0,0:0:0:0:
60,203,117483,2,0,L|128:288,1,100.000000596046
192,352,117903,1,0,0:0:0:0:
192,352,118093,1,0,0:0:0:0:
192,352,118289,2,0,L|320:320|320:320,1,100.000000596046
288,288,118695,5,0,0:0:0:0:
192,256,118887,1,0,0:0:0:0:
288,224,119080,1,0,0:0:0:0:
192,192,119274,1,0,0:0:0:0:
288,160,119476,1,0,0:0:0:0:
192,128,119673,1,0,0:0:0:0:
192,128,119862,1,0,0:0:0:0:
192,128,120063,2,0,P|256:64|288:128,1,150.000000894069
384,160,120602,5,0,0:0:0:0:
384,256,120789,1,0,0:0:0:0:
288,256,120976,1,0,0:0:0:0:
192,256,121177,1,0,0:0:0:0:
192,352,121370,1,0,0:0:0:0:
288,352,121570,1,0,0:0:0:0:
288,256,121768,1,0,0:0:0:0:
352,160,121961,1,0,0:0:0:0:
224,160,122152,1,0,0:0:0:0:
288,64,122343,1,0,0:0:0:0:
288,64,122527,1,0,0:0:0:0:
288,64,122723,2,0,L|192:128,1,100.000000596046
256,192,123302,12,0,124650,0:0:0:0:
256,192,125277,5,0,0:0:0:0:
256,192,125475,1,0,0:0:0:0:
256,192,125666,1,0,0:0:0:0:
256,192,125868,2,0,L|160:128,1,100.000000596046
172,136,126292,1,0,0:0:0:0:
172,136,126488,1,0,0:0:0:0:
256,192,126683,2,0,L|352:128,1,100.000000596046
339,136,127106,1,0,0:0:0:0:
339,136,127301,1,0,0:0:0:0:
339,136,127501,1,0,0:0:0:0:
339,136,127684,6,0,L|422:211,1,100.000000596046
413,203,128086,2,0,L|323:306,1,100.000000596046
347,278,128502,2,0,L|257:199,1,100.000000596046
271,212,128922,2,0,L|352:128,1,100.000000596046
340,140,129348,1,0,0:0:0:0:
340,140,129534,1,0,0:0:0:0:
340,140,129731,2,0,L|256:64,1,100.000000596046
192,32,130143,1,0,0:0:0:0:
128,96,130339,1,0,0:0:0:0:
192,160,130527,1,0,0:0:0:0:
192,160,130720,6,0,L|96:256,1,100.000000596046
121,230,131150,1,0,0:0:0:0:
121,230,131342,1,0,0:0:0:0:
121,230,131536,2,0,L|64:128,1,100.000000596046
72,143,131954,2,0,L|126:44,1,100.000000596046
119,55,132367,1,0,0:0:0:0:
119,55,132562,1,0,0:0:0:0:
119,55,132757,1,0,0:0:0:0:
256,192,132965,12,0,133976,0:0:0:0:
320,32,134313,6,0,L|416:128,1,100.000000596046
390,102,134733,1,0,0:0:0:0:
390,102,134928,1,0,0:0:0:0:
390,102,135124,2,0,L|449:206,1,100.000000596046
439,189,135549,1,0,0:0:0:0:
439,189,135753,1,0,0:0:0:0:
439,189,135952,2,0,P|380:251|365:234,1,100.000000596046
256,192,136448,12,0,138021,0:0:0:0:
384,256,138246,5,0,0:0:0:0:
384,256,138433,1,0,0:0:0:0:
384,256,138627,1,0,0:0:0:0:
384,256,138822,1,0,0:0:0:0:
384,256,139021,1,0,0:0:0:0:
384,256,139216,2,0,L|278:322,1,100.000000596046
299,308,139650,2,0,P|192:288|64:96,1,350.000002086161
64,96,140647,1,0,0:0:0:0:
96,32,140849,1,0,0:0:0:0:
96,32,141059,2,0,P|161:6|212:28,1,100.000000596046
288,32,141488,1,0,0:0:0:0:
352,96,141688,1,0,0:0:0:0:
352,96,141886,1,0,0:0:0:0:
352,96,142077,2,0,L|416:192,1,100.000000596046
407,179,142492,1,0,0:0:0:0:
