osu file format v8

[General]
AudioFilename: Jay Sean - Down (ft. Lil Wayne).mp3
AudioLeadIn: 0
PreviewTime: 50922
Countdown: 1
SampleSet: Normal
StackLeniency: 0.7
Mode: 0
LetterboxInBreaks: 0

[Editor]
DistanceSpacing: 1
BeatDivisor: 4
GridSize: 8

[Metadata]
Title:Down
Artist:Jay Sean ft. Lil Wayne
Creator:Ignacio
Version:Normal
Source:
Tags:roddie Gladi lesjuh Glasjuh

[Difficulty]
HPDrainRate:3
CircleSize:4
OverallDifficulty:3
ApproachRate:3
SliderMultiplier:1.4
SliderTickRate:2

[Events]
//Background and Video events
0,0,"BG.jpg"
//Break Periods
2,80668,92437
2,135213,137210
2,156122,165391
//Storyboard Layer 0 (Background)
//Storyboard Layer 1 (Fail)
//Storyboard Layer 2 (Pass)
//Storyboard Layer 3 (Foreground)
//Storyboard Sound Samples
//Background Colour Transformations
3,100,163,162,255

[TimingPoints]
15014,454.545454545455,4,1,0,52,1,0
51377,-100,4,1,0,71,0,1
80809,-100,4,1,0,71,0,0
109559,-100,4,1,0,71,0,1
131377,-100,4,1,0,71,0,0
167741,-100,4,1,0,71,0,1
196832,-100,4,1,0,71,0,0

[Colours]
Combo1 : 255,255,125
Combo2 : 255,204,255
Combo3 : 255,188,121
SliderBorder : 255,151,203

[HitObjects]
112,128,21377,1,0
184,128,21604,1,0
256,128,21832,2,0,B|320:96|408:144,1,140,0|0
416,320,22968,1,8
160,296,23877,1,0
160,296,24104,1,2
128,104,24786,5,0
192,88,25013,1,8
320,104,25468,1,0
384,120,25695,1,8
368,232,26150,2,0,B|264:312|80:224,1,280
216,168,27513,1,4
424,296,28650,5,0
448,232,28877,1,0
384,200,29104,1,0
312,192,29331,1,0
176,128,30014,1,0
176,128,30241,1,0
416,80,32059,5,0
344,80,32286,1,8
272,80,32513,1,0
200,80,32740,2,0,B|200:232,2,140,8|0|0
128,80,33877,1,12
48,192,34331,5,0
48,264,34559,1,0
104,304,34786,1,0
384,320,35695,5,0
432,264,35922,1,8
424,192,36150,1,0
368,144,36377,1,8
304,112,36604,2,2,B|208:64|96:112,1,210
100,109,37513,1,0
24,224,37968,6,0,B|-40:296|32:360,2,140
96,224,39104,1,0
144,272,39331,2,2,B|248:336|360:272,1,210
344,280,40241,1,0
120,104,41150,1,0
400,104,42059,1,0
216,72,42968,5,0
216,144,43195,1,8
216,216,43422,1,0
288,216,43650,2,2,B|400:96,1,140,10|2
456,112,44331,1,0
456,112,44559,1,8
456,112,44786,1,0
448,248,45240,5,0
448,320,45468,2,0,B|160:320,1,280
168,320,46604,1,0
96,320,46831,2,0,B|0:184|104:40,1,280
184,248,48423,1,0
464,248,49332,1,0
384,80,50240,5,0
312,80,50468,1,8
312,152,50695,1,0
240,152,50922,1,8
168,152,51150,2,2,B|64:264,1,140
272,312,52286,5,0
344,312,52513,1,8
344,240,52740,1,0
416,240,52968,2,2,B|416:96,1,140,10|2
208,80,54104,5,0
136,80,54331,1,8
136,152,54559,1,0
64,152,54786,2,2,B|64:304,1,140,10|2
256,192,55695,12,4,58650
392,200,59559,5,0
320,200,59786,1,8
320,128,60013,1,0
248,128,60240,2,2,B|88:128,1,140,10|2
160,336,61377,5,0
232,336,61604,1,8
304,336,61831,1,0
376,336,62059,2,2,B|488:232,1,140,10|2
288,152,63195,5,0
224,120,63423,2,0,B|144:120,1,70,8|0
88,152,63877,1,0
120,216,64104,2,0,B|120:368,4,140,8|0|0|0|0
352,296,66604,6,0,B|352:136,1,140
280,160,67286,1,0
280,160,67740,1,4
88,80,68422,6,0,B|24:176|112:288,1,210
240,296,69559,1,4
256,192,70240,12,4,73195
392,80,73877,6,0,B|472:184|408:288,1,210
280,328,75013,1,4
72,328,75695,6,0,B|72:176,1,140
144,184,76377,1,8
144,184,76604,1,0
144,184,76832,1,0
256,192,77513,12,4,80468
408,80,93877,5,0
352,120,94104,1,8
304,168,94331,1,0
248,208,94559,2,2,B|248:352,1,140,10|2
104,344,95468,1,8
104,344,95695,1,0
104,200,96150,5,0
136,136,96377,1,8
208,136,96604,2,2,B|360:136,1,140
416,136,97286,1,8
416,208,97513,2,0,B|416:320|280:352,1,210,0|8
216,328,98422,1,4
88,80,99332,1,0
88,80,100241,1,0
344,80,101150,5,0
272,80,101377,2,0,B|120:80,1,140,0|0
88,136,102059,2,0,B|56:208|88:288,1,140,0|0
152,296,102741,1,0
224,304,102968,1,8
360,304,103422,5,0
408,256,103650,1,0
456,208,103877,2,2,B|456:64,1,140
384,64,104559,1,0
384,64,104786,2,0,B|248:152,1,140
208,176,105468,1,0
152,216,105695,1,4
256,192,106377,12,0,108195
112,312,108650,5,0
176,280,108877,1,8
248,272,109104,1,0
320,272,109331,2,0,B|472:272,1,140,8|0
464,72,110468,6,0,B|296:72,1,140,8|0
256,72,111150,1,0
256,72,111377,1,8
256,72,111604,1,0
96,208,112286,6,0,B|248:208,1,140
304,208,112968,2,0,B|400:224|440:128,1,140
256,192,114104,12,4,116831
384,80,117740,5,8
384,152,117968,1,0
312,152,118195,1,8
240,160,118423,2,0,B|168:248|248:312,1,140,0|8
72,136,119559,5,8
112,192,119786,1,0
56,232,120013,1,8
96,288,120241,2,0,B|256:288,1,140,0|8
256,192,121377,12,4,124104
136,88,124786,6,0,B|136:240,1,140
208,232,125468,1,8
208,232,125922,1,8
376,104,126604,6,0,B|480:208|400:320,1,210
288,344,127740,1,4
192,80,128650,5,8
248,120,128877,1,0
320,120,129104,1,8
320,192,129331,1,0
320,192,129559,2,0,B|200:288,4,140,0|0|8|0|8
144,80,132059,6,0,B|112:144|152:216,1,140
216,192,132740,2,8,B|304:192,1,70
360,192,133195,2,8,B|432:192,1,70
384,320,133877,2,0,B|296:288|224:328,1,140
176,320,134559,2,8,B|96:320,2,70
312,96,138650,5,8
240,96,138877,1,0
168,96,139104,1,8
120,152,139331,1,0
120,224,139559,2,2,B|288:224,1,140
376,304,140468,5,8
432,256,140695,1,0
432,184,140922,1,8
432,112,141150,1,0
360,112,141377,2,2,B|216:112,1,140
96,184,142286,6,0,B|96:264,1,70,8|0
136,312,142740,1,8
208,312,142968,1,0
280,312,143195,2,2,B|432:312,1,140
416,240,143877,1,0
416,240,144104,2,8,B|456:168|408:72,3,140
288,72,145922,6,8,B|184:40|128:88,1,140
72,184,146831,2,2,B|72:336,1,140
216,328,147740,1,8
216,328,147968,1,0
216,328,148195,1,8
336,256,148650,2,0,B|496:256,1,140
440,120,149559,6,8,B|280:120,1,140
160,64,150468,2,0,B|88:112|96:208,1,140
144,312,151377,2,8,B|224:256|296:336,1,140
416,296,152286,2,0,B|464:240|424:152,1,140
312,88,153195,5,8
312,88,153650,1,8
312,88,154104,2,0,B|152:88,1,140
72,184,155013,1,8
72,256,155240,1,0
72,328,155468,1,8
144,328,155695,1,0
216,328,155922,1,12
376,88,166831,5,8
376,160,167059,1,0
304,160,167286,2,0,B|224:120|136:168,1,140,8|0
168,153,167968,1,8
312,304,168650,5,8
384,304,168877,1,0
384,304,169104,1,8
456,304,169331,2,0,B|456:160,1,140,0|8
256,88,170468,5,8
184,88,170695,1,0
184,88,170923,1,8
112,88,171150,2,0,B|72:168|112:232,1,140,2|10
256,192,172059,12,4,175013
352,112,175922,5,8
352,184,176150,1,0
352,256,176377,1,8
280,256,176604,2,0,B|128:256,1,140,0|8
216,64,177740,5,8
160,104,177968,1,0
160,176,178195,1,8
232,176,178422,2,0,B|376:176,1,140,0|8
208,312,179559,6,0,B|288:312,1,70,0|8
344,312,180013,1,0
416,312,180240,1,8
416,240,180468,2,0,B|416:96,4,140
240,352,182968,6,0,B|88:184|264:16,1,350
448,72,184786,6,0,B|448:232,1,140
448,280,185468,2,8,B|344:280,1,70
312,280,185922,2,0,B|152:280,1,140,0|8
168,144,186831,5,8
224,104,187059,1,0
296,104,187286,1,8
296,104,187513,1,0
296,104,187740,2,0,B|296:264,4,140,8|0|0|0|0
256,192,190013,12,4,196831
