osu file format v8

[General]
AudioFilename: Jay Sean - Down (ft. Lil Wayne).mp3
AudioLeadIn: 0
PreviewTime: 50923
Countdown: 1
SampleSet: Normal
StackLeniency: 0.7
Mode: 0
LetterboxInBreaks: 0

[Editor]
Bookmarks: 80468,131945,153195,182286
DistanceSpacing: 1.20000004768372
BeatDivisor: 4
GridSize: 8

[Metadata]
Title:Down
Artist:Jay Sean ft. Lil Wayne
Creator:Ignacio
Version:Glasjuh
Source:
Tags:roddie Gladi lesjuh Glasjuh

[Difficulty]
HPDrainRate:6
CircleSize:5
OverallDifficulty:7
ApproachRate:7
SliderMultiplier:1.6
SliderTickRate:2

[Events]
//Background and Video events
0,0,"BG.jpg"
//Break Periods
//Storyboard Layer 0 (Background)
//Storyboard Layer 1 (Fail)
//Storyboard Layer 2 (Pass)
//Storyboard Layer 3 (Foreground)
//Storyboard Sound Samples
//Background Colour Transformations
3,100,0,0,0

[TimingPoints]
15014,454.545454545455,4,1,0,40,1,0
51377,-100,4,1,0,60,0,1
80695,-100,4,1,0,40,0,0
109559,-100,4,1,0,60,0,1
138650,-100,4,1,0,40,0,0
153195,-100,4,1,0,50,0,1
153309,-100,4,1,0,50,0,0
167741,-100,4,1,0,60,0,1
171320,-100,4,1,0,50,0,0
171377,-100,4,1,0,50,0,1
184048,-100,4,1,0,60,0,0
184104,-100,4,1,0,60,0,1
185866,-100,4,1,0,60,0,0
185923,-100,4,1,0,60,0,1
196775,-100,4,1,0,60,0,0
196832,-100,4,1,0,60,0,1
196889,-100,4,1,0,60,0,0

[Colours]
Combo1 : 255,255,125
Combo2 : 255,204,255
Combo3 : 255,188,121
SliderBorder : 255,151,203

[HitObjects]
128,104,21377,1,2
96,176,21604,1,2
144,240,21832,1,8
144,240,22059,1,0
216,208,22286,6,2,B|304:176|376:240,1,160,6|8
344,344,22968,2,2,B|256:376|184:312,1,160,2|0
128,280,23650,1,8
56,312,23877,1,0
56,312,24104,2,2,B|16:232|64:136,1,160,6|8
152,104,24786,5,2
216,152,25014,2,0,B|224:192|208:240,1,80,2|2
152,288,25468,2,0,B|248:312,1,80,8|2
288,256,25923,1,4
368,248,26150,5,2
440,280,26377,1,8
440,280,26604,2,2,B|472:200|440:112,1,160
392,64,27286,1,8
312,56,27514,1,2
256,112,27741,2,2,B|176:80|176:200|96:128,1,160,6|8
112,140,28423,1,0
56,232,28650,5,6
128,256,28877,1,0
192,216,29104,2,2,B|232:224|280:248,1,80,10|2
280,320,29559,6,2,B|368:360|432:280,1,160,6|8
400,184,30241,2,2,B|312:144|248:224,1,160,2|0
184,248,30923,1,8
120,200,31150,1,0
152,128,31377,2,2,B|96:208|176:312,1,160,6|8
256,328,32059,5,2
336,344,32286,1,2
400,296,32514,2,0,B|416:256|408:208,1,80,2|8
464,160,32968,2,2,B|376:136,1,80,2|6
320,96,33423,5,2
256,144,33650,1,8
256,144,33877,2,2,B|216:224|256:312,1,160
184,336,34559,1,8
112,304,34786,1,2
112,304,35014,2,6,B|152:224|112:136,1,160,6|8
176,56,35695,5,0
256,40,35923,2,2,B|272:80|264:128,1,80,2|2
208,176,36377,2,0,B|304:208,1,80,8|2
392,168,36832,2,2,B|440:240|392:328,1,160,6|10
288,320,37514,2,2,B|240:248|288:160,1,160,2|2
256,96,38195,5,8
256,96,38423,1,2
256,96,38650,2,8,B|176:56|96:104,1,160,6|10
178,183,39332,2,2,B|258:223|338:175,1,160,2|0
256,96,40014,5,8
256,96,40241,1,2
256,96,40468,2,2,B|336:56|416:104,1,160,6|10
334,183,41150,2,2,B|254:223|174:175,1,160,2|0
112,136,41832,2,0,B|96:232,1,80,8|0
120,288,42286,1,4
392,96,42741,1,8
424,168,42968,5,2
352,208,43195,2,2,B|336:248|336:288,1,80
384,352,43650,2,0,B|280:368,1,80,8|2
224,288,44104,2,2,B|144:336|72:288,1,160,6|10
72,176,44786,2,2,B|152:128|224:176,1,160
296,200,45468,5,8
352,144,45695,1,2
320,72,45923,2,2,B|368:160|312:240,1,160,6|10
192,224,46604,2,2,B|144:136|200:56,1,160,2|2
256,24,47286,5,8
256,24,47514,1,2
256,24,47741,2,2,B|256:192,1,160,6|8
184,272,48423,2,2,B|256:336|344:264,1,160
392,224,49104,2,0,B|408:312,1,80,8|0
344,352,49559,1,4
168,32,50014,1,8
104,80,50241,5,2
136,152,50468,2,2,B|144:192|136:240,1,80
88,296,50923,2,0,B|184:312,1,80,8|0
224,256,51377,2,2,B|320:296|376:208,1,160,6|8
366,221,52059,1,0
368,112,52286,5,2
304,64,52514,1,2
224,72,52741,2,0,B|208:168,1,80,8|0
136,128,53195,2,2,B|96:200|136:288,1,160,6|8
133,282,53877,1,0
232,328,54104,6,2,B|272:344|320:320,1,80
376,368,54559,2,0,B|384:280,1,80,8|0
440,232,55014,2,2,B|368:288|280:240,1,160,6|8
289,245,55695,1,0
256,136,55923,5,2
304,72,56150,2,2,B|344:56|392:56,2,80,2|10|2
224,64,56832,1,6
376,120,57286,1,10
136,136,57741,1,2
448,200,58195,1,10
256,368,58650,1,6
256,368,59104,1,8
256,16,59559,5,2
200,72,59786,1,2
120,64,60014,2,0,B|104:160,1,80,8|0
32,160,60468,2,2,B|96:136|128:256|200:168,1,160,6|8
177,189,61150,1,0
280,152,61377,5,2
352,176,61604,2,0,B|368:136|368:80,2,80,2|8|0
296,232,62286,2,2,B|248:304|304:400,1,160,6|8
295,383,62968,1,0
208,312,63195,5,2
208,312,63422,2,2,B|168:328|120:328,2,80,2|10|2
288,320,64104,1,6
136,264,64558,1,10
376,248,65013,1,2
64,184,65467,1,10
256,16,65922,1,6
256,16,66376,1,8
304,80,66604,6,2,B|240:152|144:104,1,160,2|0
80,88,67286,2,0,B|96:192,1,80,8|0
56,240,67741,2,2,B|120:208|152:312|232:224,1,160,6|10
296,184,68423,6,2,B|344:264|288:352,1,160
224,360,69104,1,8
152,328,69332,1,0
160,248,69559,2,2,B|80:208|0:256,2,160,6|8|2
232,208,70695,5,2
224,128,70923,1,8
224,128,71150,1,0
224,128,71377,2,0,B|216:80|192:40,1,80,6|0
288,256,71831,2,0,B|296:304|320:344,1,80,10|0
192,224,72286,2,0,B|144:232|104:256,1,80,2|0
320,160,72741,2,0,B|368:152|408:128,1,80,10|0
256,192,73195,1,6
256,192,73650,1,8
208,256,73877,6,2,B|144:312|48:272,1,160
32,200,74559,1,8
80,136,74786,1,0
160,144,75014,2,2,B|224:120|240:224|304:176,1,160,6|10
400,120,75695,6,2,B|448:192|400:288,1,160
344,320,76377,1,8
344,320,76604,1,0
264,296,76832,2,2,B|192:264|176:384|96:312,2,160,6|8|2
320,240,77968,5,2
320,240,78195,1,8
304,160,78423,1,0
240,112,78650,2,0,B|224:72|240:16,1,80,6|0
272,272,79104,2,0,B|288:312|272:368,1,80,10|0
176,208,79559,2,0,B|136:224|80:208,1,80,2|0
336,176,80014,2,0,B|376:160|432:176,1,80,10|0
256,192,80468,1,6
120,112,80923,5,8
56,152,81150,1,0
24,224,81377,1,2
72,288,81604,2,2,B|120:272|160:272,1,80,2|8
208,328,82059,1,0
328,296,82286,6,2,B|384:232|352:144,1,160,6|10
288,96,82968,1,2
288,96,83195,1,0
216,136,83423,2,0,B|168:128|136:112,2,80,2|8|0
256,232,84104,2,2,B|352:272|392:184,1,160,6|10
464,152,84786,2,2,B|544:208|488:296,1,160
432,344,85468,1,8
352,328,85695,1,2
352,328,85923,5,4
160,360,86377,1,8
96,312,86604,2,0,B|80:256|80:224,1,80,2|2
120,160,87059,1,0
200,176,87286,1,10
200,176,87514,1,0
248,112,87741,6,2,B|336:64|384:152,1,160,6|10
456,184,88423,2,2,B|368:136|320:224,1,160,2|2
336,304,89104,1,8
264,344,89332,1,0
184,312,89559,6,2,B|96:272|136:176,1,160,6|10
184,112,90241,1,0
256,152,90468,1,2
336,160,90695,2,0,B|376:144|408:120,2,80,0|10|2
256,72,91377,6,2,B|160:32|120:120,1,160,6|10
48,80,92059,2,0,B|0:168|80:224,1,160,2|2
152,264,92741,1,8
224,232,92968,1,2
224,232,93195,5,4
352,328,93650,1,8
400,264,93877,2,2,B|384:224|376:184,1,80
392,112,94332,1,0
328,64,94559,1,10
328,64,94786,1,0
224,136,95014,6,2,B|304:192|256:280,1,160,6|10
320,328,95695,2,2,B|264:400|168:360,1,160
112,312,96377,1,8
128,232,96604,1,0
40,136,96832,6,2,B|88:224|176:176,1,160,6|10
208,104,97514,2,2,B|264:24|352:88,1,160
384,160,98195,1,8
336,224,98423,1,2
336,224,98650,5,4
176,192,99104,1,8
176,192,99332,2,0,B|88:232|128:328,1,160,0|0
200,360,100014,1,8
272,320,100241,1,0
272,320,100468,5,4
432,352,100923,1,8
472,280,101150,1,2
416,224,101377,2,0,B|400:184|408:144,2,80,2|2|8
352,272,102059,1,0
280,176,102286,6,6,B|216:104|136:152,1,160,6|10
80,208,102968,2,2,B|160:160|128:64,1,160,2|2
80,8,103650,1,8
8,32,103877,1,0
56,128,104104,6,2,B|144:176|200:96,1,160,6|10
256,48,104786,1,0
336,64,105014,2,2,B|376:80|408:112,1,80
432,184,105468,1,10
400,256,105695,1,0
304,336,105923,6,2,B|224:288|264:192,1,160,6|10
304,128,106604,1,0
384,152,106832,2,0,B|424:136|456:112,2,80,2|2|8
304,128,107514,2,2,B|248:48|160:96,2,160
392,168,108650,6,2,B|384:208|368:248,1,80
424,320,109104,2,0,B|392:352|360:376,1,80,10|0
280,288,109559,6,2,B|192:248|136:320,1,160,6|10
48,280,110241,1,0
104,208,110468,1,2
56,128,110695,2,0,B|64:88|80:48,1,80,2|8
168,24,111150,1,0
200,136,111377,6,2,B|288:176|344:104,1,160,6|10
440,120,112059,1,0
384,200,112286,1,2
472,240,112514,2,0,B|488:288|488:328,1,80,2|8
416,376,112968,1,0
320,296,113195,6,2,B|232:240|184:328,1,160,6|10
96,352,113877,1,0
40,272,114104,2,0,B|32:224|16:184,1,80,2|2
104,144,114559,2,0,B|112:104|128:64,1,80,10|0
232,128,115014,6,2,B|272:208|240:288,2,160,6|10|2
280,48,116150,1,0
368,72,116377,2,0,B|408:64|448:40,1,80,10|0
480,176,116832,6,2,B|400:224|336:152,1,160,6|10
240,160,117514,1,0
208,248,117741,2,2,B|224:288|232:328,1,80
144,360,118195,1,8
64,304,118423,1,0
128,208,118650,6,6,B|176:128|104:64,1,160,6|10
192,24,119332,1,0
248,104,119559,2,0,B|288:96|328:72,1,80,2|2
408,120,120014,1,8
384,216,120241,1,0
496,288,120468,6,2,B|408:248|352:320,1,160,6|10
264,360,121150,1,0
192,296,121377,1,2
224,208,121604,2,0,B|216:160|216:120,2,80,2|10|0
320,224,122286,5,6
144,144,122741,1,10
136,320,123195,5,6
328,64,123650,1,10
440,272,124104,6,2,B|352:320|304:232,1,160,6|8
368,160,124786,2,2,B|416:72|336:16,1,160,2|2
248,8,125468,1,8
192,88,125695,1,0
64,56,125923,6,2,B|16:144|104:192,1,160,6|10
24,256,126604,2,2,B|80:176|168:232,1,160
208,312,127286,1,8
304,336,127514,1,0
368,264,127741,1,6
264,104,128195,1,8
440,32,128650,5,2
400,120,128877,2,0,B|416:168|424:208,2,80,2|10|0
280,88,129559,5,6
200,264,130014,1,10
144,40,130468,5,6
336,304,130923,1,10
480,88,131377,6,2,B|392:40|344:128,1,160,6|8
256,88,132059,2,2,B|208:176|296:224,1,160,2|2
304,320,132741,1,8
216,360,132968,1,0
160,184,133195,6,6,B|216:272|128:320,1,160,6|10
40,296,133877,2,0,B|-16:208|72:160,1,160,2|2
160,184,134559,1,8
240,136,134786,1,0
224,40,135014,1,6
408,96,135468,5,8
360,280,135923,1,2
264,256,136150,1,0
192,320,136377,1,10
264,256,136604,1,2
360,280,136832,5,6
160,144,137286,1,10
88,304,137741,5,6
416,104,138195,1,10
336,336,138650,6,2,B|248:288|304:200,1,160,6|10
352,144,139332,1,0
424,168,139559,2,2,B|464:152|496:128,2,80,2|0|10
352,144,140241,1,0
272,64,140468,1,6
272,64,140695,1,0
272,64,140923,2,2,B|184:40|120:96,1,160,10|2
96,168,141604,1,0
96,168,141832,1,10
168,312,142286,6,2,B|256:336|320:280,1,160,2|10
376,232,142968,1,0
456,256,143195,1,2
496,184,143423,1,0
456,112,143650,2,2,B|472:64|496:32,1,80,10|0
456,112,144104,1,4
376,136,144332,1,2
328,72,144559,2,0,B|240:48,1,80,10|0
176,80,145014,1,6
208,152,145241,1,0
136,192,145468,1,10
96,256,145695,1,0
168,288,145923,6,2,B|232:232|320:280,2,160,6|10|2
120,352,147059,1,0
120,352,147286,1,10
320,168,147741,6,6,B|296:128|304:72,1,80,6|2
360,40,148195,2,0,B|384:80|376:136,1,80,10|0
408,192,148650,1,2
384,264,148877,1,0
464,280,149104,1,10
464,280,149332,1,0
328,344,149559,6,0,B|240:312,1,80,6|2
176,336,150014,1,8
120,280,150241,1,0
152,208,150468,2,2,B|136:168|112:120,1,80
200,112,150923,2,2,B|215:72|232:38,1,80,10|0
352,8,151377,6,0,B|440:56|384:152,1,160,6|10
440,208,152059,1,2
384,264,152286,1,6
312,232,152514,2,2,B|232:264,1,80,0|10
237,261,152968,1,0
176,104,153195,5,6
112,152,153423,2,0,B|96:192|96:240,1,80,0|8
136,304,153877,1,0
208,328,154104,2,2,B|304:360|352:272,1,160,2|10
424,296,154786,6,0,B|408:192,1,80,0|6
424,136,155241,1,0
424,136,155468,1,8
376,72,155695,1,0
296,88,155923,2,2,B|224:144|136:88,1,160,2|10
88,144,156604,5,0
184,208,156832,2,0,B|192:256|176:304,1,80,6|0
128,344,157286,2,0,B|232:368,1,80,8|0
280,328,157741,1,2
280,328,157968,1,2
360,336,158195,5,8
392,264,158423,1,0
352,192,158650,2,0,B|344:144|360:104,1,80,6|0
376,32,159104,2,0,B|288:56,1,80,8|0
256,120,159559,2,2,B|168:168|104:96,1,160,2|10
56,160,160241,5,0
80,272,160468,1,6
152,296,160695,2,0,B|192:280|240:272,1,80,0|8
296,320,161150,2,2,B|312:224,1,80
368,192,161604,1,0
368,192,161832,1,8
352,112,162059,5,0
288,160,162286,2,0,B|240:144|184:152,1,80,6|0
136,112,162741,2,0,B|144:208,1,80,8|0
208,232,163195,2,2,B|200:328,1,80,2|2
264,360,163650,1,8
344,376,163877,5,0
440,320,164104,2,0,B|448:272|432:232,1,80,6|0
504,192,164559,2,0,B|432:152,1,80,8|0
360,176,165014,1,2
360,176,165241,1,2
280,192,165468,1,8
240,120,165695,5,0
296,56,165923,1,6
368,96,166150,1,0
368,96,166377,1,8
16,160,166832,6,2,B|32:248,1,80
144,216,167286,2,0,B|120:304,1,80,10|0
232,288,167741,6,2,B|320:248|376:320,1,160,6|10
456,272,168423,1,0
496,184,168650,1,2
496,184,168877,2,0,B|488:144|472:104,1,80,2|8
392,64,169332,1,0
368,160,169559,6,2,B|280:200|224:128,1,160,6|10
136,96,170241,1,0
96,184,170468,1,2
96,184,170696,2,0,B|112:232|112:272,1,80,2|8
152,352,171150,1,0
248,328,171377,6,2,B|333:281|277:193,1,160,6|10
200,136,172059,1,0
280,80,172286,2,0,B|328:72|368:56,1,80,2|2
392,152,172741,2,2,B|480:168,1,80,10|0
512,296,173196,6,2,B|448:368|360:328,2,160,6|10|2
440,232,174332,1,0
344,216,174559,2,0,B|304:224|264:248,1,80,10|0
208,336,175014,6,2,B|256:256|184:192,1,160,6|10
96,232,175696,1,0
64,144,175923,2,2,B|71:107|87:67,1,80
184,56,176377,1,8
256,104,176605,1,0
296,16,176832,6,6,B|248:96|320:160,1,160,6|10
416,168,177514,1,0
456,256,177741,2,0,B|448:296|424:336,1,80,2|2
336,352,178196,1,8
280,272,178423,1,0
176,168,178650,6,2,B|88:128|32:200,1,160,6|10
16,296,179332,1,0
88,360,179559,1,2
88,360,179786,2,0,B|136:352|176:352,2,80,2|10|0
16,296,180468,5,6
336,152,180923,1,10
488,224,181377,5,6
168,80,181832,1,10
248,312,182286,1,6
248,312,182968,6,2,B|192:384|96:352,1,160,2|2
32,312,183650,2,0,B|48:208,1,80,8|0
24,120,184104,2,2,B|88:192|176:160,1,160,6|8
200,56,184786,6,2,B|136:-16|48:16,1,160,2|2
24,120,185468,2,2,B|88:192|176:160,1,160,10|6
240,128,186150,1,0
320,152,186377,1,8
320,152,186604,2,0,B|328:200|312:240,1,80,0|2
304,312,187059,2,2,B|408:296,1,80,2|10
400,224,187514,1,0
376,144,187741,6,0,B|416:128|464:144,1,80,6|0
136,240,188195,2,0,B|96:256|48:240,1,80,10|0
208,72,188650,2,0,B|192:32|208:-16,1,80,2|0
304,312,189104,2,0,B|320:352|304:400,1,80,10|0
256,192,189559,1,6
256,192,189786,12,6,196832
