osu file format v6

[General]
AudioFilename: Jay Sean - Down (ft. Lil Wayne).mp3
AudioLeadIn: 0
PreviewTime: 167287
Countdown: 1
SampleSet: Normal
StackLeniency: 0.7
Mode: 0
LetterboxInBreaks: 1

[Editor]
Bookmarks: 20004,67969,83650,112741
DistanceSpacing: 1
BeatDivisor: 4
GridSize: 8

[Metadata]
Title:Down
Artist:Jay Sean ft. Lil Wayne
Creator:Gladi
Version:Normal
Source:
Tags:

[Difficulty]
HPDrainRate:4
CircleSize:4
OverallDifficulty:5
SliderMultiplier:1.4
SliderTickRate:2

[Events]
//Background and Video events
0,0,"We_Own_The_Sky_v_2_by_JsoNsw_7.jpg"
//Break Periods
2,93395,108358
//Storyboard Layer 0 (Background)
//Storyboard Layer 1 (Fail)
//Storyboard Layer 2 (Pass)
//Storyboard Layer 3 (Foreground)
//Storyboard Sound Samples
//Background Colour Transformations
3,100,0,0,0

[TimingPoints]
15014,454.545454545455,4,1,0,80,1,0
50800,-100,4,1,0,100,0,1
80128,-100,4,1,0,80,0,0
108991,-100,4,1,0,100,0,1
138310,-100,4,1,0,80,0,0
152628,-100,4,1,0,100,0,1
152685,-100,4,1,0,100,0,0
167173,-100,4,1,0,100,0,1

[Colours]
Combo1 : 155,156,204
Combo2 : 43,182,227
Combo3 : 169,222,254
Combo4 : 3,111,241
SliderBorder : 0,56,194

[HitObjects]
120,64,22286,1,4
80,200,22740,1,8
80,200,22968,2,0,B|152:312|288:280,1,210,0|8
392,240,24104,1,4
432,104,24558,1,8
360,88,24786,5,0
384,160,25013,1,0
240,160,25468,2,0,B|248:112|240:72,2,70,8|0|4
136,248,26377,1,8
184,296,26604,2,0,B|320:352|384:232,1,210,0|8
370,254,27513,1,0
384,184,27740,2,0,B|296:160|256:240,1,140,4|8
176,112,28649,5,4
112,80,28877,1,0
168,40,29104,1,8
304,56,29558,2,0,B|392:80|368:176,1,140,4|8
360,232,30240,2,0,B|280:328|144:280,1,210,0|8
40,224,31377,1,4
24,80,31831,1,8
80,40,32058,5,0
88,112,32286,1,0
208,184,32740,2,0,B|304:192|328:112,1,140,8|4
464,104,33649,2,0,B|496:184|472:264,1,140,8|0
392,352,34558,2,0,B|360:272|384:192,1,140,8|4
288,112,35468,1,8
216,96,35695,5,0
240,160,35922,1,4
152,264,36377,2,0,B|72:248|80:152,1,140,8|4
192,80,37286,1,8
264,80,37513,2,2,B|320:64|360:144|416:104,1,140,0|2
408,184,38195,1,8
272,216,38649,1,4
152,296,39104,1,0
104,240,39331,6,2,B|40:152|96:24,1,210,2|10
152,72,40240,1,0
152,72,40467,2,2,B|232:104|200:208,1,140,4|10
256,312,41377,2,0,B|256:176|424:248|416:88,1,280,0|4
280,72,42740,1,8
232,24,42967,5,0
208,88,43195,1,0
64,72,43649,2,2,B|24:160|40:232,1,140,8|6
112,328,44558,1,10
184,320,44786,2,2,B|264:280|232:168,1,140,0|2
280,144,45467,2,2,B|336:192,1,70,10|2
392,232,45922,2,2,B|472:200|448:112,1,140,4|10
392,72,46604,2,2,B|280:32|160:88,1,210,2|10
88,176,47740,1,4
256,192,47967,12,4,50467
144,72,51377,6,2,B|88:128|96:208,1,140,6|8
232,184,52286,1,0
176,224,52513,1,0
240,256,52740,1,8
312,136,53195,2,2,B|368:192|360:272,1,140,6|8
464,168,54104,1,0
368,64,54558,1,8
232,32,55013,6,2,B|160:32|112:120,1,140,6|8
104,176,55695,1,0
112,248,55922,2,2,B|136:328|232:320,1,140,0|8
264,264,56604,1,0
264,264,56831,2,2,B|352:272|360:360,2,140,6|8|0
216,128,58195,2,0,B|232:48,1,70,8|0
160,48,58649,6,2,B|80:88|112:184,1,140,6|8
192,272,59558,1,0
248,312,59786,2,0,B|320:288,1,70,0|8
368,160,60467,2,2,B|456:176|440:288,1,140,6|8
304,232,61377,1,0
240,200,61604,1,0
296,160,61831,1,8
184,72,62286,6,2,B|128:56|88:128|40:96,1,140,6|8
72,240,63195,2,0,B|104:312,1,70
160,344,63649,2,0,B|192:272,1,70,8|0
256,264,64104,2,2,B|336:296|328:376,2,140,6|8|0
256,120,65467,2,2,B|176:88|184:8,2,140,8|6|8
328,120,66604,6,2,B|408:120|472:200|424:288|312:280,1,280,0|0
256,264,67740,2,0,B|240:224|296:176|256:128,1,140,4|8
184,120,68422,2,2,B|104:120|40:200|88:288|200:280,1,280,0|0
256,264,69558,1,4
256,264,70013,1,8
256,192,70467,12,4,73195
184,120,73877,6,2,B|104:120|40:200|88:288|200:280,1,280,0|0
256,264,75013,2,0,B|272:224|216:176|256:128,1,140,4|8
328,120,75695,2,2,B|408:120|472:200|424:288|312:280,1,280,0|0
256,264,76831,1,4
256,264,77286,1,8
256,192,77740,12,4,80467
168,88,81377,5,0
232,56,81604,1,0
224,128,81831,1,8
360,112,82286,2,0,B|400:176|368:256,1,140,4|8
232,224,83195,2,0,B|192:288|224:368,1,140,0|8
280,328,83877,1,0
304,264,84104,6,0,B|288:96,1,140,4|8
224,104,84786,1,0
88,136,85240,2,0,B|56:224,2,70,0|8|0
144,176,85922,2,0,B|216:232|168:328,1,140,4|8
320,288,86831,2,0,B|392:264,1,70,4|4
344,208,87286,2,0,B|272:184,1,70,8|0
248,120,87740,6,0,B|368:88|448:168,2,210,4|2|8
128,192,89558,1,4
256,192,90013,12,4,93195
144,72,109558,6,2,B|88:128|96:208,1,140,6|8
232,184,110468,1,0
176,224,110695,1,0
240,256,110922,1,8
312,136,111377,2,2,B|368:192|360:272,1,140,6|8
464,168,112286,1,0
368,64,112740,1,8
232,32,113195,6,2,B|160:32|112:120,1,140,6|8
104,176,113877,1,0
112,248,114104,2,2,B|136:328|232:320,1,140,0|8
264,264,114786,1,0
264,264,115013,2,2,B|352:272|360:360,2,140,6|8|0
216,128,116377,2,0,B|232:48,1,70,8|0
160,48,116831,6,2,B|80:88|112:184,1,140,6|8
192,272,117740,1,0
248,312,117968,2,0,B|320:288,1,70,0|8
368,160,118649,2,2,B|456:176|440:288,1,140,6|8
304,232,119558,1,0
240,200,119786,1,0
296,160,120013,1,8
184,72,120468,6,2,B|128:56|88:128|40:96,1,140,6|8
72,240,121377,2,0,B|104:312,1,70
160,344,121831,2,0,B|192:272,1,70,8|0
256,264,122286,2,2,B|336:296|328:376,2,140,6|8|0
256,120,123649,2,2,B|176:88|184:8,2,140,8|6|8
328,120,124786,6,2,B|408:120|472:200|424:288|312:280,1,280,0|0
256,264,125922,2,0,B|240:224|296:176|256:128,1,140,4|8
184,120,126604,2,2,B|104:120|40:200|88:288|200:280,1,280,0|0
256,264,127740,1,4
256,264,128195,1,10
256,192,128649,12,4,131377
184,120,132058,6,2,B|104:120|40:200|88:288|200:280,1,280,0|0
256,264,133195,2,0,B|272:224|216:176|256:128,1,140,4|8
328,120,133877,2,2,B|408:120|472:200|424:288|312:280,1,280,0|0
256,264,135013,1,4
256,264,135468,1,8
256,192,135922,12,4,138649
256,192,139104,6,0,B|160:176,1,70,8|0
120,200,139558,1,0
200,320,140013,1,8
336,296,140468,2,0,B|360:216,1,70,4|0
408,184,140922,2,0,B|432:112|400:32,1,140,8|0
280,112,141831,2,0,B|256:184|288:264,1,140,8|4
152,304,142740,5,8
88,328,142968,1,0
96,256,143195,1,0
120,120,143649,2,0,B|200:112,1,70,8|0
248,72,144104,2,0,B|312:128|280:216,1,140,4|8
392,288,145013,2,4,B|424:224,1,70
488,208,145468,2,0,B|456:144,1,70,8|0
392,112,145922,6,0,B|304:128|320:248,2,140,4|8|0
256,64,147286,1,8
128,128,147740,1,4
120,200,147967,2,0,B|128:280,1,70,0|8
200,264,148422,2,0,B|192:344,1,70
264,328,148877,2,0,B|336:296|384:408|472:360,1,210,0|4
352,280,150013,6,0,B|280:248|232:360|144:312,1,210,8|0
96,280,150922,1,8
64,216,151149,2,0,B|40:120,1,70,0|4
32,80,151604,2,0,B|104:88,1,70,0|8
160,40,152058,2,0,B|184:120,3,70,0|0|0|8
232,152,152967,1,0
296,120,153195,6,2,B|368:168|344:256,1,140,6|8
280,224,153877,1,0
280,224,154104,2,2,B|208:272|232:360,1,140,2|8
160,360,154786,1,0
104,312,155013,2,0,B|80:216,1,70,4|0
16,232,155467,2,2,B|40:152,1,70,8|0
8,96,155922,2,2,B|88:64|136:152,1,140,2|8
184,176,156604,1,0
184,176,156831,6,2,B|264:208|312:120,1,140,6|8
368,104,157513,1,0
360,176,157740,2,0,B|392:248,1,70
440,192,158195,2,2,B|496:248,1,70,8|0
440,296,158649,2,2,B|376:328|296:320,1,140,6|8
272,256,159331,1,0
208,232,159558,2,2,B|136:280|184:376,1,140,2|8
104,344,160240,1,0
64,288,160467,6,0,B|88:208,1,70,4|0
32,176,160922,2,2,B|88:128,1,70,8|0
136,176,161377,2,2,B|224:200|208:296,1,140,2|8
272,312,162058,1,0
272,312,162286,2,2,B|360:288|344:192,1,140,6|8
280,176,162967,2,0,B|232:112,1,70
304,104,163422,2,2,B|288:24,1,70,0|8
360,48,163877,1,0
360,48,164104,6,2,B|448:72|424:160,1,140,6|8
384,208,164786,1,0
384,208,165013,2,2,B|296:232|320:320,1,140,2|8
256,336,165695,1,0
192,304,165922,2,0,B|144:240,1,70
216,232,166377,2,2,B|272:176|264:96,2,140,8|4|8
144,72,167740,6,2,B|88:128|96:208,1,140,6|8
232,184,168649,1,0
176,224,168877,1,0
240,256,169104,1,10
312,136,169558,2,2,B|368:192|360:272,1,140,6|8
464,168,170467,1,0
368,64,170922,1,10
232,32,171377,6,2,B|160:32|112:120,1,140,6|8
104,176,172058,1,0
112,248,172286,2,2,B|136:328|232:320,1,140,0|8
264,264,172967,1,0
264,264,173195,2,2,B|352:272|360:360,2,140,6|8|0
216,128,174558,2,2,B|232:48,1,70,8|2
160,48,175013,6,2,B|80:88|112:184,1,140,6|8
192,272,175922,1,0
248,312,176149,2,2,B|320:288,1,70,0|10
368,160,176831,2,2,B|456:176|440:288,1,140,6|8
304,232,177740,1,0
240,200,177967,1,2
296,160,178195,1,10
184,72,178649,6,2,B|128:56|88:128|40:96,1,140,6|8
72,240,179558,2,2,B|104:312,1,70
160,344,180013,2,2,B|192:272,1,70,10|0
256,264,180467,2,2,B|336:296|328:376,2,140,6|10|2
256,120,181831,2,2,B|176:88|184:8,2,140,10|6|10
328,120,182967,6,2,B|408:120|472:200|424:288|312:280,1,280,0|0
256,264,184104,2,0,B|240:224|296:176|256:128,1,140,6|8
184,120,184786,2,2,B|104:120|40:200|88:288|200:280,1,280,0|0
256,264,185922,1,6
256,264,186377,1,8
256,192,186831,12,4,189558
184,120,190240,6,2,B|104:120|40:200|88:288|200:280,1,280,0|2
256,264,191377,2,0,B|272:224|216:176|256:128,1,140,6|10
328,120,192058,2,2,B|408:120|472:200|424:288|312:280,1,280,2|2
256,264,193195,1,6
256,264,193649,1,10
256,192,194104,12,4,196831
