osu file format v6

[General]
AudioFilename: Jay Sean - Down (ft. Lil Wayne).mp3
AudioLeadIn: 0
PreviewTime: 166378
Countdown: 1
SampleSet: Normal
StackLeniency: 0.7
Mode: 0
LetterboxInBreaks: 1

[Editor]
Bookmarks: 20004
DistanceSpacing: 1
BeatDivisor: 4
GridSize: 8

[Metadata]
Title:Down
Artist:Jay Sean ft. Lil Wayne
Creator:Gladi
Version:Hard
Source:
Tags:

[Difficulty]
HPDrainRate:7
CircleSize:5
OverallDifficulty:7
SliderMultiplier:1.6
SliderTickRate:2

[Events]
//Background and Video events
0,0,"We_Own_The_Sky_v_2_by_JsoNsw_7.jpg"
//Break Periods
2,95213,107295
//Storyboard Layer 0 (Background)
//Storyboard Layer 1 (Fail)
//Storyboard Layer 2 (Pass)
//Storyboard Layer 3 (Foreground)
//Storyboard Sound Samples
//Background Colour Transformations
3,100,0,0,0

[TimingPoints]
15014,454.545454545455,4,1,0,80,1,0
50800,-100,4,1,0,100,0,1
80128,-100,4,1,0,80,0,0
108991,-100,4,1,0,100,0,1
138310,-100,4,1,0,80,0,0
152628,-100,4,1,0,100,0,1
152685,-100,4,1,0,100,0,0
167173,-100,4,1,0,100,0,1

[Colours]
Combo1 : 155,156,204
Combo2 : 43,182,227
Combo3 : 169,222,254
Combo4 : 3,111,241
SliderBorder : 0,56,194

[HitObjects]
144,144,22286,5,4
304,136,22740,1,8
288,216,22968,1,0
360,192,23195,2,0,B|448:224|448:328,1,160,0|8
288,344,24104,1,4
168,240,24558,1,8
136,312,24786,5,0
88,248,25013,2,0,B|48:168|96:88,1,160,0|8
160,56,25695,2,0,B|176:96|152:152,1,80,0|4
216,184,26149,1,0
280,136,26377,1,8
288,216,26604,2,0,B|384:192|424:296,1,160
416,360,27286,1,8
344,320,27513,1,0
344,320,27740,6,0,B|272:288|272:384|176:328,1,160,4|8
128,192,28649,1,4
200,216,28877,1,4
184,136,29104,2,0,B|176:88|200:48,1,80,8|0
272,40,29558,2,0,B|344:8|344:104|440:48,1,160,4|8
456,128,30240,2,0,B|400:200|400:304,1,160
401,275,30922,1,8
344,328,31149,1,0
328,256,31377,6,0,B|232:224|176:328,1,160,4|8
128,352,32058,1,0
120,272,32286,2,0,B|112:224|128:176,1,80
123,192,32740,1,8
168,128,32968,1,0
200,200,33195,2,0,B|312:192|288:72,1,160,4|8
291,95,33877,1,0
400,216,34331,1,0
408,296,34558,1,8
408,296,34786,1,0
336,264,35013,6,0,B|264:232|248:336|176:288,1,160,4|8
112,272,35695,1,0
176,224,35922,2,0,B|184:176|160:136,1,80,4|4
88,112,36377,2,0,B|80:160|104:200,1,80,8|0
176,224,36831,2,2,B|272:256|344:176,1,160,4|10
400,160,37513,2,2,B|472:224|456:312,1,160,0|0
457,301,38195,1,8
400,360,38422,1,0
376,280,38649,6,2,B|304:248|288:352|208:288,1,160,4|10
168,352,39331,2,2,B|24:304|72:128,1,240,0|8
128,112,40240,1,0
136,192,40467,2,2,B|248:192|224:64,1,160,4|8
296,56,41149,2,2,B|440:104|392:280,1,240,0|8
399,245,42058,1,0
399,245,42286,1,4
248,304,42740,1,8
168,328,42967,5,0
184,248,43195,2,4,B|184:192|160:152,1,80
152,88,43649,2,0,B|168:40|200:16,1,80,8|0
256,64,44104,2,2,B|304:136|296:224,1,160,4|10
216,191,44786,2,2,B|209:271|257:343,1,160,0|0
256,342,45467,1,8
336,360,45695,1,0
312,280,45922,6,2,B|408:248|448:352,1,160,4|10
480,264,46604,2,2,B|392:168|432:24,1,240,0|8
427,40,47513,1,0
344,24,47740,2,2,B|272:0|256:104|176:48,1,160,4|0
128,104,48422,2,2,B|32:208|80:360,1,240,0|8
71,326,49331,1,0
71,326,49558,5,4
224,360,50013,1,0
304,344,50240,1,0
248,288,50467,2,4,B|240:232|264:184,1,80
296,136,50922,2,0,B|304:80|280:32,1,80,8|0
216,24,51377,6,2,B|128:64|128:168,1,160,6|8
144,224,52058,1,0
144,224,52172,1,0
144,224,52286,1,0
208,176,52513,1,0
216,256,52740,2,0,B|232:296|224:352,1,80,8|0
304,360,53195,6,2,B|352:304|424:368|456:304,1,160,6|8
400,248,53877,1,0
408,208,53990,1,0
416,168,54104,1,0
376,96,54331,1,0
336,168,54558,1,8
256,152,54786,1,0
216,160,54899,1,0
176,168,55013,6,2,B|120:256|184:344,1,160,6|8
240,344,55695,1,0
312,320,55922,2,0,B|352:296|368:248,1,80
344,184,56377,2,0,B|304:208|288:256,1,80,8|0
312,320,56831,6,6,B|384:368|472:344,2,160,6|8|0
280,248,57967,1,0
272,168,58195,1,8
280,128,58308,1,0
288,88,58422,1,0
360,48,58649,6,2,B|440:96|440:200,1,160,6|8
439,179,59331,1,0
368,224,59558,1,0
440,256,59786,1,0
432,296,59899,1,0
424,336,60013,1,8
344,312,60240,1,0
344,312,60467,6,2,B|280:288|240:360|176:320,1,160,6|8
128,272,61149,1,0
120,232,61263,1,0
112,192,61377,2,0,B|112:136|152:88,1,80
208,104,61831,2,0,B|208:160|168:208,1,80,8|0
112,192,62286,6,2,B|16:216|24:320,1,160,6|8
23,307,62967,1,0
88,352,63195,1,0
96,272,63422,1,0
136,280,63536,1,0
176,288,63649,1,8
248,256,63877,1,0
240,336,64104,6,2,B|344:336|352:224,2,160,6|8|0
248,256,65240,1,0
288,184,65467,1,8
352,136,65695,1,0
392,128,65808,1,0
432,120,65922,6,2,B|496:192|464:296,1,160,6|8
416,320,66604,2,2,B|352:288|312:368|240:320,1,160,0|0
208,272,67286,1,8
192,192,67513,1,0
200,152,67627,1,0
208,112,67740,6,2,B|104:88|80:208,1,160,4|8
112,256,68422,2,2,B|176:224|216:304|288:256,1,160,0|0
344,240,69104,1,8
392,176,69331,1,0
384,136,69445,1,0
376,96,69558,6,2,B|480:72|504:192,1,160,4|8
264,288,70467,2,0,B|272:232|248:184,1,80
216,136,70922,2,0,B|208:80|232:32,1,80,8|0
296,24,71377,6,2,B|384:64|384:168,2,160,6|8|0
296,24,72513,1,0
224,48,72740,2,0,B|184:72|160:144,1,80,8|0
176,184,73195,6,2,B|88:224|32:144,1,160,6|8
96,104,73877,2,2,B|160:72|200:152|272:104,1,160,0|0
280,192,74558,1,8
352,224,74786,1,0
360,184,74899,1,0
368,144,75013,6,2,B|456:104|512:184,1,160,4|8
488,256,75695,2,2,B|424:224|384:304|312:256,1,160,0|0
256,240,76377,1,8
184,280,76604,1,0
168,240,76717,1,0
152,200,76831,6,2,B|64:160|8:240,1,160,4|8
248,288,77740,2,0,B|240:232|264:184,1,80
296,136,78195,2,0,B|304:80|280:32,1,80,8|0
208,40,78649,6,2,B|120:88|168:200,2,160,6|8|0
208,40,79786,1,0
280,8,80013,1,8
272,88,80240,1,0
272,88,80467,6,2,B|360:136|312:248,1,160,6|8
160,200,81377,2,0,B|112:208|80:256,1,80
96,320,81831,2,0,B|144:312|176:264,1,80,8|0
160,200,82286,2,0,B|264:200|264:320,1,160,4|8
263,298,82967,1,0
320,352,83195,5,0
344,280,83422,2,0,B|336:224|360:184,1,80,0|8
416,152,83877,1,0
416,232,84104,2,0,B|456:312|400:392,1,160,4|8
328,368,84786,2,0,B|272:320|232:392|168:320,1,160
178,331,85467,1,8
240,280,85695,1,0
168,256,85922,2,0,B|112:192|176:96,1,160,4|8
240,80,86604,1,0
224,160,86831,6,4,B|256:192|304:192,1,80
368,152,87286,2,0,B|336:120|288:120,1,80,8|0
224,160,87740,2,0,B|144:216|208:312,1,160,4|8
272,272,88422,2,0,B|416:224|480:368,1,240,0|8
472,352,89331,1,0
472,352,89558,1,4
456,192,90013,5,8
400,136,90240,1,0
376,208,90468,2,0,B|328:216|288:192,1,80
216,184,90922,2,0,B|168:176|128:200,1,80,8|0
176,264,91377,6,0,B|256:320|352:264,1,160,4|8
376,208,92058,2,0,B|432:128|384:32,1,160,0|0
394,55,92740,1,8
328,96,92968,1,0
328,96,93195,2,0,B|272:176|320:272,1,160,4|8
309,248,93877,1,0
264,312,94104,5,4
224,240,94331,2,0,B|216:200|184:168,1,80,4|8
128,120,94786,1,0
112,200,95013,1,4
224,360,108195,5,8
304,344,108422,1,0
248,288,108649,2,0,B|240:232|264:184,1,80,4|4
296,136,109104,2,0,B|304:80|280:32,1,80,8|0
216,24,109558,6,2,B|128:64|128:168,1,160,6|8
144,224,110240,1,0
144,224,110354,1,0
144,224,110468,1,0
208,176,110695,1,0
216,256,110922,2,0,B|232:296|224:352,1,80,8|2
304,360,111377,6,2,B|352:304|424:368|456:304,1,160,6|8
400,248,112058,1,0
408,208,112172,1,0
416,168,112286,1,0
376,96,112513,1,0
336,168,112740,1,8
256,152,112968,1,0
216,160,113081,1,0
176,168,113195,6,2,B|120:256|184:344,1,160,6|8
240,344,113877,1,0
312,320,114104,2,2,B|352:296|368:248,1,80
344,184,114558,2,0,B|304:208|288:256,1,80,8|0
312,320,115013,6,6,B|384:368|472:344,2,160,6|8|0
280,248,116149,1,0
272,168,116377,1,8
280,128,116490,1,0
288,88,116604,1,0
360,48,116831,6,2,B|440:96|440:200,1,160,6|8
439,179,117513,1,0
368,224,117740,1,0
440,256,117968,1,0
432,296,118081,1,0
424,336,118195,1,8
344,312,118422,1,0
344,312,118649,6,2,B|280:288|240:360|176:320,1,160,6|8
128,272,119331,1,0
120,232,119445,1,2
112,192,119558,2,2,B|112:136|152:88,1,80,2|2
208,104,120013,2,0,B|208:160|168:208,1,80,8|0
112,192,120468,6,2,B|16:216|24:320,1,160,6|8
23,307,121149,1,2
88,352,121377,1,0
96,272,121604,1,0
136,280,121718,1,0
176,288,121831,1,8
248,256,122058,1,0
240,336,122286,6,2,B|344:336|352:224,2,160,6|8|0
248,256,123422,1,0
288,184,123649,1,8
352,136,123877,1,0
392,128,123990,1,0
432,120,124104,6,2,B|496:192|464:296,1,160,6|8
416,320,124786,2,2,B|352:288|312:368|240:320,1,160,0|0
208,272,125468,1,8
192,192,125695,1,0
200,152,125808,1,0
208,112,125922,6,2,B|104:88|80:208,1,160,4|8
112,256,126604,2,2,B|176:224|216:304|288:256,1,160,0|0
344,240,127286,1,8
392,176,127513,1,0
384,136,127627,1,0
376,96,127740,6,2,B|480:72|504:192,1,160,4|10
264,288,128649,2,0,B|272:232|248:184,1,80
216,136,129104,2,0,B|208:80|232:32,1,80,8|0
296,24,129558,6,2,B|384:64|384:168,2,160,6|8|0
296,24,130695,1,0
224,48,130922,2,0,B|184:72|160:144,1,80,8|0
176,184,131377,6,2,B|88:224|32:144,1,160,6|8
96,104,132058,2,2,B|160:72|200:152|272:104,1,160,0|0
280,192,132740,1,8
352,224,132968,1,0
360,184,133081,1,0
368,144,133195,6,2,B|456:104|512:184,1,160,4|8
488,256,133877,2,2,B|424:224|384:304|312:256,1,160,0|0
256,240,134558,1,8
184,280,134786,1,0
168,240,134899,1,0
152,200,135013,6,2,B|64:160|8:240,1,160,4|8
248,288,135922,2,2,B|240:232|264:184,1,80,0|0
296,136,136377,2,2,B|304:80|280:32,1,80,8|0
208,40,136831,6,2,B|120:88|168:200,2,160,6|8|0
208,40,137968,1,0
280,8,138195,1,10
272,88,138422,1,0
272,88,138649,6,2,B|360:136|312:248,1,160,6|8
320,224,139331,1,0
264,280,139558,1,0
240,208,139786,1,0
240,208,140013,2,0,B|176:184|144:280|72:232,1,160,8|4
72,160,140695,6,0,B|80:112|112:80,1,80,0|8
184,72,141149,2,0,B|176:120|144:152,1,80
72,160,141604,1,0
32,232,141831,2,0,B|16:336|128:336,2,160,8|4|8
32,232,142968,5,0
72,160,143195,1,0
112,224,143422,2,0,B|144:256|192:256,1,80,0|8
256,224,143877,1,0
320,176,144104,6,0,B|352:144|400:144,1,80,4|0
456,184,144558,2,0,B|424:216|376:216,1,80,8|0
384,215,145013,1,0
336,280,145240,1,0
408,312,145468,1,8
344,360,145695,1,0
344,360,145922,6,0,B|232:368|240:256,1,160,4|8
256,192,146604,1,0
248,152,146718,1,0
240,112,146831,1,0
160,96,147058,1,0
160,96,147286,2,0,B|104:144|96:224,1,120,8|0
104,240,147740,6,0,B|104:288|128:328,1,80,4|0
200,344,148195,2,0,B|200:296|176:256,1,80,8|0
256,248,148649,1,0
280,320,148877,1,0
336,264,149104,2,0,B|400:240|432:336|504:288,1,160,8|4
472,216,149786,5,0
392,200,150013,1,8
448,144,150240,2,0,B|472:104|464:56,1,80
408,16,150695,2,0,B|384:56|392:104,1,80,0|8
312,72,151149,1,0
240,104,151377,6,0,B|216:152|216:200,1,80,4|0
232,256,151831,2,0,B|256:304|256:352,1,80,8|0
254,332,152286,1,0
336,344,152513,1,0
408,304,152740,1,8
448,232,152967,1,0
368,240,153195,6,0,B|336:208|328:160,1,80,4|0
368,104,153649,2,0,B|400:136|408:184,1,80,8|0
368,240,154104,2,2,B|280:304|224:200,1,160,0|8
168,168,154786,1,0
88,192,155013,6,0,B|56:232|48:272,1,80,4|0
96,328,155467,2,0,B|128:288|136:248,1,80,8|0
88,192,155922,2,2,B|32:120|96:40,1,160,0|8
168,48,156604,1,0
232,96,156831,6,0,B|240:136|224:184,1,80,4|0
208,248,157286,2,0,B|200:288|216:336,2,80,8|0|0
208,248,157967,1,0
288,256,158195,1,8
344,312,158422,1,0
368,240,158649,6,0,B|384:200|384:152,1,80,4|0
328,104,159104,2,0,B|312:144|312:192,1,80,8|0
368,240,159558,2,2,B|472:288|496:176,1,160,0|8
464,112,160240,1,0
400,64,160467,6,0,B|360:56|312:72,1,80,4|0
240,80,160922,2,0,B|200:88|152:72,2,80,8|0|0
240,80,161604,1,0
280,152,161831,1,8
208,184,162058,1,0
272,224,162286,6,0,B|288:264|288:320,1,80,4|0
224,352,162740,2,0,B|208:312|208:256,1,80,8|0
272,224,163195,2,2,B|312:208|368:208,1,80,0|0
408,264,163649,2,2,B|368:280|312:280,1,80,8|0
272,224,164104,5,4
192,200,164331,1,0
256,152,164558,2,0,B|272:112|272:64,1,80,8|0
208,24,165013,2,0,B|192:64|192:112,1,80
112,112,165467,2,2,B|72:144|56:192,1,80,8|0
88,248,165922,6,2,B|128:216|144:168,1,80,4|0
112,112,166377,2,2,B|176:88|208:168|288:128,1,160,8|4
344,112,167058,1,4
280,64,167286,2,0,B|264:24|208:24,1,80,8|0
216,24,167740,6,2,B|128:64|128:168,1,160,6|8
144,224,168422,1,0
144,224,168536,1,0
144,224,168649,1,2
208,176,168877,1,2
216,256,169104,2,0,B|232:296|224:352,1,80,10|0
304,360,169558,6,2,B|352:304|424:368|456:304,1,160,6|8
400,248,170240,1,0
408,208,170354,1,0
416,168,170467,1,2
376,96,170695,1,2
336,168,170922,1,8
256,152,171149,1,2
216,160,171263,1,2
176,168,171377,6,2,B|120:256|184:344,1,160,6|8
240,344,172058,1,0
312,320,172286,2,0,B|352:296|368:248,1,80
344,184,172740,2,2,B|304:208|288:256,1,80,10|2
312,320,173195,6,6,B|384:368|472:344,2,160,6|8|0
280,248,174331,1,0
272,168,174558,1,10
280,128,174672,1,0
288,88,174786,1,0
360,48,175013,6,2,B|440:96|440:200,1,160,6|8
439,179,175695,1,0
368,224,175922,1,2
440,256,176149,1,0
432,296,176263,1,0
424,336,176377,1,10
344,312,176604,1,2
344,312,176831,6,2,B|280:288|240:360|176:320,1,160,6|8
128,272,177513,1,0
120,232,177627,1,0
112,192,177740,2,0,B|112:136|152:88,1,80,0|2
208,104,178195,2,2,B|208:160|168:208,1,80,10|2
112,192,178649,6,2,B|16:216|24:320,1,160,6|8
23,307,179331,1,0
88,352,179558,1,0
96,272,179786,1,0
136,280,179899,1,0
176,288,180013,1,10
248,256,180240,1,2
240,336,180467,6,2,B|344:336|352:224,2,160,6|8|0
248,256,181604,1,2
288,184,181831,1,10
352,136,182058,1,2
392,128,182172,1,2
432,120,182286,6,2,B|496:192|464:296,1,160,6|8
416,320,182967,2,2,B|352:288|312:368|240:320,1,160,0|0
208,272,183649,1,8
192,192,183877,1,0
200,152,183990,1,0
208,112,184104,6,2,B|104:88|80:208,1,160,6|8
112,256,184786,2,2,B|176:224|216:304|288:256,1,160,0|0
344,240,185467,1,10
392,176,185695,1,2
384,136,185808,1,2
376,96,185922,6,2,B|480:72|504:192,1,160,6|8
264,288,186831,2,0,B|272:232|248:184,1,80
216,136,187286,2,0,B|208:80|232:32,1,80,8|0
296,24,187740,6,2,B|384:64|384:168,2,160,6|8|0
296,24,188877,1,0
224,48,189104,2,2,B|184:72|160:144,1,80,8|0
176,184,189558,6,2,B|88:224|32:144,1,160,6|8
96,104,190240,2,2,B|160:72|200:152|272:104,1,160,0|0
280,192,190922,1,10
352,224,191149,1,2
360,184,191263,1,0
368,144,191377,6,2,B|456:104|512:184,1,160,6|8
488,256,192058,2,2,B|424:224|384:304|312:256,1,160,0|2
256,240,192740,1,10
184,280,192967,1,2
168,240,193081,1,2
152,200,193195,6,2,B|64:160|8:240,1,160,6|8
248,288,194104,2,0,B|240:232|264:184,1,80,2|0
296,136,194558,2,0,B|304:80|280:32,1,80,10|2
208,40,195013,6,2,B|120:88|168:200,2,160,6|8|0
208,40,196149,1,2
280,8,196377,1,10
272,88,196604,1,0
272,88,196717,1,0
272,88,196831,6,2,B|360:136|312:248,1,160,6|8
256,192,197740,12,4,202058
