osu file format v6

[General]
AudioFilename: Jay Sean - Down (ft. Lil Wayne).mp3
AudioLeadIn: 0
PreviewTime: 167287
Countdown: 1
SampleSet: Normal
StackLeniency: 0.7
Mode: 0
LetterboxInBreaks: 1

[Editor]
Bookmarks: 20004
DistanceSpacing: 0.800000011920929
BeatDivisor: 2
GridSize: 8

[Metadata]
Title:Down
Artist:Jay Sean ft. Lil Wayne
Creator:Gladi
Version:Easy
Source:
Tags:

[Difficulty]
HPDrainRate:3
CircleSize:3
OverallDifficulty:2
SliderMultiplier:1.2
SliderTickRate:2

[Events]
//Background and Video events
0,0,"We_Own_The_Sky_v_2_by_JsoNsw_7.jpg"
//Break Periods
2,95213,107998
//Storyboard Layer 0 (Background)
//Storyboard Layer 1 (Fail)
//Storyboard Layer 2 (Pass)
//Storyboard Layer 3 (Foreground)
//Storyboard Sound Samples
//Background Colour Transformations
3,100,0,0,0

[TimingPoints]
15014,454.545454545455,4,1,0,80,1,0
50800,-100,4,1,0,100,0,1
80128,-100,4,1,0,80,0,0
108991,-100,4,1,0,100,0,1
138310,-100,4,1,0,80,0,0
152628,-100,4,1,0,100,0,1
152685,-100,4,1,0,100,0,0
167173,-100,4,1,0,100,0,1

[Colours]
Combo1 : 155,156,204
Combo2 : 43,182,227
Combo3 : 169,222,254
Combo4 : 3,111,241
SliderBorder : 0,56,194

[HitObjects]
128,56,22286,2,0,B|104:128|112:200,1,120,4|8
280,88,23649,1,0
360,136,24104,2,0,B|384:208|376:280,1,120,4|8
312,328,25013,2,0,B|288:256|296:184,1,120,0|8
216,152,25922,2,0,B|136:144|112:224,1,120,4|8
232,48,27286,1,8
320,32,27740,2,0,B|400:24|424:104,1,120,4|8
432,176,28649,2,0,B|352:184|328:104,1,120,4|8
264,184,29558,6,0,B|232:248|272:320,1,120,4|8
128,160,30922,1,8
48,104,31377,2,0,B|16:168|56:240,1,120,4|8
128,160,32286,2,0,B|160:96|120:24,1,120,0|8
224,24,33195,2,0,B|280:16|312:72|360:48,1,120,4|8
416,224,34558,1,8
376,312,35013,1,4
320,232,35468,1,8
240,176,35922,2,4,B|224:112,2,60,4|4|8
224,272,36831,6,2,B|176:320|104:312,1,120,4|8
48,136,38195,1,8
136,168,38649,2,2,B|184:120|256:128,1,120,4|8
344,288,40013,1,8
416,224,40468,2,2,B|480:176|448:104,1,120,4|8
400,40,41377,2,2,B|336:88|368:160,1,120,0|8
320,232,42286,2,0,B|256:256|192:232,1,120,4|8
136,168,43195,2,2,B|200:144|264:168,1,120,4|8
232,72,44104,5,4
320,40,44558,2,0,B|400:64,1,60,8|2
424,144,45240,2,0,B|464:88,2,60,0|8|0
336,192,46150,2,0,B|328:264,2,60,0|8|0
192,208,47286,2,0,B|160:152,2,60,8|0|4
104,232,48195,2,2,B|104:352|248:368|344:312|304:192,1,360,8|4
248,120,50013,1,8
208,208,50468,1,4
152,128,50922,1,8
248,120,51377,6,2,B|312:88|384:96,1,120,6|8
432,168,52286,1,0
384,248,52740,1,8
296,208,53195,6,2,B|232:240|160:232,1,120,6|8
136,144,54104,1,0
80,224,54558,1,8
40,136,55013,2,2,B|56:72|136:40,1,120,6|8
208,80,55922,2,2,B|224:144|304:176,1,120,0|8
376,160,56831,2,2,B|440:136|480:200,3,120,6|8|6|8
400,248,58649,5,4
216,296,59558,1,0
160,216,60013,1,8
144,120,60468,2,2,B|208:112|264:176,1,120,6|8
336,208,61377,2,2,B|400:208|448:152,1,120,0|8
464,64,62286,2,2,B|400:64|352:120,1,120,6|8
280,168,63195,1,0
264,72,63649,1,8
264,72,64104,2,2,B|192:56|104:88,3,120,6|8|6|8
112,168,65922,1,4
200,280,66604,6,2,B|264:192|408:280|472:160,1,300,0|4
392,112,68195,2,2,B|360:56,1,60,8|0
280,112,68877,2,2,B|208:96,1,60,0|8
144,160,69558,2,2,B|168:232|160:312,1,120,4|8
256,192,70468,12,4,73195
312,280,73877,6,2,B|248:192|104:280|40:160,1,300,0|4
120,112,75467,2,2,B|152:56,1,60,8|0
232,112,76149,2,2,B|304:96,1,60,0|8
368,160,76831,2,2,B|344:232|352:312,1,120,4|8
256,192,77740,12,4,80467
200,64,81377,6,0,B|160:120|168:192,1,120,0|8
192,264,82286,1,4
256,192,82740,1,8
408,64,83649,2,0,B|448:120|440:192,1,120,8|4
416,264,84558,1,8
352,192,85013,1,0
320,280,85467,1,8
320,280,85922,6,0,B|256:312|192:288,1,120,4|8
136,216,86831,2,0,B|200:184|264:208,1,120,4|8
344,192,87740,1,4
280,120,88195,2,0,B|288:56,1,60,8|0
192,80,88877,2,0,B|112:104,1,60,0|8
184,176,89558,2,0,B|224:240|216:320,1,120,4|8
152,360,90467,2,0,B|112:296|120:216,1,120,0|8
184,176,91377,6,0,B|248:136|328:144,1,120,4|8
368,208,92286,2,0,B|304:248|224:240,1,120,0|8
254,241,93195,1,4
256,192,93649,12,4,95013
248,120,109558,6,2,B|312:88|384:96,1,120,6|8
432,168,110467,1,0
384,248,110922,1,8
296,208,111377,6,2,B|232:240|160:232,1,120,6|8
136,144,112286,1,0
80,224,112740,1,8
40,136,113195,2,2,B|56:72|136:40,1,120,6|8
208,80,114104,2,2,B|224:144|304:176,1,120,0|8
376,160,115013,2,2,B|440:136|480:200,3,120,6|8|6|8
400,248,116831,5,4
216,296,117740,1,0
160,216,118195,1,8
144,120,118649,2,2,B|208:112|264:176,1,120,6|8
336,208,119558,2,2,B|400:208|448:152,1,120,0|8
464,64,120467,2,2,B|400:64|352:120,1,120,6|8
280,168,121377,1,0
264,72,121831,1,8
264,72,122286,2,2,B|192:56|104:88,3,120,6|8|6|8
112,168,124104,1,4
200,280,124786,6,2,B|264:192|408:280|472:160,1,300,0|4
392,112,126377,2,2,B|360:56,1,60,8|0
280,112,127058,2,2,B|208:96,1,60,0|8
144,160,127740,2,2,B|168:232|160:312,1,120,4|10
256,192,128649,12,4,131377
312,280,132058,6,2,B|248:192|104:280|40:160,1,300,0|4
120,112,133649,2,2,B|152:56,1,60,8|0
232,112,134331,2,2,B|304:96,1,60,0|8
368,160,135013,2,2,B|344:232|352:312,1,120,4|8
256,192,135922,12,4,138649
296,64,139104,6,0,B|336:112|336:200,1,120,8|0
240,160,140013,1,8
272,248,140467,2,0,B|232:296|232:384,1,120,4|8
328,336,141377,2,0,B|368:288|368:200,1,120,0|8
272,248,142286,2,0,B|224:208|136:208,1,120,4|8
80,264,143195,2,0,B|128:304|216:304,1,120,0|8
272,248,144104,2,0,B|312:200|312:112,1,120,4|8
256,56,145013,2,0,B|216:104|216:192,1,120,4|8
272,248,145922,5,4
424,128,146831,2,0,B|448:208,2,60,0|0|8
336,88,147740,2,0,B|264:112,2,60,4|0|8
328,184,148649,1,0
232,184,149104,2,0,B|264:248|256:336,1,120,8|4
168,264,150013,2,0,B|136:200|144:112,1,120,8|0
216,88,150922,1,8
312,88,151377,1,4
400,128,151831,1,8
440,216,152286,1,4
432,312,152740,1,8
352,256,153195,6,2,B|288:232|200:288,1,120,6|8
184,344,154104,2,2,B|248:368|336:312,1,120,0|8
352,256,155013,2,2,B|376:192|320:104,1,120,6|8
256,88,155922,2,2,B|232:152|288:240,1,120,0|8
176,240,156831,2,2,B|104:232|48:192,1,120,6|8
120,128,157740,1,0
216,104,158195,2,0,B|224:40,2,60,8|0|4
256,192,159104,2,2,B|320:192|384:144,1,120,8|4
400,64,160013,6,2,B|336:64|272:112,1,120,8|6
256,192,160922,2,2,B|256:256|208:320,1,120,8|2
160,224,161831,2,2,B|160:160|208:96,1,120,8|6
288,104,162740,2,0,B|256:32,2,60,8|0|0
256,192,163649,1,8
256,192,164104,5,4
256,192,164331,12,4,167740
