osu file format v12

[General]
AudioFilename: 01 - .mp3
AudioLeadIn: 0
PreviewTime: 68685
Countdown: 0
SampleSet: Normal
StackLeniency: 0.7
Mode: 0
LetterboxInBreaks: 1
WidescreenStoryboard: 0

[Editor]
DistanceSpacing: 0.9
BeatDivisor: 4
GridSize: 4

[Metadata]
Title:Ye Qu
TitleUnicode:夜曲
Artist:Jay Chou
ArtistUnicode:周杰倫
Creator:Jemmmmy
Version:Hard
Source:
Tags:十一月的肖邦 november Chopin 周杰伦
BeatmapID:351415
BeatmapSetID:136168

[Difficulty]
HPDrainRate:5
CircleSize:4
OverallDifficulty:5
ApproachRate:6
SliderMultiplier:2.4
SliderTickRate:2

[Events]
//Background and Video events
0,0,"sea.jpg",0,0
//Break Periods
//Storyboard Layer 0 (Background)
//Storyboard Layer 1 (Fail)
//Storyboard Layer 2 (Pass)
//Storyboard Layer 3 (Foreground)
//Storyboard Sound Samples
//Background Colour Transformations
3,100,163,162,255

[TimingPoints]
411,689.655172413793,4,2,1,50,1,0
25238,-100,4,2,1,60,0,0
68686,-200,4,2,1,60,0,0
69376,-100,4,1,1,60,0,1
90066,-100,4,2,1,60,0,0
91445,-100,4,1,1,60,0,1
110755,-100,4,1,1,60,0,0
113514,-100,4,2,1,60,0,0
134204,-100,4,2,1,45,0,0
135583,-100,4,2,1,5,0,0

[Colours]
Combo1 : 52,44,211
Combo2 : 160,203,245
Combo3 : 170,170,170

[HitObjects]
80,320,3169,2,0,P|140:296|196:304,1,120,2|0,0:0|0:0,0:0:0:0:
256,340,3686,1,0,0:0:0:0:
256,340,3859,2,0,L|336:336,1,60,8|0,0:0|0:0,0:0:0:0:
420,224,4548,5,0,0:0:0:0:
448,88,4893,2,0,L|464:24,1,60
392,20,5238,2,0,P|348:72|296:100,1,120,8|0,0:0|0:0,0:0:0:0:
116,104,5928,6,0,P|172:136|212:192,1,120,2|0,0:0|0:0,0:0:0:0:
200,260,6445,2,0,P|252:240|288:180,2,120
120,240,7307,1,2,0:0:0:0:
116,104,7652,1,0,0:0:0:0:
116,104,7824,1,0,0:0:0:0:
116,104,7997,2,0,P|52:128|12:168,1,120,8|0,0:0|0:0,0:0:0:0:
52,336,8686,6,0,L|116:296,1,60,2|0,0:0|0:0,0:0:0:0:
160,348,9031,2,0,L|195:281,1,60,0|0,0:3|0:3,0:0:0:0:
260,312,9376,1,8,0:0:0:0:
408,152,9893,1,0,0:0:0:0:
408,152,10066,6,0,P|448:208|464:280,2,120,2|0|8,0:0|0:0|0:0,0:0:0:0:
476,24,11100,1,0,0:0:0:0:
340,68,11445,2,0,P|308:120|300:188,1,120,2|0,0:0|0:0,0:0:0:0:
316,252,11962,1,0,0:0:0:0:
240,228,12135,2,0,P|200:172|192:96,1,120,8|0,0:0|0:0,0:0:0:0:
100,116,12652,1,0,0:0:0:0:
190,122,12824,6,0,P|160:48|112:8,2,120,2|0|8,0:0|0:0|0:0,0:0:0:0:
240,296,13859,2,0,P|256:320|264:360,1,60
168,356,14204,6,0,P|112:328|80:264,1,120,6|0,0:0|0:0,0:0:0:0:
64,200,14721,1,0,0:0:0:0:
64,200,14893,2,0,L|48:120,1,60,8|0,0:0|0:0,0:0:0:0:
176,200,15238,2,0,L|160:276,1,60
280,236,15583,6,0,P|356:240|408:272,1,120,2|0,0:0|0:0,0:0:0:0:
468,296,16100,1,0,0:0:0:0:
468,296,16273,2,0,P|472:260|472:220,1,60,8|0,0:0|0:0,0:0:0:0:
408,176,16617,2,0,P|408:136|400:96,1,60
296,120,16962,6,0,P|232:128|168:168,1,120,2|0,0:0|0:0,0:0:0:0:
124,196,17479,1,0,0:0:0:0:
116,124,17652,2,0,P|156:60|212:28,1,120,8|0,0:0|0:0,0:0:0:0:
264,20,18169,1,0,0:0:0:0:
336,28,18342,1,0,0:0:0:0:
468,84,18686,1,0,0:0:0:0:
348,164,19031,1,8,0:0:0:0:
456,260,19376,1,0,0:0:0:0:
316,288,19721,6,0,P|264:260|228:200,2,120,2|0|8,0:0|0:0|0:0,0:0:0:0:
484,76,20928,1,0,0:0:0:0:
484,76,21100,2,0,P|426:105|378:161,1,120,2|0,0:0|0:0,0:0:0:0:
260,80,21790,2,0,P|240:141|245:214,1,120,8|0,0:0|0:0,0:0:0:0:
304,329,22479,1,6,0:0:0:0:
256,192,22652,12,8,24548,0:0:0:0:
120,76,25238,6,0,P|148:128|152:212,1,120,6|0,0:0|0:0,0:0:0:0:
164,332,25928,2,0,P|152:292|156:248,2,60,8|0|0,0:0|0:0|0:0,0:0:0:0:
296,272,26617,2,0,P|364:284|416:320,1,120
444,372,27135,1,0,0:0:0:0:
480,308,27307,1,8,0:0:0:0:
460,180,27652,1,0,0:0:0:0:
316,160,27997,6,0,P|252:164|188:208,1,120,2|0,0:0|0:0,0:0:0:0:
104,296,28686,2,0,P|168:292|232:248,1,120,8|0,0:0|0:0,0:0:0:0:
60,192,29376,2,0,L|44:120,1,60
128,136,29721,2,0,L|150:62,1,60
216,116,30066,2,0,L|313:32,1,120,8|0,0:0|0:0,0:0:0:0:
484,28,30755,5,6,0:0:0:0:
484,28,31100,2,0,P|444:88|448:160,1,120,0|8,0:0|0:0,0:0:0:0:
476,276,31790,1,0,0:0:0:0:
352,204,32135,1,0,0:0:0:0:
324,344,32479,1,0,0:0:0:0:
169,320,32824,2,0,P|193:265|235:224,1,120,8|0,0:0|0:0,0:0:0:0:
238,67,33514,6,0,P|214:122|172:164,1,120,6|0,0:0|0:0,0:0:0:0:
100,68,34204,2,0,P|72:72|40:88,1,60,8|0,0:0|0:0,0:0:0:0:
44,164,34548,2,0,P|24:192|15:220,1,60
76,272,34893,2,0,P|100:320|168:360,1,120
312,348,35583,2,0,P|288:300|220:260,1,120,8|0,0:0|0:0,0:0:0:0:
140,192,36273,6,0,P|204:152|260:152,1,120,6|0,0:0|0:0,0:0:0:0:
293,93,36790,1,0,0:0:0:0:
344,144,36962,2,0,P|352:212|336:276,1,120,8|0,0:0|0:0,0:0:0:0:
270,279,37479,1,0,0:0:0:0:
316,336,37652,2,0,P|368:368|436:364,1,120
228,352,38342,6,0,P|176:320|108:324,1,120,8|0,0:0|0:0,0:0:0:0:
45,334,38859,1,0,0:0:0:0:
68,264,39031,2,0,P|76:196|60:144,1,120,2|0,0:0|0:0,0:0:0:0:
72,16,39721,6,0,L|116:80,1,60,8|0,0:0|0:0,0:0:0:0:
176,32,40066,2,0,L|182:109,1,60,0|0,0:0|0:0,0:0:0:0:
260,96,40410,2,0,L|226:166,1,60,0|0,0:0|0:0,0:0:0:0:
296,196,40755,1,0,0:0:0:0:
216,316,41100,1,8,0:0:0:0:
356,280,41445,1,0,0:0:0:0:
496,308,41790,6,0,P|464:252|452:196,1,120,6|0,0:0|0:0,0:0:0:0:
476,127,42307,1,0,0:0:0:0:
452,56,42479,2,0,L|392:24,1,60,8|0,0:0|0:0,0:0:0:0:
352,104,42824,2,0,L|316:46,1,60
244,68,43169,5,2,0:0:0:0:
180,104,43342,1,0,0:0:0:0:
132,160,43514,1,0,0:0:0:0:
112,228,43686,1,0,0:0:0:0:
112,300,43859,2,0,L|124:360,1,60,8|0,0:0|0:0,0:0:0:0:
216,336,44204,2,0,L|236:280,1,60
328,308,44548,1,6,0:0:0:0:
256,192,44893,12,8,46617,0:0:0:0:
432,64,47307,6,0,P|376:88|340:144,1,120,2|0,0:0|0:0,0:0:0:0:
468,204,47997,1,8,0:0:0:0:
420,340,48342,1,0,0:0:0:0:
292,276,48686,2,0,P|220:296|176:344,1,120
252,195,49376,2,0,P|311:195|362:226,1,120,8|0,0:0|0:0,0:0:0:0:
276,108,50066,6,0,P|228:112|156:164,1,120,2|0,0:0|0:0,0:0:0:0:
92,272,50755,1,8,0:0:0:0:
140,384,51100,1,0,0:0:0:0:
92,272,51445,2,0,P|168:264|224:284,1,120
332,348,52135,1,8,0:0:0:0:
472,324,52479,6,0,L|460:256,1,60
444,196,52824,2,0,P|392:244|320:260,2,120,2|0|8,0:0|0:0|0:0,0:0:0:0:
464,152,53686,1,0,0:0:0:0:
448,28,54031,1,0,0:0:0:0:
448,28,54204,6,0,P|384:44|336:88,1,120
276,4,54893,2,0,P|242:60|239:125,1,120,8|0,0:0|0:0,0:0:0:0:
236,256,55583,6,0,P|184:236|124:164,1,120,2|0,0:0|0:0,0:0:0:0:
119,122,56100,1,0,0:0:0:0:
60,164,56273,2,0,P|28:228|24:300,2,120,8|0|0,0:0|0:0|0:0,0:0:0:0:
118,122,57135,1,0,0:0:0:0:
185,98,57307,1,0,0:0:0:0:
324,62,57652,1,8,0:0:0:0:
279,199,57997,1,0,0:0:0:0:
408,124,58342,6,0,P|444:176|464:264,1,120,6|0,0:0|0:0,0:0:0:0:
444,372,59031,2,0,P|456:340|464:296,1,60,8|0,0:0|0:0,0:0:0:0:
384,316,59376,2,0,P|380:280|363:240,1,60
304,300,59721,2,0,P|240:300|176:328,1,120,2|0,0:0|0:0,0:0:0:0:
56,376,60410,2,0,P|88:368|116:348,1,60,8|0,0:0|0:0,0:0:0:0:
80,284,60755,2,0,P|116:256|128:236,1,60
72,188,61100,6,0,P|92:120|80:56,1,120,2|0,0:0|0:0,0:0:0:0:
176,184,61790,2,0,P|227:135|248:73,1,120,8|0,0:0|0:0,0:0:0:0:
264,232,62479,2,0,P|332:215|382:172,1,120
432,56,63169,1,8,0:0:0:0:
452,204,63514,1,0,0:0:0:0:
332,120,63859,6,0,P|272:96|196:108,1,120,6|0,0:0|0:0,0:0:0:0:
92,168,64548,2,0,P|152:192|228:180,1,120,8|0,0:0|0:0,0:0:0:0:
348,220,65238,6,0,P|284:229|224:277,1,120,6|0,0:0|0:0,0:0:0:0:
164,381,65928,2,0,P|227:371|287:323,1,120,8|0,0:0|0:0,0:0:0:0:
400,272,66617,2,0,L|448:224,1,60,2|0,0:0|0:0,0:0:0:0:
392,176,66962,2,0,L|409:110,1,60
340,92,67307,6,0,P|304:152|296:224,1,120,8|0,0:0|0:0,0:0:0:0:
284,344,67997,1,0,0:0:0:0:
148,292,68342,1,0,0:0:0:0:
96,156,68686,6,0,L|96:80,1,60,8|4,0:0|0:0,0:0:0:0:
184,200,69376,6,0,P|220:148|304:120,1,120,6|0,0:0|0:0,0:0:0:0:
296,48,69893,1,0,0:0:0:0:
360,96,70066,2,0,P|404:152|408:208,1,120,8|0,0:0|0:0,0:0:0:0:
280,288,70755,2,0,P|332:344|396:360,1,120
456,344,71273,1,0,0:0:0:0:
456,344,71445,1,8,0:0:0:0:
256,208,71790,1,0,0:0:0:0:
104,360,72135,6,0,P|44:316|16:248,1,120,2|0,0:0|0:0,0:0:0:0:
64,104,72824,2,0,P|124:148|152:216,1,120,8|0,0:0|0:0,0:0:0:0:
160,316,73514,1,2,0:0:0:0:
296,368,73859,1,0,0:0:0:0:
360,240,74204,1,8,0:0:0:0:
224,184,74548,1,0,0:0:0:0:
224,184,74893,6,0,P|280:240|296:296,1,120,2|0,0:0|0:0,0:0:0:0:
160,316,75583,1,8,0:0:0:0:
296,368,75928,1,0,0:0:0:0:
440,360,76273,2,0,P|440:292|420:236,1,120,2|0,0:0|0:0,0:0:0:0:
344,104,76962,1,8,0:0:0:0:
256,216,77307,1,0,0:0:0:0:
344,104,77652,6,0,P|280:76|208:84,1,120,2|0,0:0|0:0,0:0:0:0:
204,152,78169,1,0,0:0:0:0:
156,92,78342,2,0,P|112:52|36:32,1,120,8|0,0:0|0:0,0:0:0:0:
64,188,79031,2,0,P|96:256|156:296,1,120
296,340,79721,2,0,P|273:284|230:244,1,120,8|0,0:0|0:0,0:0:0:0:
168,206,80238,1,0,0:0:0:0:
216,152,80410,6,0,P|261:128|340:120,1,120,6|0,0:0|0:0,0:0:0:0:
408,120,80928,1,0,0:0:0:0:
472,164,81100,1,8,0:0:0:0:
484,320,81445,1,0,0:0:0:0:
340,260,81790,6,0,P|292:304|212:320,1,120,2|0,0:0|0:0,0:0:0:0:
164,320,82307,1,0,0:0:0:0:
92,288,82479,1,8,0:0:0:0:
56,136,82824,1,0,0:0:0:0:
204,192,83169,6,0,P|240:128|300:88,1,120,2|0,0:0|0:0,0:0:0:0:
428,60,83859,2,0,P|392:124|332:164,1,120,8|0,0:0|0:0,0:0:0:0:
228,280,84548,6,0,P|291:242|363:237,1,120,2|0,0:0|0:0,0:0:0:0:
487,277,85238,2,0,P|423:314|351:319,1,120,8|0,0:0|0:0,0:0:0:0:
256,168,85928,6,0,P|200:128|136:112,1,120,2|0,0:0|0:0,0:0:0:0:
76,96,86445,1,0,0:0:0:0:
124,36,86617,2,0,P|184:20|248:32,1,120,8|0,0:0|0:0,0:0:0:0:
384,88,87307,5,2,0:0:0:0:
440,236,87652,1,0,0:0:0:0:
440,236,87824,1,0,0:0:0:0:
440,236,87997,2,0,P|444:304|420:372,1,120,8|0,0:0|0:0,0:0:0:0:
292,280,88686,1,2,0:0:0:0:
256,192,88859,12,8,90755,0:0:0:0:
76,336,91445,6,0,P|120:276|136:200,1,120,6|0,0:0|0:0,0:0:0:0:
208,248,91962,1,0,0:0:0:0:
208,248,92135,2,0,P|196:174|154:109,1,120,8|0,0:0|0:0,0:0:0:0:
272,12,92824,2,0,P|324:56|380:68,1,120,2|0,0:0|0:0,0:0:0:0:
364,144,93342,1,0,0:0:0:0:
364,144,93514,2,0,P|431:138|479:107,1,120,8|0,0:0|0:0,0:0:0:0:
456,268,94204,5,2,0:0:0:0:
308,320,94548,2,0,L|236:344,1,60
236,260,94893,2,0,P|160:240|124:204,1,120,8|0,0:0|0:0,0:0:0:0:
104,140,95410,1,0,0:0:0:0:
104,140,95583,2,0,P|179:119|228:132,1,120,2|0,0:0|0:0,0:0:0:0:
292,160,96100,1,0,0:0:0:0:
292,160,96273,2,0,P|352:132|380:88,1,120,8|0,0:0|0:0,0:0:0:0:
244,28,96962,6,0,P|176:16|104:28,1,120,6|0,0:0|0:0,0:0:0:0:
24,140,97652,2,0,P|92:152|164:140,1,120,8|0,0:0|0:0,0:0:0:0:
296,112,98342,2,0,P|356:64|408:44,1,120,2|0,0:0|0:0,0:0:0:0:
504,160,99031,2,0,P|444:208|392:228,1,120,8|0,0:0|0:0,0:0:0:0:
248,240,99721,6,0,P|184:252|124:292,1,120,6|0,0:0|0:0,0:0:0:0:
72,320,100238,1,0,0:0:0:0:
72,320,100410,2,0,L|36:240,2,60,8|0|0,0:0|0:0|0:0,0:0:0:0:
224,364,101100,5,2,0:0:0:0:
380,356,101445,1,0,0:0:0:0:
452,216,101790,1,10,0:0:0:0:
300,256,102135,1,0,0:0:0:0:
340,104,102479,6,0,P|380:40|436:8,2,120,6|0|8,0:0|0:0|0:0,0:0:0:0:
488,152,103514,1,0,0:0:0:0:
340,196,103859,2,0,P|276:168|240:112,1,120,2|0,0:0|0:0,0:0:0:0:
208,60,104376,1,0,0:0:0:0:
132,84,104548,2,0,P|76:116|36:184,1,120,8|0,0:0|0:0,0:0:0:0:
24,344,105238,6,0,P|88:312|164:312,1,120,2|0,0:0|0:0,0:0:0:0:
148,232,105755,1,0,0:0:0:0:
148,232,105928,2,0,P|215:254|269:308,1,120,8|0,0:0|0:0,0:0:0:0:
320,244,106445,1,0,0:0:0:0:
320,244,106617,2,0,P|352:307|352:384,2,120,2|0|8,0:0|0:0|0:0,0:0:0:0:
216,128,107652,1,0,0:0:0:0:
396,92,107997,6,0,P|476:64|516:16,1,120,6|0,0:0|0:0,0:0:0:0:
348,12,108686,2,0,P|304:64|300:124,1,120,8|0,0:0|0:0,0:0:0:0:
360,256,109376,2,0,P|384:316|384:372,1,120,2|0,0:0|0:0,0:0:0:0:
232,340,110066,2,0,P|168:340|112:304,1,120,8|0,0:0|0:0,0:0:0:0:
32,184,110755,1,6,0:0:0:0:
256,192,110928,12,8,112824,0:0:0:0:
44,176,113514,6,0,P|88:112|144:88,1,120,6|0,0:0|0:0,0:0:0:0:
268,76,114204,1,8,0:0:0:0:
268,76,114376,1,0,0:0:0:0:
268,76,114548,2,0,P|252:144|216:184,2,120
216,24,115410,1,0,0:0:0:0:
144,40,115583,2,0,P|80:60|12:52,1,120,8|0,0:0|0:0,0:0:0:0:
144,176,116273,6,0,P|204:204|236:256,1,120,2|0,0:0|0:0,0:0:0:0:
292,380,116962,2,0,P|336:316|344:264,1,120,8|0,0:0|0:0,0:0:0:0:
300,136,117652,2,0,L|348:176,1,60
404,132,117997,2,0,L|425:190,1,60
496,188,118342,2,0,L|472:312,1,120,8|0,0:0|0:0,0:0:0:0:
352,268,119031,5,2,0:0:0:0:
208,304,119376,2,0,P|160:312|132:308,1,60
160,240,119721,2,0,P|228:212|264:148,1,120,8|0,0:0|0:0,0:0:0:0:
128,108,120410,1,0,0:0:0:0:
232,8,120755,1,0,0:0:0:0:
312,128,121100,1,8,0:0:0:0:
416,28,121445,1,0,0:0:0:0:
504,140,121790,6,0,L|468:200,1,60,2|0,0:0|0:0,0:0:0:0:
432,252,122135,1,0,0:0:0:0:
336,360,122479,1,8,0:0:0:0:
292,300,122652,1,0,0:0:0:0:
228,264,122824,2,0,L|164:236,1,60
308,204,123169,2,0,P|356:160|364:80,2,120,0|0|8,0:0|0:0|0:0,0:0:0:0:
232,80,124204,2,0,P|260:96|282:117,1,60
216,160,124548,6,0,P|156:140|96:144,1,120,4|0,0:0|0:0,0:0:0:0:
36,176,125066,1,0,0:0:0:0:
96,216,125238,2,0,P|140:256|168:328,1,120,8|0,0:0|0:0,0:0:0:0:
159,382,125755,1,0,0:0:0:0:
224,352,125928,2,0,P|284:328|348:328,1,120,2|0,0:0|0:0,0:0:0:0:
484,340,126617,6,0,L|412:292,1,60,8|0,0:0|0:0,0:0:0:0:
444,236,126962,2,0,L|357:230,1,60
348,168,127307,1,2,0:0:0:0:
212,220,127652,1,0,0:0:0:0:
284,84,127997,6,0,L|256:148,1,60,8|0,0:0|0:0,0:0:0:0:
192,164,128342,2,0,L|216:228,1,60
172,280,128686,1,2,0:0:0:0:
172,280,128859,1,0,0:0:0:0:
172,280,129031,2,0,P|232:320|280:332,2,120,0|8|0,0:0|0:0|0:0,0:0:0:0:
100,156,130066,6,0,P|68:88|28:48,1,120,6|0,0:0|0:0,0:0:0:0:
120,28,130583,1,0,0:0:0:0:
194,40,130755,2,0,L|278:56,1,60,8|0,0:0|0:0,0:0:0:0:
254,128,131100,2,0,L|334:99,1,60
366,164,131445,2,0,L|421:99,1,60,6|0,0:0|0:0,0:0:0:0:
472,156,131790,2,0,L|488:72,1,60
452,236,132135,5,8,0:0:0:0:
417,298,132307,1,0,0:0:0:0:
360,342,132479,1,0,0:0:0:0:
290,365,132652,1,0,0:0:0:0:
218,355,132824,1,6,0:0:0:0:
256,192,132997,12,0,135583,0:0:0:0:
