osu file format v9

[General]
AudioFilename: Jay Chou - Yang Guang Zhai Nan.mp3
AudioLeadIn: 1000
PreviewTime: 57744
Countdown: 0
SampleSet: Soft
StackLeniency: 0.7
Mode: 0
LetterboxInBreaks: 0

[Editor]
DistanceSpacing: 1
BeatDivisor: 4
GridSize: 4

[Metadata]
Title:Yang Guang Zhai Nan
Artist:Jay Chou
Creator:12BARRY21
Version:Normal
Source:
Tags:Sun DarknessAngel hoLysoup

[Difficulty]
HPDrainRate:4
CircleSize:4
OverallDifficulty:4
ApproachRate:4
SliderMultiplier:1.2
SliderTickRate:2

[Events]
//Background and Video events
0,0,"Yang Guang Zhai Nan BG.jpg"
//Break Periods
2,1696,14504
2,87666,100474
//Storyboard Layer 0 (Background)
//Storyboard Layer 1 (Fail)
//Storyboard Layer 2 (Pass)
//Storyboard Layer 3 (Foreground)
Sprite,Foreground,Centre,"SB\A-1.png",320,240 M,0,15824,15936,277,405,317,405 M,0,15936,18958,317,405,337,405 M,0,18958,19070,337,405,377,405
Sprite,Foreground,Centre,"SB\A-2.png",320,240 L,3578,1 M,0,15828,15940,377,435,337,435 M,0,15940,18962,337,435,317,435 M,0,18962,19074,317,435,277,435
Sprite,Foreground,Centre,"SB\A-3.png",320,240 L,7160,1 M,0,15828,15940,277,405,317,405 M,0,15940,18962,317,405,337,405 M,0,18962,19074,337,405,377,405
Sprite,Foreground,Centre,"SB\A-4.png",320,240 L,10742,1 M,0,15828,15940,377,435,337,435 M,0,15940,18962,337,435,317,435 M,0,18962,19074,317,435,277,435
Sprite,Foreground,Centre,"SB\A-5.png",320,240 L,14324,1 M,0,15828,15940,277,405,317,405 M,0,15940,18962,317,405,337,405 M,0,18962,19074,337,405,377,405
Sprite,Foreground,Centre,"SB\A-6.png",320,240 L,17906,1 M,0,15828,15940,377,435,337,435 M,0,15940,18962,337,435,317,435 M,0,18962,19074,317,435,277,435
Sprite,Foreground,Centre,"SB\A-7.png",320,240 L,21488,1 M,0,15828,15940,277,405,317,405 M,0,15940,18962,317,405,337,405 M,0,18962,19074,337,405,377,405
Sprite,Foreground,Centre,"SB\A-8.png",320,240 L,25070,1 M,0,15828,15940,377,435,337,435 M,0,15940,18962,337,435,317,435 M,0,18962,19074,317,435,277,435
Sprite,Foreground,Centre,"SB\A-9.png",320,240 M,0,44481,44593,277,405,317,405 M,0,44593,49742,317,405,357,405 M,0,49742,49854,357,405,397,405
Sprite,Foreground,Centre,"SB\A-10.png",320,240 M,0,50749,50861,397,435,357,435 M,0,50861,57466,357,435,317,435 M,0,57466,57578,317,435,277,435
Sprite,Foreground,Centre,"SB\B-1.png",320,240 M,0,57913,58025,277,405,317,405 M,0,58025,61943,317,405,337,405 M,0,61943,62055,337,405,377,405
Sprite,Foreground,Centre,"SB\B-2.png",320,240 M,0,62391,62503,377,435,337,435 M,0,62503,64630,337,435,317,435 M,0,64630,64742,317,435,277,435
Sprite,Foreground,Centre,"SB\B-3.png",320,240 L,7160,1 M,0,57917,58029,277,405,317,405 M,0,58029,61947,317,405,337,405 M,0,61947,62059,337,405,377,405
Sprite,Foreground,Centre,"SB\B-4.png",320,240 L,7160,1 M,0,62395,62507,377,435,337,435 M,0,62507,64634,337,435,317,435 M,0,64634,64746,317,435,277,435
Sprite,Foreground,Centre,"SB\B-5.png",320,240 L,14324,1 M,0,57917,58029,277,405,317,405 M,0,58029,61947,317,405,337,405 M,0,61947,62059,337,405,377,405
Sprite,Foreground,Centre,"SB\B-6.png",320,240 L,14324,1 M,0,62395,62507,377,435,337,435 M,0,62507,64634,337,435,317,435 M,0,64634,64746,317,435,277,435
Sprite,Foreground,Centre,"SB\B-7.png",320,240 M,0,79406,79518,277,405,317,405 M,0,79518,82540,317,405,337,405 M,0,82540,82652,337,405,377,405
Sprite,Foreground,Centre,"SB\B-8.png",320,240 M,0,82764,82876,377,435,337,435 M,0,82876,87466,337,435,317,435 M,0,87466,87578,317,435,277,435
Sprite,Foreground,Centre,"SB\C-1.png",320,240 L,-4,1 M,0,101798,101910,277,405,317,405 M,0,101910,104932,317,405,337,405 M,0,104932,105044,337,405,377,405
Sprite,Foreground,Centre,"SB\C-2.png",320,240 L,3578,1 M,0,101798,101910,377,435,337,435 M,0,101910,104932,337,435,317,435 M,0,104932,105044,317,435,277,435
Sprite,Foreground,Centre,"SB\C-3.png",320,240 L,7160,1 M,0,101798,101910,277,405,317,405 M,0,101910,104932,317,405,337,405 M,0,104932,105044,337,405,377,405
Sprite,Foreground,Centre,"SB\C-4.png",320,240 L,10742,1 M,0,101798,101910,377,435,337,435 M,0,101910,104932,337,435,317,435 M,0,104932,105044,317,435,277,435
Sprite,Foreground,Centre,"SB\C-5.png",320,240 L,14324,1 M,0,101798,101910,277,405,317,405 M,0,101910,104932,317,405,337,405 M,0,104932,105044,337,405,377,405
Sprite,Foreground,Centre,"SB\C-6.png",320,240 L,17906,1 M,0,101798,101910,377,435,337,435 M,0,101910,104932,337,435,317,435 M,0,104932,105044,317,435,277,435
Sprite,Foreground,Centre,"SB\C-7.png",320,240 L,21488,1 M,0,101798,101910,277,405,317,405 M,0,101910,104932,317,405,337,405 M,0,104932,105044,337,405,377,405
Sprite,Foreground,Centre,"SB\C-8.png",320,240 L,25070,1 M,0,101798,101910,377,435,337,435 M,0,101910,104932,337,435,317,435 M,0,104932,105044,317,435,277,435
Sprite,Foreground,Centre,"SB\A-10.png",320,240 L,85966,1 M,0,50753,50865,397,435,357,435 M,0,50865,57470,357,435,317,435 M,0,57470,57582,317,435,277,435
Sprite,Foreground,Centre,"SB\B-1.png",320,240 L,85966,1 M,0,57917,58029,277,405,317,405 M,0,58029,61947,317,405,337,405 M,0,61947,62059,337,405,377,405
Sprite,Foreground,Centre,"SB\B-2.png",320,240 L,85966,1 M,0,62395,62507,377,435,337,435 M,0,62507,64634,337,435,317,435 M,0,64634,64746,317,435,277,435
Sprite,Foreground,Centre,"SB\B-3.png",320,240 L,93130,1 M,0,57917,58029,277,405,317,405 M,0,58029,61947,317,405,337,405 M,0,61947,62059,337,405,377,405
Sprite,Foreground,Centre,"SB\B-4.png",320,240 L,93130,1 M,0,62395,62507,377,435,337,435 M,0,62507,64634,337,435,317,435 M,0,64634,64746,317,435,277,435
Sprite,Foreground,Centre,"SB\B-5.png",320,240 L,100294,1 M,0,57917,58029,277,405,317,405 M,0,58029,61947,317,405,337,405 M,0,61947,62059,337,405,377,405
Sprite,Foreground,Centre,"SB\B-6.png",320,240 L,100294,1 M,0,62395,62507,377,435,337,435 M,0,62507,64634,337,435,317,435 M,0,64634,64746,317,435,277,435
Sprite,Foreground,Centre,"SB\B-7.png",320,240 L,85966,1 M,0,79410,79522,277,405,317,405 M,0,79522,82544,317,405,337,405 M,0,82544,82656,337,405,377,405
Sprite,Foreground,Centre,"SB\B-8.png",320,240 L,85966,1 M,0,82768,82880,377,435,337,435 M,0,82880,87470,337,435,317,435 M,0,87470,87582,317,435,277,435
Sprite,Foreground,Centre,"SB\B-1.png",320,240 M,0,173436,173548,277,405,317,405 M,0,173548,176570,317,405,337,405 M,0,176570,176682,337,405,377,405
Sprite,Foreground,Centre,"SB\B-2.png",320,240 M,0,177018,177130,377,435,337,435 M,0,177130,179257,337,435,317,435 M,0,179257,179369,317,435,277,435
Sprite,Foreground,Centre,"SB\B-3.png",320,240 M,0,179704,179816,277,405,317,405 M,0,179816,183734,317,405,337,405 M,0,183734,183846,337,405,377,405
Sprite,Foreground,Centre,"SB\B-4.png",320,240 M,0,184182,184294,377,435,337,435 M,0,184294,186421,337,435,317,435 M,0,186421,186533,317,435,277,435
Sprite,Foreground,Centre,"SB\B-5.png",320,240 M,0,186869,186981,277,405,317,405 M,0,186981,190898,317,405,337,405 M,0,190898,191010,337,405,377,405
Sprite,Foreground,Centre,"SB\B-6.png",320,240 M,0,191346,191458,377,435,337,435 M,0,191458,193585,337,435,317,435 M,0,193585,193697,317,435,277,435
Sprite,Foreground,Centre,"SB\B-7.png",320,240 M,0,193809,193921,277,405,317,405 M,0,193921,197167,317,405,337,405 M,0,197167,197279,337,405,377,405
Sprite,Foreground,Centre,"SB\B-8.png",320,240 M,0,197391,197503,377,435,337,435 M,0,197503,202093,337,435,317,435 M,0,202093,202204,317,435,277,435
Sprite,Foreground,Centre,"SB\A-9.png",320,240 L,85966,1 M,0,44485,44597,277,405,317,405 M,0,44597,49746,317,405,357,405 M,0,49746,49858,357,405,397,405
Sprite,Foreground,Centre,"SB\sun.png",318,163 L,-4,13 S,0,3291,3514,0.6,0.9 S,0,3514,3738,0.9,0.6 S,0,3738,3962,0.6,0.8 S,0,3962,4186,0.8,0.6 F,0,1496,3287,0,1 S,0,1496,3287,0.1,0.6 R,0,1496,15152,0,12.5952 F,0,3287,14928,1 S,0,14922,15152,0.6,1.27584 F,0,14928,15152,1,0
Sprite,Foreground,Centre,"SB\Title-A.png",265,151 L,-4,13 S,0,3291,3514,0.6,1 S,0,3514,3738,1,0.7 S,0,3738,3962,0.7,0.9 S,0,3962,4186,0.9,0.6 F,0,14928,15152,1,0 S,0,14928,15152,0.6,1.2
Sprite,Foreground,Centre,"SB\Title-B.png",355,191 L,1787,12 S,0,3291,3514,0.6,1 S,0,3514,3738,1,0.7 S,0,3738,3962,0.7,0.9 S,0,3962,4186,0.9,0.6 F,0,14928,15152,1,0 S,0,14928,15152,0.6,1.2
Sprite,Foreground,Centre,"SB\Lyric.png",260,280 L,3578,11 S,0,3291,3514,1,1.2 S,0,3514,3738,1.2,1 S,0,3738,3962,1,1.1 S,0,3962,4186,1.1,1 F,0,14928,15152,1,0 S,0,14928,15152,0.6,1.2
Sprite,Foreground,Centre,"SB\Music.png",352,324 L,5369,10 S,0,3291,3514,1,1.2 S,0,3514,3738,1.2,1 S,0,3738,3962,1,1.1 S,0,3962,4186,1.1,1 F,0,14928,15152,1,0 S,0,14928,15152,0.6,1.2
//Storyboard Sound Samples
//Background Colour Transformations
3,100,163,162,255

[TimingPoints]
1496,447.761194029851,4,2,1,70,1,0
15824,-100,4,2,1,70,0,0
44481,-133.333333333333,4,2,1,50,0,0
51645,-100,4,2,1,70,0,0
55227,-100,4,2,1,60,0,0
55339,-100,4,2,1,80,0,0
56122,-100,4,2,1,75,0,0
58809,-100,4,2,1,90,0,1
87466,-100,4,2,1,80,0,0
101794,-100,4,2,1,65,0,0
130451,-133.333333333333,4,2,1,50,0,0
137615,-100,4,2,1,70,0,0
144779,-100,4,2,1,90,0,1
172540,-100,4,2,1,50,0,0
173436,-200,4,2,1,60,0,1
173548,-200,4,2,1,50,0,0
180600,-200,4,2,1,60,0,1
180712,-200,4,2,1,50,0,0
185973,-100,4,2,1,60,0,0
186421,-100,4,2,1,67,0,0
186869,-100,4,2,1,74,0,0
187316,-100,4,2,1,81,0,0
187764,-100,4,2,1,95,0,1
202093,-100,4,2,1,42,0,0

[Colours]
Combo1 : 255,164,96
Combo2 : 51,185,249
Combo3 : 27,220,162
Combo4 : 237,216,65
SliderBorder : 255,255,255

[HitObjects]
256,192,1496,1,4
308,84,15824,6,0,B|288:52|224:52|204:84,2,120,4|8|0
256,192,17167,1,8
204,300,17615,2,0,B|224:332|288:332|308:300,2,120,0|8|0
256,192,18958,1,8
340,104,19406,6,0,B|468:104,1,120,0|8
376,192,20301,2,0,B|248:192,1,120,0|8
156,128,21197,2,0,B|112:172|120:248,2,120,0|8|0
260,68,22540,2,0,B|276:36|316:36,1,60,8|0
320,108,22988,6,0,B|504:108,2,180,4|2|8
248,204,24779,2,0,B|64:204,2,180,4|2|8
340,280,26570,6,0,B|364:300|400:300,2,60,0|0|8
416,188,27466,2,0,B|436:164|436:128,2,60,0|0|8
324,112,28361,2,0,B|300:92|264:92,2,60,0|0|8
248,204,29257,2,0,B|228:228|228:264,2,60,0|0|8
352,144,30152,6,0,B|388:144|424:200|412:236,1,120,4|8
308,292,31048,2,0,B|272:292|236:236|248:200,1,120,0|8
148,136,31943,2,0,B|159:102|123:46|87:46,2,120,0|8|0
56,216,33287,1,8
56,216,33734,6,0,B|56:348,1,120,0|8
140,248,34630,2,0,B|140:380,1,120,0|8
224,284,35525,2,0,B|224:164,2,120,0|8|0
324,348,36869,2,0,B|336:376|380:376,1,60,8|0
380,304,37316,6,0,B|480:272|472:160,2,180,4|2|8
340,192,39107,2,0,B|240:224|248:336,2,180,4|2|8
416,100,40898,6,0,B|412:64|384:48,2,60,0|0|8
296,120,41794,2,0,B|273:91|240:93,2,60,0|0|8
232,224,42690,2,0,B|204:212|172:224,2,60,0|8|8
280,336,43585,2,0,B|249:347|221:335,2,60,8|0|8
356,252,44481,6,0,B|428:224|436:128,2,134.999995976687,4|8|8
316,172,46272,2,0,B|344:96|288:32,2,134.999995976687,4|8|8
232,144,48063,2,0,B|200:76|120:72,2,134.999995976687,2|8|8
148,176,49854,1,4
80,344,50749,6,0,B|48:328|40:292,2,67.4999979883433,0|2|0
112,276,51645,2,0,B|232:276,1,120,4|8
320,192,52540,2,0,B|200:192,1,120,0|8
112,108,53436,2,0,B|232:108,1,120,0|8
336,48,54331,5,0
400,76,54555,1,0
444,128,54779,1,8
364,220,55227,6,0,B|404:280|356:336,2,120,4|8|8
312,272,56346,2,8,B|272:212|320:156,1,120
388,152,57018,1,8
164,96,58809,6,0,B|120:84|80:104|68:152,1,120,4|8
116,232,59704,2,0,B|160:244|200:224|212:176,1,120,0|8
284,88,60600,6,0,B|424:88,1,120,0|8
472,184,61496,2,0,B|488:212|472:244,2,60,0|0|8
364,132,62391,6,0,B|240:132,1,120,2|8
200,76,63063,2,0,B|200:200,1,120
144,240,63734,2,0,B|264:240,1,120,8|2
344,152,64630,5,8
256,68,65078,1,0
144,116,65525,2,0,B|128:88|92:84,1,60,8|0
84,156,65973,6,0,B|84:284,1,120,4|8
180,348,66869,2,0,B|196:376|232:380,2,60,0|0|8
240,308,67540,2,0,B|440:308,1,180,2|8
472,200,68660,2,0,B|488:164|468:136,2,60,0|0|8
364,252,69555,6,0,B|232:252,1,120,2|8
171,244,70227,2,0,B|168:280|192:320|244:324,2,120,2|0|0
172,172,71346,2,0,B|128:164|92:208|96:248,2,120,0|8|8
240,184,72466,1,0
272,248,72690,1,8
368,176,73137,6,0,B|404:116|368:60,1,120,4|8
248,68,74033,2,0,B|240:32|208:20,2,60,0|0|8
180,84,74704,2,0,B|108:64|80:136,1,120,2|0
56,196,75376,2,0,B|128:216|152:148,1,120,8|0
220,144,76048,2,0,B|284:144,1,60,0|8
364,60,76719,6,0,B|408:52|452:80|456:116,1,120,2|8
480,184,77391,2,0,B|436:196|392:168|388:132,1,120,2|0
320,116,78063,1,8
200,84,78510,6,0,B|64:84,1,120,4|8
16,112,79182,2,0,B|32:152|80:152|80:152|124:152,1,120,2|8
192,156,79854,1,0
240,280,80301,6,0,B|312:272|312:200,1,120,4|8
240,208,80973,2,0,B|120:208,1,120,2|8
72,156,81645,1,8
180,104,82093,6,0,B|196:32|272:36,1,120,4|8
256,108,82764,2,0,B|376:108,1,120,2|8
436,144,83436,1,8
360,236,83884,6,0,B|300:256|240:232,1,120,4|8
284,172,84555,2,0,B|226:148|166:168,2,120,2|2|0
256,192,85675,12,4,87466
256,192,101794,6,0,B|388:192,1,120,4|8
464,112,102690,2,0,B|332:112,1,120,0|8
236,56,103585,2,0,B|172:28|120:56,1,120,0|8
48,152,104481,2,0,B|112:180|164:152,1,120,0|8
284,164,105376,6,0,B|316:220|284:284,1,120,0|8
184,344,106272,2,0,B|152:288|184:224,1,120,0|8
120,128,107167,2,0,B|-4:128,2,120,0|8|0
148,64,108287,1,8
216,56,108510,1,8
332,92,108958,6,0,B|400:84|448:152|428:224,2,180,4|2|8
308,208,110749,2,0,B|240:216|192:148|212:76,2,180,4|2|8
424,180,112540,6,0,B|460:124,2,60,0|0|8
320,120,113436,2,0,B|264:84,2,60,0|0|8
256,224,114331,2,0,B|220:280,2,60,0|0|8
360,284,115227,2,0,B|416:320,2,60,0|0|8
424,184,116122,6,0,B|452:120|428:52,2,120,4|8|0
316,240,117466,2,0,B|288:304|312:372,2,120,8|0|8
384,140,118809,1,0
288,72,119257,1,8
188,136,119704,6,0,B|56:136,1,120,0|8
164,208,120600,2,0,B|32:208,1,120,0|8
136,284,121495,6,0,B|272:284,1,120,0|8
296,228,122167,1,0
256,172,122391,2,0,B|388:172,1,120,0|8
451,269,123287,6,0,B|432:324|320:324|301:272,2,180,4|2|8
452,148,125078,2,0,B|433:96|321:96|301:152,2,180,4|2|8
456,268,126869,6,0,B|456:332,2,60,0|0|8
348,324,127764,2,0,B|348:384,2,60,0|0|8
244,264,128660,2,0,B|244:204,2,60,0|8|8
152,340,129555,2,0,B|120:348|96:324,2,60,8|0|8
132,252,130451,6,0,B|100:184|104:112,2,134.999995976687,4|8|8
196,188,132242,2,0,B|200:104|256:64,2,134.999995976687,4|8|8
284,172,134033,2,0,B|336:120|412:136,2,134.999995976687,2|8|8
348,236,135824,2,0,B|348:376,2,134.999995976687,4|8|8
428,148,137615,6,0,B|436:76|388:36,1,120,4|8
316,132,138510,2,0,B|308:204|356:244,2,120,0|8|0
216,64,139854,1,8
108,116,140301,2,0,B|88:172|140:232,1,120,0|8
248,184,141197,6,0,B|372:184,2,120,4|8|8
220,120,142316,2,0,B|164:148|168:204|192:248|240:252,1,180,8|8
256,68,144779,6,0,B|124:68,1,120,4|8
64,164,145675,2,0,B|184:164,1,120,0|8
252,152,146346,1,0
292,212,146570,2,0,B|320:268|288:332,2,120,0|8|0
204,132,147913,1,8
300,60,148361,6,0,B|428:60,1,120,2|8
472,108,149033,2,0,B|472:228,1,120,2|0
416,272,149704,2,0,B|416:144,1,120,8|0
312,92,150600,1,8
204,148,151048,6,0,B|184:124|148:120,2,60,0|8|8
276,244,151943,6,0,B|408:244,2,120,4|8|0
184,324,153287,1,8
120,292,153510,2,0,B|88:236|104:168,1,120,2|0
168,204,154182,2,0,B|182:143|150:87,2,120,8|0|8
268,272,155525,6,0,B|324:308|384:272,2,120,2|8|0
268,152,156869,1,8
268,152,157316,2,0,B|324:116|384:152,2,120,2|8|8
200,176,158436,1,0
188,244,158660,1,8
80,196,159107,6,0,B|44:140|80:80,1,120,4|8
192,40,160003,2,0,B|216:16|248:16,2,60,0|0|8
248,88,160675,2,0,B|372:88,1,120,2|0
424,132,161346,2,0,B|440:192|420:256,2,120,8|0|8
328,208,162690,6,0,B|272:164|216:208,1,120,2|8
160,256,163361,2,0,B|216:300|272:256,1,120,2|0
340,280,164033,1,8
444,220,164481,6,0,B|444:96,1,120,4|8
444,28,165152,2,0,B|396:32|368:60|372:112|372:112,1,120,2|8
372,180,165824,1,0
300,264,166272,6,0,B|244:308|188:264,1,120,4|8
132,216,166943,2,0,B|188:172|244:216,1,120,2|8
308,192,167615,1,8
236,96,168063,6,0,B|180:52|124:96,1,120,4|8
68,144,168734,2,0,B|124:188|180:144,1,120,2|0
244,168,169406,1,8
352,220,169854,6,0,B|384:252|384:300|352:332,1,120,4|8
304,276,170525,2,0,B|184:276,2,120,2|2|0
256,192,171645,12,4,173436
256,192,175227,5,2
136,80,177018,5,2
376,80,178809,5,2
256,192,180600,5,4
376,304,182391,5,2
136,304,184182,5,2
256,192,185973,6,8,B|332:192,2,60
184,95,186869,2,0,B|184:32,2,60,8|8|8
108,188,187764,6,0,B|-16:188,2,120,4|8|0
180,284,189107,1,8
208,220,189331,2,0,B|216:288|276:312,1,120,2|0
292,240,190003,2,0,B|351:263|359:331,2,120,8|0|8
244,132,191346,6,0,B|260:60|336:56,1,120,4|8
404,56,192018,2,0,B|388:128|312:132,1,120,2|0
284,192,192690,1,8
224,296,193137,6,0,B|100:296,1,120,4|8
32,292,193809,2,0,B|48:220|124:224,1,120,2|8
188,228,194481,1,8
296,276,194928,6,0,B|321:340|393:324,1,120,4|8
464,304,195600,2,0,B|439:240|367:256,1,120,2|8
316,204,196272,1,8
236,112,196719,6,0,B|210:47|138:63,1,120,4|8
68,80,197391,2,0,B|94:145|166:129,1,120,2|0
216,180,198063,1,8
296,296,198510,6,0,B|352:324|412:296,1,120,4|8
372,236,199182,2,0,B|372:116,2,120,2|0|2
256,192,200301,12,2,202093
