osu file format v9

[General]
AudioFilename: Jay Chou - Yang Guang Zhai Nan.mp3
AudioLeadIn: 1000
PreviewTime: 57744
Countdown: 0
SampleSet: Soft
StackLeniency: 0.7
Mode: 0
LetterboxInBreaks: 0

[Editor]
DistanceSpacing: 1
BeatDivisor: 4
GridSize: 4

[Metadata]
Title:Yang Guang Zhai Nan
Artist:Jay Chou
Creator:12BARRY21
Version:Insane
Source:
Tags:Sun DarknessAngel hoLysoup

[Difficulty]
HPDrainRate:8
CircleSize:4
OverallDifficulty:7
ApproachRate:8
SliderMultiplier:1.8
SliderTickRate:2

[Events]
//Background and Video events
0,0,"Yang Guang Zhai Nan BG.jpg"
//Break Periods
2,1696,13283
2,87666,99253
//Storyboard Layer 0 (Background)
//Storyboard Layer 1 (Fail)
//Storyboard Layer 2 (Pass)
//Storyboard Layer 3 (Foreground)
Sprite,Foreground,Centre,"SB\A-1.png",320,240 M,0,15824,15936,277,405,317,405 M,0,15936,18958,317,405,337,405 M,0,18958,19070,337,405,377,405
Sprite,Foreground,Centre,"SB\A-2.png",320,240 L,3578,1 M,0,15828,15940,377,435,337,435 M,0,15940,18962,337,435,317,435 M,0,18962,19074,317,435,277,435
Sprite,Foreground,Centre,"SB\A-3.png",320,240 L,7160,1 M,0,15828,15940,277,405,317,405 M,0,15940,18962,317,405,337,405 M,0,18962,19074,337,405,377,405
Sprite,Foreground,Centre,"SB\A-4.png",320,240 L,10742,1 M,0,15828,15940,377,435,337,435 M,0,15940,18962,337,435,317,435 M,0,18962,19074,317,435,277,435
Sprite,Foreground,Centre,"SB\A-5.png",320,240 L,14324,1 M,0,15828,15940,277,405,317,405 M,0,15940,18962,317,405,337,405 M,0,18962,19074,337,405,377,405
Sprite,Foreground,Centre,"SB\A-6.png",320,240 L,17906,1 M,0,15828,15940,377,435,337,435 M,0,15940,18962,337,435,317,435 M,0,18962,19074,317,435,277,435
Sprite,Foreground,Centre,"SB\A-7.png",320,240 L,21488,1 M,0,15828,15940,277,405,317,405 M,0,15940,18962,317,405,337,405 M,0,18962,19074,337,405,377,405
Sprite,Foreground,Centre,"SB\A-8.png",320,240 L,25070,1 M,0,15828,15940,377,435,337,435 M,0,15940,18962,337,435,317,435 M,0,18962,19074,317,435,277,435
Sprite,Foreground,Centre,"SB\A-9.png",320,240 M,0,44481,44593,277,405,317,405 M,0,44593,49742,317,405,357,405 M,0,49742,49854,357,405,397,405
Sprite,Foreground,Centre,"SB\A-10.png",320,240 M,0,50749,50861,397,435,357,435 M,0,50861,57466,357,435,317,435 M,0,57466,57578,317,435,277,435
Sprite,Foreground,Centre,"SB\B-1.png",320,240 M,0,57913,58025,277,405,317,405 M,0,58025,61943,317,405,337,405 M,0,61943,62055,337,405,377,405
Sprite,Foreground,Centre,"SB\B-2.png",320,240 M,0,62391,62503,377,435,337,435 M,0,62503,64630,337,435,317,435 M,0,64630,64742,317,435,277,435
Sprite,Foreground,Centre,"SB\B-3.png",320,240 L,7160,1 M,0,57917,58029,277,405,317,405 M,0,58029,61947,317,405,337,405 M,0,61947,62059,337,405,377,405
Sprite,Foreground,Centre,"SB\B-4.png",320,240 L,7160,1 M,0,62395,62507,377,435,337,435 M,0,62507,64634,337,435,317,435 M,0,64634,64746,317,435,277,435
Sprite,Foreground,Centre,"SB\B-5.png",320,240 L,14324,1 M,0,57917,58029,277,405,317,405 M,0,58029,61947,317,405,337,405 M,0,61947,62059,337,405,377,405
Sprite,Foreground,Centre,"SB\B-6.png",320,240 L,14324,1 M,0,62395,62507,377,435,337,435 M,0,62507,64634,337,435,317,435 M,0,64634,64746,317,435,277,435
Sprite,Foreground,Centre,"SB\B-7.png",320,240 M,0,79406,79518,277,405,317,405 M,0,79518,82540,317,405,337,405 M,0,82540,82652,337,405,377,405
Sprite,Foreground,Centre,"SB\B-8.png",320,240 M,0,82764,82876,377,435,337,435 M,0,82876,87466,337,435,317,435 M,0,87466,87578,317,435,277,435
Sprite,Foreground,Centre,"SB\C-1.png",320,240 L,-4,1 M,0,101798,101910,277,405,317,405 M,0,101910,104932,317,405,337,405 M,0,104932,105044,337,405,377,405
Sprite,Foreground,Centre,"SB\C-2.png",320,240 L,3578,1 M,0,101798,101910,377,435,337,435 M,0,101910,104932,337,435,317,435 M,0,104932,105044,317,435,277,435
Sprite,Foreground,Centre,"SB\C-3.png",320,240 L,7160,1 M,0,101798,101910,277,405,317,405 M,0,101910,104932,317,405,337,405 M,0,104932,105044,337,405,377,405
Sprite,Foreground,Centre,"SB\C-4.png",320,240 L,10742,1 M,0,101798,101910,377,435,337,435 M,0,101910,104932,337,435,317,435 M,0,104932,105044,317,435,277,435
Sprite,Foreground,Centre,"SB\C-5.png",320,240 L,14324,1 M,0,101798,101910,277,405,317,405 M,0,101910,104932,317,405,337,405 M,0,104932,105044,337,405,377,405
Sprite,Foreground,Centre,"SB\C-6.png",320,240 L,17906,1 M,0,101798,101910,377,435,337,435 M,0,101910,104932,337,435,317,435 M,0,104932,105044,317,435,277,435
Sprite,Foreground,Centre,"SB\C-7.png",320,240 L,21488,1 M,0,101798,101910,277,405,317,405 M,0,101910,104932,317,405,337,405 M,0,104932,105044,337,405,377,405
Sprite,Foreground,Centre,"SB\C-8.png",320,240 L,25070,1 M,0,101798,101910,377,435,337,435 M,0,101910,104932,337,435,317,435 M,0,104932,105044,317,435,277,435
Sprite,Foreground,Centre,"SB\A-10.png",320,240 L,85966,1 M,0,50753,50865,397,435,357,435 M,0,50865,57470,357,435,317,435 M,0,57470,57582,317,435,277,435
Sprite,Foreground,Centre,"SB\B-1.png",320,240 L,85966,1 M,0,57917,58029,277,405,317,405 M,0,58029,61947,317,405,337,405 M,0,61947,62059,337,405,377,405
Sprite,Foreground,Centre,"SB\B-2.png",320,240 L,85966,1 M,0,62395,62507,377,435,337,435 M,0,62507,64634,337,435,317,435 M,0,64634,64746,317,435,277,435
Sprite,Foreground,Centre,"SB\B-3.png",320,240 L,93130,1 M,0,57917,58029,277,405,317,405 M,0,58029,61947,317,405,337,405 M,0,61947,62059,337,405,377,405
Sprite,Foreground,Centre,"SB\B-4.png",320,240 L,93130,1 M,0,62395,62507,377,435,337,435 M,0,62507,64634,337,435,317,435 M,0,64634,64746,317,435,277,435
Sprite,Foreground,Centre,"SB\B-5.png",320,240 L,100294,1 M,0,57917,58029,277,405,317,405 M,0,58029,61947,317,405,337,405 M,0,61947,62059,337,405,377,405
Sprite,Foreground,Centre,"SB\B-6.png",320,240 L,100294,1 M,0,62395,62507,377,435,337,435 M,0,62507,64634,337,435,317,435 M,0,64634,64746,317,435,277,435
Sprite,Foreground,Centre,"SB\B-7.png",320,240 L,85966,1 M,0,79410,79522,277,405,317,405 M,0,79522,82544,317,405,337,405 M,0,82544,82656,337,405,377,405
Sprite,Foreground,Centre,"SB\B-8.png",320,240 L,85966,1 M,0,82768,82880,377,435,337,435 M,0,82880,87470,337,435,317,435 M,0,87470,87582,317,435,277,435
Sprite,Foreground,Centre,"SB\B-1.png",320,240 M,0,173436,173548,277,405,317,405 M,0,173548,176570,317,405,337,405 M,0,176570,176682,337,405,377,405
Sprite,Foreground,Centre,"SB\B-2.png",320,240 M,0,177018,177130,377,435,337,435 M,0,177130,179257,337,435,317,435 M,0,179257,179369,317,435,277,435
Sprite,Foreground,Centre,"SB\B-3.png",320,240 M,0,179704,179816,277,405,317,405 M,0,179816,183734,317,405,337,405 M,0,183734,183846,337,405,377,405
Sprite,Foreground,Centre,"SB\B-4.png",320,240 M,0,184182,184294,377,435,337,435 M,0,184294,186421,337,435,317,435 M,0,186421,186533,317,435,277,435
Sprite,Foreground,Centre,"SB\B-5.png",320,240 M,0,186869,186981,277,405,317,405 M,0,186981,190898,317,405,337,405 M,0,190898,191010,337,405,377,405
Sprite,Foreground,Centre,"SB\B-6.png",320,240 M,0,191346,191458,377,435,337,435 M,0,191458,193585,337,435,317,435 M,0,193585,193697,317,435,277,435
Sprite,Foreground,Centre,"SB\B-7.png",320,240 M,0,193809,193921,277,405,317,405 M,0,193921,197167,317,405,337,405 M,0,197167,197279,337,405,377,405
Sprite,Foreground,Centre,"SB\B-8.png",320,240 M,0,197391,197503,377,435,337,435 M,0,197503,202093,337,435,317,435 M,0,202093,202204,317,435,277,435
Sprite,Foreground,Centre,"SB\A-9.png",320,240 L,85966,1 M,0,44485,44597,277,405,317,405 M,0,44597,49746,317,405,357,405 M,0,49746,49858,357,405,397,405
Sprite,Foreground,Centre,"SB\sun.png",318,163 L,-4,13 S,0,3291,3514,0.6,0.9 S,0,3514,3738,0.9,0.6 S,0,3738,3962,0.6,0.8 S,0,3962,4186,0.8,0.6 F,0,1496,3287,0,1 S,0,1496,3287,0.1,0.6 R,0,1496,15152,0,12.5952 F,0,3287,14928,1 S,0,14922,15152,0.6,1.27584 F,0,14928,15152,1,0
Sprite,Foreground,Centre,"SB\Title-A.png",265,151 L,-4,13 S,0,3291,3514,0.6,1 S,0,3514,3738,1,0.7 S,0,3738,3962,0.7,0.9 S,0,3962,4186,0.9,0.6 F,0,14928,15152,1,0 S,0,14928,15152,0.6,1.2
Sprite,Foreground,Centre,"SB\Title-B.png",355,191 L,1787,12 S,0,3291,3514,0.6,1 S,0,3514,3738,1,0.7 S,0,3738,3962,0.7,0.9 S,0,3962,4186,0.9,0.6 F,0,14928,15152,1,0 S,0,14928,15152,0.6,1.2
Sprite,Foreground,Centre,"SB\Lyric.png",260,280 L,3578,11 S,0,3291,3514,1,1.2 S,0,3514,3738,1.2,1 S,0,3738,3962,1,1.1 S,0,3962,4186,1.1,1 F,0,14928,15152,1,0 S,0,14928,15152,0.6,1.2
Sprite,Foreground,Centre,"SB\Music.png",352,324 L,5369,10 S,0,3291,3514,1,1.2 S,0,3514,3738,1.2,1 S,0,3738,3962,1,1.1 S,0,3962,4186,1.1,1 F,0,14928,15152,1,0 S,0,14928,15152,0.6,1.2
//Storyboard Sound Samples
//Background Colour Transformations
3,100,163,162,255

[TimingPoints]
1496,447.761194029851,4,2,1,70,1,0
14257,-100,4,2,1,50,0,0
14369,-100,4,2,1,70,0,0
15824,-100,4,2,1,65,0,0
23884,-100,4,2,1,55,0,0
24331,-100,4,2,1,65,0,0
25675,-100,4,2,1,55,0,0
26122,-100,4,2,1,65,0,0
38212,-100,4,2,1,55,0,0
38660,-100,4,2,1,65,0,0
40003,-100,4,2,1,55,0,0
40451,-100,4,2,1,65,0,0
42913,-100,4,2,1,55,0,0
43025,-100,4,2,1,65,0,0
43585,-100,4,2,1,50,0,0
43697,-100,4,2,1,65,0,0
44033,-100,4,2,1,55,0,0
44145,-100,4,2,1,65,0,0
44481,-133.333333333333,4,2,1,50,0,0
50749,-133.333333333333,4,2,1,60,0,0
50973,-133.333333333333,4,2,1,55,0,0
51197,-133.333333333333,4,2,1,60,0,0
51421,-133.333333333333,4,2,1,65,0,0
51645,-100,4,2,1,70,0,0
55227,-100,4,2,1,60,0,0
55339,-100,4,2,1,80,0,0
56122,-100,4,2,1,75,0,0
57018,-100,4,2,1,85,0,0
57913,-100,4,1,0,80,0,0
58809,-100,4,2,1,90,0,1
59928,-100,4,2,1,70,0,1
60040,-100,4,2,1,90,0,1
61719,-100,4,2,1,70,0,1
61831,-100,4,2,1,90,0,1
63510,-100,4,2,1,70,0,1
63622,-100,4,2,1,90,0,1
65301,-100,4,2,1,70,0,1
65413,-100,4,2,1,90,0,1
67093,-100,4,2,1,70,0,1
67204,-100,4,2,1,90,0,1
68884,-100,4,2,1,70,0,1
68996,-100,4,2,1,90,0,1
70675,-100,4,2,1,70,0,1
70787,-100,4,2,1,90,0,1
72242,-100,4,2,1,70,0,1
72690,-100,4,2,1,80,0,1
73137,-100,4,2,1,90,0,1
74257,-100,4,2,1,70,0,1
74369,-100,4,2,1,90,0,1
76048,-100,4,2,1,70,0,1
76160,-100,4,2,1,90,0,1
77839,-100,4,2,1,70,0,1
78063,-100,4,2,1,90,0,1
78734,-100,4,2,1,70,0,1
78958,-100,4,2,1,90,0,1
79630,-100,4,2,1,70,0,1
79854,-100,4,2,1,90,0,1
81421,-100,4,2,1,70,0,1
81533,-100,4,2,1,90,0,1
83212,-100,4,2,1,70,0,1
83324,-100,4,2,1,90,0,1
83884,-100,4,2,1,70,0,1
84331,-100,4,2,1,80,0,1
85227,-100,4,2,1,90,0,1
85451,-100,4,2,1,60,0,1
85675,-100,4,2,1,70,0,1
87466,-100,4,2,1,60,0,0
101794,-100,4,2,1,65,0,0
109854,-100,4,2,1,55,0,0
110301,-100,4,2,1,65,0,0
111645,-100,4,2,1,55,0,0
112093,-100,4,2,1,65,0,0
124182,-100,4,2,1,55,0,0
124630,-100,4,2,1,65,0,0
125973,-100,4,2,1,55,0,0
126421,-100,4,2,1,65,0,0
128884,-100,4,2,1,60,0,0
128996,-100,4,2,1,65,0,0
129555,-100,4,2,1,55,0,0
129667,-100,4,2,1,65,0,0
130003,-100,4,2,1,60,0,0
130115,-100,4,2,1,65,0,0
130451,-133.333333333333,4,2,1,50,0,0
136719,-133.333333333333,4,2,1,60,0,0
136943,-133.333333333333,4,2,1,55,0,0
137167,-133.333333333333,4,2,1,60,0,0
137391,-133.333333333333,4,2,1,65,0,0
137615,-100,4,2,1,70,0,0
141197,-100,4,2,1,60,0,0
141309,-100,4,2,1,80,0,0
142093,-100,4,2,1,75,0,0
142988,-100,4,2,1,85,0,0
143884,-100,4,1,0,80,0,0
144779,-100,4,2,1,90,0,1
145898,-100,4,2,1,70,0,1
146010,-100,4,2,1,90,0,1
147690,-100,4,2,1,70,0,1
147801,-100,4,2,1,90,0,1
149481,-100,4,2,1,70,0,1
149593,-100,4,2,1,90,0,1
151272,-100,4,2,1,70,0,1
151384,-100,4,2,1,90,0,1
153063,-100,4,2,1,70,0,1
153175,-100,4,2,1,90,0,1
154854,-100,4,2,1,70,0,1
154966,-100,4,2,1,90,0,1
156645,-100,4,2,1,70,0,1
156757,-100,4,2,1,90,0,1
157540,-100,4,2,1,70,0,1
158212,-100,4,2,1,80,0,1
158660,-100,4,2,1,85,0,1
160227,-100,4,2,1,70,0,1
160339,-100,4,2,1,90,0,1
162018,-100,4,2,1,70,0,1
162130,-100,4,2,1,90,0,1
163809,-100,4,2,1,70,0,1
163921,-100,4,2,1,90,0,1
165600,-100,4,2,1,70,0,1
165712,-100,4,2,1,90,0,1
167391,-100,4,2,1,70,0,1
167503,-100,4,2,1,90,0,1
169182,-100,4,2,1,70,0,1
169294,-100,4,2,1,90,0,1
169854,-100,4,2,1,70,0,1
170301,-100,4,2,1,80,0,1
171197,-100,4,2,1,90,0,1
171421,-100,4,2,1,60,0,1
171645,-100,4,2,1,70,0,1
172540,-100,4,2,1,50,0,0
173436,-200,4,2,1,60,0,1
173548,-200,4,2,1,50,0,0
177018,-200,4,2,1,30,0,0
177130,-200,4,2,1,50,0,0
180600,-200,4,2,1,60,0,1
180712,-200,4,2,1,50,0,0
183734,-200,4,2,1,30,0,0
183846,-200,4,2,1,50,0,0
185973,-100,4,2,1,60,0,0
186421,-100,4,2,1,67,0,0
186869,-100,4,2,1,74,0,0
187316,-100,4,2,1,81,0,0
187764,-100,4,2,1,95,0,1
188548,-100,4,2,1,75,0,1
188660,-100,4,2,1,95,0,1
188884,-100,4,2,1,75,0,1
188996,-100,4,2,1,95,0,1
190339,-100,4,2,1,75,0,1
190451,-100,4,2,1,95,0,1
190675,-100,4,2,1,75,0,1
190787,-100,4,2,1,95,0,1
192466,-100,4,2,1,75,0,1
192690,-100,4,2,1,95,0,1
193361,-100,4,2,1,75,0,1
193585,-100,4,2,1,95,0,1
194257,-100,4,2,1,75,0,1
194481,-100,4,2,1,95,0,1
196048,-100,4,2,1,75,0,1
196160,-100,4,2,1,95,0,1
197839,-100,4,2,1,75,0,1
197951,-100,4,2,1,95,0,1
198510,-100,4,2,1,70,0,1
198958,-100,4,2,1,85,0,1
199854,-100,4,2,1,95,0,1
200078,-100,4,2,1,60,0,1
200301,-100,4,2,1,70,0,1
200749,-100,4,2,1,65,0,1
201197,-100,4,2,1,60,0,1
201645,-100,4,2,1,55,0,1
202093,-100,4,2,1,50,0,0

[Colours]
Combo1 : 255,164,96
Combo2 : 51,185,249
Combo3 : 27,220,162
Combo4 : 237,216,65
SliderBorder : 255,255,255

[HitObjects]
256,192,1496,1,4
168,172,14033,6,0,B|144:132|144:80,2,90,0|12|0
256,192,14704,1,0
344,172,14928,2,0,B|368:132|368:80,2,90,8|8|8
344,172,15488,1,8
344,172,15600,1,8
256,292,15824,5,4
168,272,16048,1,0
100,212,16272,2,0,B|132:120|100:36,1,180,8|0
188,40,16943,1,0
188,40,17167,2,0,B|280:76|364:40,1,180,8|0
408,120,17839,5,0
428,208,18063,2,0,B|472:216|508:248,2,90,8|0|0
352,320,18734,1,0
352,320,18846,1,0
352,320,18958,1,8
348,184,19182,1,0
272,296,19406,5,2
272,296,19630,1,0
272,296,19854,2,0,B|168:312|116:228,1,180,8|2
164,104,20525,1,0
164,104,20749,2,0,B|268:88|320:172,1,180,8|2
380,100,21421,5,0
507,76,21645,2,0,B|472:104|456:148,1,90,8|0
440,236,22093,1,2
463,363,22316,2,0,B|435:327|391:311,1,90,0|8
304,292,22764,1,0
216,304,22988,6,0,B|172:320|120:312|92:272,1,135,4|0
80,232,23436,2,0,B|72:144,1,90,8|0
112,60,23884,1,8
168,132,24107,1,8
71,142,24331,1,8
112,60,24555,1,0
248,48,24779,6,0,B|316:76|384:52,1,135,2|0
416,28,25227,2,0,B|408:120,1,90,8|0
311,209,25675,1,8
442,197,25898,1,8
324,129,26122,1,8
380,248,26346,1,0
408,117,26570,5,2
408,117,26794,1,0
408,117,27018,2,0,B|360:108|336:64,1,90,8|0
232,96,27466,5,2
232,96,27690,1,0
232,96,27913,2,0,B|247:142|221:185,1,90,8|0
304,252,28361,5,2
304,252,28585,1,0
304,252,28809,2,0,B|336:215|386:216,2,90,8|0|0
224,292,29481,2,0,B|208:340,2,45,0|0|8
148,244,29928,1,8
152,232,30040,1,8
156,220,30152,1,4
84,108,30376,5,0
84,108,30600,2,0,B|160:44|252:92,1,180,8|0
296,172,31272,1,0
376,132,31496,1,8
332,52,31719,1,0
332,52,31831,1,0
332,52,31943,1,0
492,140,32167,5,0
344,244,32391,1,8
332,52,32615,1,0
332,52,32727,1,0
332,52,32839,1,0
244,64,33063,2,0,B|200:72|156:48,2,90,0|8|0
64,116,33734,6,0,B|108:108|152:132,1,90,2|0
150,131,34070,1,0
150,131,34182,1,8
240,232,34406,1,0
240,232,34630,2,0,B|196:224|152:248,1,90,2|0
64,348,35078,2,0,B|108:340|152:364,1,90,8|0
256,348,35525,5,2
361,363,35749,1,0
361,363,35861,1,0
361,363,35973,2,0,B|404:340|448:348,1,90,8|0
468,260,36421,1,2
448,228,36533,1,0
440,192,36645,1,0
444,156,36757,1,0
456,124,36869,2,0,B|468:80|504:48,2,90,8|0|4
340,56,37652,5,0
340,56,37764,2,0,B|300:84|252:76,1,90,8|0
164,88,38212,1,8
88,140,38436,1,8
88,140,38548,1,0
88,140,38660,2,0,B|116:180|112:228,1,90,8|0
156,304,39107,6,0,B|192:276|240:268|288:276,1,135,2|0
328,280,39555,2,0,B|376:288|416:260,2,90,8|0|8
352,172,40227,1,8
352,172,40339,1,0
352,172,40451,2,0,B|389:145|437:153,1,90,8|0
312,340,40898,5,2
460,240,41122,1,0
400,308,41346,1,8
312,340,41570,1,0
200,340,41794,5,2
52,240,42018,1,0
112,308,42242,1,8
200,340,42466,1,0
176,192,42690,6,0,B|168:148|128:120,1,90,0|4
256,44,43137,2,0,B|256:136,1,90,0|0
336,192,43585,2,0,B|344:148|384:120,1,90,4|0
468,160,44033,1,4
464,196,44145,1,0
452,228,44257,1,0
432,256,44369,1,0
408,272,44481,6,0,B|364:296|340:324|324:372,1,134.999995976687,4|2
188,372,45152,2,0,B|172:324|148:296|104:272,1,134.999995976687,8|0
44,208,45824,1,2
72,124,46048,1,0
128,192,46272,6,0,B|188:160|216:92,1,134.999995976687,4|2
384,40,46943,2,0,B|324:72|296:140,1,134.999995976687,8|8
292,228,47615,1,0
344,300,47839,1,0
428,328,48063,6,0,B|480:312|496:256,2,101.249996982515,4|8|8
404,228,48958,2,0,B|416:174|375:133,2,101.249996982515,0|8|8
304,204,49854,2,0,B|264:166|207:181,2,101.249996982515,4|8|8
304,204,50749,1,8
336,332,50973,5,8
300,340,51085,1,8
264,344,51197,1,8
228,340,51309,1,8
192,328,51421,1,8
160,312,51533,1,8
136,288,51645,6,0,B|104:256|56:252,2,90,4|0|8
168,204,52316,1,0
200,120,52540,1,0
232,36,52764,2,0,B|280:36,2,45,0|0|8
312,120,53212,5,0
344,204,53436,1,0
456,251,53660,2,0,B|408:256|376:288,2,90,0|8|0
292,320,54331,1,0
256,328,54443,1,0
220,328,54555,1,0
184,320,54667,1,0
152,304,54779,1,8
100,208,55003,6,0,B|80:120,1,90,0|12
191,131,55451,2,0,B|172:44,2,90,0|8|0
292,100,56122,1,8
296,112,56234,1,8
299,124,56346,1,8
302,135,56458,1,8
305,147,56570,2,8,B|316:190,4,45
80,276,57913,5,0
256,312,58137,1,0
432,276,58361,1,0
256,312,58585,5,0
256,312,58697,1,0
256,312,58809,1,12
228,228,59033,2,0,B|204:188|152:176,1,90,0|8
108,48,59481,2,0,B|132:88|184:100,1,90
292,68,59928,5,8
292,68,60040,1,0
292,68,60152,1,8
416,88,60376,1,0
292,176,60600,1,2
416,196,60824,2,0,B|416:244|460:272,2,90,0|8|0
321,317,61496,5,0
289,329,61607,1,0
253,333,61719,1,8
217,329,61831,1,0
185,317,61943,1,8
212,228,62167,6,0,B|256:252|300:224,1,90,0|4
297,46,62615,2,0,B|256:20|212:44,1,90,0|8
218,136,63063,1,0
254,144,63175,1,0
290,136,63287,1,0
396,164,63510,6,0,B|440:160|484:140,2,90,8|8|0
420,252,64182,2,0,B|464:248|508:228,2,90,2|0|8
348,308,64854,1,0
316,296,64966,1,0
280,288,65078,1,0
244,288,65190,1,0
208,296,65301,1,8
128,256,65525,1,8
96,172,65749,2,8,B|52:180,2,45,8|8|4
128,88,66197,5,0
128,88,66421,1,8
212,52,66645,1,0
212,52,66757,1,0
212,52,66869,2,0,B|256:64|300:52,1,90,0|8
448,120,67316,2,0,B|403:132|359:120,1,90,8|0
212,188,67764,6,0,B|256:200|300:188,1,90,2|0
448,256,68212,2,0,B|403:268|359:256,1,90,8|0
359,256,68548,1,0
359,256,68660,1,0
228,284,68884,1,8
96,252,69107,1,8
24,140,69331,1,0
156,172,69555,5,4
248,76,69779,1,0
248,76,69891,1,0
248,76,70003,2,0,B|282:109|330:106,1,90,8|0
420,96,70451,1,0
388,180,70675,1,8
388,180,70787,1,0
388,180,70898,2,0,B|375:226|403:266,1,90,8|0
476,208,71346,5,0
296,236,71570,1,8
476,208,71794,1,8
296,236,72018,1,8
262,249,72130,1,8
234,273,72242,1,8
214,305,72354,1,8
202,341,72466,1,8
34,353,72690,5,8
68,340,72801,1,8
96,316,72913,1,8
116,284,73025,1,8
128,248,73137,1,4
108,160,73361,6,0,B|64:152|32:112,1,90,0|8
80,36,73809,1,0
80,36,73921,1,0
80,36,74033,2,0,B|124:44|156:84,1,90,0|8
256,48,74481,2,0,B|256:140,2,90,8|0|0
357,82,75152,6,0,B|388:44|432:36,1,90,0|8
478,113,75600,1,0
478,113,75712,1,0
478,113,75824,2,0,B|448:152|404:160,1,90,0|8
312,160,76272,1,8
228,192,76495,1,0
172,260,76719,6,0,B|156:304|160:352,2,90,4|0|8
132,180,77391,1,0
188,112,77615,1,0
228,192,77839,1,8
228,192,77951,1,8
228,192,78063,1,8
83,174,78287,5,0
168,71,78510,1,4
228,192,78734,1,8
228,192,78846,1,8
228,192,78958,1,8
39,168,79182,5,0
150,34,79406,1,4
228,192,79630,1,8
228,192,79742,1,8
228,192,79854,1,8
339,58,80078,5,0
339,58,80301,2,0,B|384:60|412:84|432:112|436:144,1,135,4|0
436,184,80749,2,0,B|436:276,1,90,8|0
368,332,81197,1,0
280,348,81421,1,8
192,336,81645,1,8
120,280,81869,5,0
120,280,81981,1,0
120,280,82093,2,0,B|152:220|132:148,1,135,4|0
168,120,82540,2,0,B|208:144|256:132,1,90,8|0
340,104,82988,1,0
424,72,83212,1,8
496,128,83436,1,8
412,160,83660,1,0
340,104,83884,6,0,B|309:75|276:57|222:51|172:70,1,180,4|8
148,215,84555,2,0,B|178:243|211:261|265:267|315:248,1,180,2|8
173,69,85227,1,8
315,248,85451,1,8
256,192,85675,12,4,87466
204,264,100003,6,0,B|120:296,2,90,8|0|0
256,192,100675,1,8
308,120,100898,2,0,B|392:88,2,90,0|8|8
308,120,101458,1,8
308,120,101570,1,0
220,96,101794,5,4
136,124,102018,1,0
136,124,102242,2,0,B|104:184|104:256,1,135,8|0
104,268,102690,1,0
240,356,102913,5,0
240,356,103137,2,0,B|272:296|272:224,1,135,8|0
272,212,103585,1,0
308,80,103809,1,0
440,112,104033,1,8
404,244,104257,1,0
272,212,104481,5,0
404,244,104704,1,0
404,244,104816,1,0
404,244,104928,1,8
272,212,105152,1,0
188,108,105376,6,0,B|140:104|116:60,1,90,2|0
52,180,105824,2,0,B|101:178|129:218,2,90,8|0|2
52,316,106495,1,0
76,340,106607,1,0
112,348,106719,1,8
244,328,106943,1,0
320,216,107167,6,0,B|408:236,1,90,2|0
432,104,107615,2,0,B|344:84,1,90,8|0
208,68,108063,1,2
188,100,108175,1,0
160,120,108287,1,0
124,128,108398,1,0
92,140,108510,2,0,B|48:156|28:208,2,90,8|0|4
108,300,109182,5,0
108,300,109294,1,0
108,300,109406,2,0,B|152:292|192:268,1,90,8|0
316,240,109854,1,8
416,316,110078,1,8
292,344,110301,1,8
191,268,110525,1,0
316,240,110749,6,0,B|336:152,1,90,2|0
335,152,111085,1,0
335,152,111197,1,8
212,100,111421,1,0
58,59,111645,1,8
180,128,111869,1,8
71,99,112093,1,8
180,128,112316,1,0
277,273,112540,6,0,B|294:318|339:335,1,90,2|0
339,196,112988,2,0,B|388:194|418:156,1,90,8|0
286,113,113436,2,0,B|298:66|272:25,1,90,2|0
190,139,113884,2,0,B|150:112|103:125,1,90,8|0
185,237,114331,2,0,B|146:267|145:316,1,90,2|0
277,273,114779,5,8
339,196,115003,1,0
286,113,115227,1,0
190,139,115451,1,0
185,237,115675,1,8
277,273,115898,1,0
412,212,116122,6,0,B|444:183|496:179,2,90,4|0|8
100,172,117018,2,0,B|67:200|15:204,2,90,0|0|8
256,44,117913,5,0
256,136,118137,2,0,B|256:180,2,45,0|0|8
156,152,118585,2,0,B|136:64,1,90
356,152,119033,2,0,B|376:64,2,90,0|8|0
196,244,119704,6,0,B|108:264,2,90,2|0|8
316,244,120376,2,0,B|404:264,2,90,2|0|0
136,288,121048,2,0,B|48:308,2,90,10|0|0
376,288,121719,2,0,B|464:308,2,90,2|8|0
256,156,122391,6,0,B|256:64,1,90,2|0
256,52,122727,1,0
256,40,122839,1,10
344,56,123063,1,0
424,96,123287,2,0,B|456:160|440:228,1,135,4|0
404,256,123734,2,0,B|388:304|404:348,2,90,8|0|8
316,268,124406,6,0,B|272:268,2,45,8|0|8
284,184,124854,1,0
268,184,124966,1,0
252,184,125078,2,0,B|200:188|160:176|128:144,1,135,4|0
96,176,125525,2,0,B|56:148|12:152,1,90,8|0
28,240,125973,5,8
80,312,126197,1,8
164,344,126421,1,8
200,340,126533,1,0
232,324,126645,1,0
256,296,126757,1,0
264,260,126869,6,0,B|276:216|264:172,1,90,2|0
396,204,127316,2,0,B|384:159|352:127,1,90,8|0
476,76,127764,2,0,B|443:43|399:31,1,90,2|0
216,56,128212,6,0,B|168:60|132:88,1,90,8|0
100,264,128660,2,0,B|148:260|184:232,1,90,2|4
296,120,129107,2,0,B|248:124|212:152,1,90,8|0
180,328,129555,2,0,B|228:324|264:296,2,90,4|0|4
144,332,130115,1,0
108,328,130227,1,0
76,312,130339,1,0
56,284,130451,6,0,B|36:236|44:184,2,101.249996982515,4|2|0
164,224,131346,1,0
272,160,131570,1,0
160,108,131794,1,2
164,224,132018,1,8
276,276,132242,6,0,B|324:276|372:248,2,101.249996982515,4|0|8
440,208,133137,1,0
200,292,133361,1,0
372,247,133585,1,2
276,276,133809,1,0
284,140,134033,6,0,B|228:96|152:104,1,134.999995976687,4|0
36,168,134704,2,0,B|92:212|168:204,2,134.999995976687,8|0|8
36,168,135824,1,4
144,64,136160,5,8
152,84,136272,1,10
272,100,136495,1,8
265,119,136607,1,8
258,138,136719,1,10
364,200,136943,1,8
348,212,137055,1,8
332,224,137167,2,8,B|300:248,3,33.7499989941716,10|8|8|8
268,252,137615,6,0,B|220:240|180:264,1,90,4|0
25,312,138063,2,0,B|64:336|112:324,2,90,8|0|0
96,240,138734,1,0
96,240,138846,1,0
96,240,138958,2,0,B|72:152,1,90,8|0
144,41,139406,6,0,B|168:128,2,90,0|0|8
252,64,140078,1,0
284,52,140190,1,0
320,48,140301,1,0
356,52,140413,1,0
392,60,140525,2,0,B|436:72|480:64,2,90,0|8|0
404,196,141197,5,4
356,324,141421,1,0
224,352,141645,1,8
100,296,141869,1,0
88,160,142093,6,8,B|99:117,3,45
103,102,142540,1,8
106,90,142652,1,8
109,78,142764,1,8
112,67,142876,1,8
115,55,142988,1,8
256,324,143884,5,0
208,192,144107,1,0
256,56,144331,1,0
304,192,144555,5,0
304,192,144667,1,0
304,192,144779,2,0,B|392:208,1,90,4|0
208,192,145227,2,0,B|120:208,1,90,8|0
96,296,145675,1,0
256,324,145898,1,8
416,296,146122,1,8
392,208,146346,5,0
392,208,146458,1,0
392,208,146570,2,0,B|352:180|352:132,1,90,2|0
432,88,147018,2,0,B|472:116|472:164,1,90,8|0
392,208,147466,1,0
232,176,147690,1,8
100,80,147913,1,8
232,176,148137,5,0
232,176,148249,1,0
232,176,148361,2,0,B|208:232|172:256|136:264,1,135,4|0
120,304,148809,2,0,B|172:308|200:344,1,90,8|0
288,328,149257,1,0
376,312,149481,2,0,B|402:346|454:350,2,90,8|8|0
376,312,150040,1,0
376,312,150152,1,2
352,132,150488,5,0
352,132,150600,2,0,B|308:148|264:140,1,90,8|0
176,120,151048,1,0
96,80,151272,2,0,B|84:36,2,45,8|0|8
52,160,151719,5,8
52,160,151831,1,8
52,160,151943,2,0,B|48:264|120:320,1,180,4|8
228,308,152615,1,0
168,220,152839,1,0
276,208,153063,1,8
276,208,153175,1,0
276,208,153287,1,8
380,232,153510,6,0,B|424:244|468:220,1,90,0|2
400,136,153958,2,0,B|439:113|453:65,1,90,0|8
320,56,154406,2,0,B|276:56,3,45
228,56,154854,2,0,B|180:60|144:92,2,90,8|8|0
256,160,155525,6,0,B|220:212|148:228|96:220,1,180,4|8
60,352,156197,2,0,B|96:300|168:284|220:292,1,180,2|8
308,276,156869,1,8
396,256,157093,6,0,B|440:244|464:200,2,90,0|0|8
364,124,157764,1,8
364,124,157876,1,8
364,124,157988,1,8
120,144,158212,1,8
249,171,158436,5,8
252,205,158548,1,8
248,240,158660,1,8
232,272,158772,1,8
215,294,158884,1,8
188,316,158995,1,8
157,330,159107,6,0,B|112:340|68:332,1,90,4|0
36,228,159555,2,0,B|81:218|125:226,1,90,8|0
208,156,160003,1,0
292,88,160227,1,8
292,88,160339,1,0
292,88,160451,2,0,B|337:98|381:90,1,90,8|0
448,208,160898,6,0,B|403:199|358:209,2,90,2|0|8
428,316,161570,2,0,B|384:320,3,45
336,324,162018,1,8
248,332,162242,1,8
280,248,162466,1,0
353,332,162690,5,4
233,343,162913,1,0
276,227,163137,1,8
252,96,163361,5,0
252,96,163473,1,0
252,96,163585,2,0,B|208:112|164:104,1,90,0|8
65,196,164033,1,8
196,184,164257,1,0
78,116,164481,1,4
134,235,164704,1,0
163,103,164928,1,8
65,196,165152,6,0,B|36:232,3,45,0|0|4|0
24,264,165600,2,0,B|40:304|36:352,1,90,8|8
144,344,166048,1,0
144,344,166160,1,0
144,344,166272,2,0,B|184:328|232:332,2,90,4|0|8
320,316,166943,5,2
404,288,167167,1,0
448,208,167391,1,8
448,208,167503,1,0
448,208,167615,1,8
320,316,167839,1,0
448,208,168063,6,0,B|456:160|444:120,2,90,4|0|8
428,36,168734,1,2
340,52,168958,1,0
252,48,169182,1,8
252,48,169294,1,0
252,48,169406,1,8
428,36,169630,1,0
252,48,169854,6,0,B|216:84|176:84|176:84|180:132|144:172,1,180,4|8
260,336,170525,2,0,B|296:300|336:300|336:300|332:252|368:212,1,180,2|8
145,170,171197,1,8
366,213,171421,1,8
256,192,171645,12,8,172988
256,192,173436,6,0,B|220:224|172:224,2,90,4|0|2
256,192,174555,1,2
376,252,175003,1,0
436,132,175451,5,0
436,132,175675,1,2
316,72,176122,1,2
316,72,176346,1,0
316,72,176570,2,0,B|268:72|232:40,1,90,0|4
184,168,177466,6,0,B|196:212,1,45,0|2
96,304,178137,2,0,B|136:328,2,45,0|2|0
20,272,178809,1,2
20,192,179033,1,0
96,224,179257,1,2
276,244,179704,5,2
329,185,179928,1,0
401,221,180152,1,2
391,299,180376,1,0
312,314,180600,2,0,B|274:340|226:340,1,90,4|0
184,212,181495,5,2
184,212,181719,1,0
184,212,181943,1,2
184,212,182167,2,0,B|221:185|269:185,1,90
336,232,182839,1,2
404,280,183063,2,0,B|448:272|448:272,2,45,0|2|0
404,280,183734,1,4
228,324,184182,6,0,B|184:328|144:296,1,90,2|2
144,296,184854,1,0
104,168,185301,2,0,B|56:176,2,45,0|2|0
124,80,185973,5,8
156,68,186085,1,8
192,80,186197,1,8
224,68,186309,1,8
260,80,186421,1,8
292,68,186533,1,8
332,80,186645,1,8
364,68,186757,1,8
400,80,186869,6,8,B|444:88,3,45
424,128,187316,2,8,B|458:156,3,45
472,200,187764,6,0,B|458:247|426:279,1,90,4|0
272,328,188212,2,0,B|285:280|317:248,1,90,8|0
320,204,188548,2,0,B|324:160|320:112,1,90,8|0
316,68,188884,1,8
172,76,189107,1,8
32,36,189331,1,0
172,76,189555,6,0,B|168:124|144:160,1,90,2|0
212,308,190003,2,0,B|216:260|240:224,1,90,8|0
284,208,190339,2,0,B|328:200|376:208,1,90,8|0
416,196,190675,2,0,B|440:159|444:111,1,90,8|8
444,111,191010,1,0
444,111,191122,1,0
288,108,191346,5,4
180,124,191570,1,0
144,224,191794,1,8
252,208,192018,1,0
180,124,192242,1,0
252,208,192466,2,8,B|296:208,2,45
164,108,192913,5,0
268,224,193137,1,4
164,108,193361,2,8,B|120:108,2,45
284,240,193809,5,0
148,92,194033,1,4
284,240,194257,2,8,B|328:240,2,45
148,92,194704,5,0
148,92,194928,2,0,B|56:92,2,90,4|0|8
88,224,195600,2,0,B|178:224,2,90,0|0|8
88,224,196160,1,0
88,224,196272,1,8
256,288,196495,1,0
424,344,196719,6,0,B|456:312|464:264,2,90,4|0|8
352,232,197391,2,0,B|359:184|391:152,2,90,0|0|8
352,232,197951,1,0
352,232,198063,1,0
256,192,198287,1,2
148,192,198510,6,0,B|168:104|256:56,1,180,4|8
364,192,199182,2,0,B|344:280|256:328,1,180,2|8
256,55,199854,1,8
255,328,200078,1,8
256,192,200301,12,0,201645
256,192,202093,5,4
