osu file format v14

[General]
AudioFilename: tiantiande.mp3
AudioLeadIn: 0
PreviewTime: 1431
Countdown: 0
SampleSet: Soft
StackLeniency: 0.7
Mode: 3
LetterboxInBreaks: 0
SpecialStyle: 0
WidescreenStoryboard: 1

[Editor]
Bookmarks: 22873
DistanceSpacing: 1.3
BeatDivisor: 4
GridSize: 8
TimelineZoom: 1

[Metadata]
Title:Tian Tian De
TitleUnicode:甜甜的
Artist:Jay Chou
ArtistUnicode:周杰倫
Creator:M7x7
Version:NM
Source:
Tags:我很忙 周杰伦
BeatmapID:649461
BeatmapSetID:287632

[Difficulty]
HPDrainRate:7
CircleSize:4
OverallDifficulty:7
ApproachRate:5
SliderMultiplier:1.4
SliderTickRate:1

[Events]
//Background and Video events
0,0,"499213.jpg",0,0
//Break Periods
2,17665,21955
//Storyboard Layer 0 (Background)
//Storyboard Layer 1 (Fail)
//Storyboard Layer 2 (Pass)
//Storyboard Layer 3 (Foreground)
//Storyboard Sound Samples

[TimingPoints]
397,517.241379310345,4,2,1,15,1,0
2465,-100,4,1,1,25,0,1
16948,-100,4,1,1,20,0,0
17445,-100,4,1,1,20,0,0
17960,-100,4,1,1,20,0,0
18477,-100,4,1,1,20,0,0
19123,-100,4,1,1,25,0,0
57529,-100,4,1,1,23,0,0
76149,-100,4,1,1,25,0,0
76948,-100,4,1,1,25,0,1
93371,-100,4,1,1,20,0,0
93500,-100,4,1,1,25,0,1
110052,-100,4,1,1,20,0,0

[HitObjects]
320,192,397,5,0,0:0:0:0:
320,192,914,1,0,0:0:0:0:
320,192,1431,1,0,0:0:0:0:
448,192,1690,1,0,0:0:0:0:
320,192,1948,1,0,0:0:0:0:
192,192,2078,1,0,0:0:0:0:
448,192,2207,1,0,0:0:0:0:
320,192,2465,1,0,0:0:0:0:
192,192,2465,1,0,0:0:0:0:
448,192,2724,1,0,0:0:0:0:
320,192,2983,1,0,0:0:0:0:
64,192,2983,1,0,0:0:0:0:
448,192,3241,1,0,0:0:0:0:
320,192,3500,1,0,0:0:0:0:
448,192,3500,1,0,0:0:0:0:
320,192,3759,1,0,0:0:0:0:
192,192,4017,1,0,0:0:0:0:
448,192,4017,1,0,0:0:0:0:
448,192,4276,1,0,0:0:0:0:
192,192,4534,1,0,0:0:0:0:
64,192,4534,1,0,0:0:0:0:
64,192,4793,1,0,0:0:0:0:
192,192,5052,1,0,0:0:0:0:
320,192,5052,1,0,0:0:0:0:
448,192,5310,1,0,0:0:0:0:
64,192,5569,1,0,0:0:0:0:
192,192,5569,1,0,0:0:0:0:
320,192,5828,1,0,0:0:0:0:
192,192,6086,1,0,0:0:0:0:
448,192,6086,1,0,0:0:0:0:
64,192,6345,1,0,0:0:0:0:
320,192,6603,1,0,0:0:0:0:
448,192,6603,1,0,0:0:0:0:
192,192,6862,1,0,0:0:0:0:
64,192,7121,1,0,0:0:0:0:
320,192,7121,1,0,0:0:0:0:
448,192,7379,1,0,0:0:0:0:
192,192,7638,1,0,0:0:0:0:
64,192,7638,1,0,0:0:0:0:
320,192,7897,1,0,0:0:0:0:
64,192,8155,1,0,0:0:0:0:
192,192,8155,1,0,0:0:0:0:
192,192,8414,1,0,0:0:0:0:
192,192,8672,1,0,0:0:0:0:
448,192,8931,1,0,0:0:0:0:
192,192,9190,1,0,0:0:0:0:
320,192,9190,1,0,0:0:0:0:
64,192,9448,1,0,0:0:0:0:
192,192,9707,1,0,0:0:0:0:
448,192,9707,1,0,0:0:0:0:
64,192,9965,1,0,0:0:0:0:
320,192,10224,1,0,0:0:0:0:
192,192,10224,1,0,0:0:0:0:
64,192,10483,1,0,0:0:0:0:
320,192,10483,1,0,0:0:0:0:
192,192,10741,1,0,0:0:0:0:
448,192,10741,1,0,0:0:0:0:
320,192,11000,1,0,0:0:0:0:
192,192,11259,1,0,0:0:0:0:
64,192,11259,1,0,0:0:0:0:
320,192,11517,1,0,0:0:0:0:
448,192,11776,1,0,0:0:0:0:
320,192,12034,1,0,0:0:0:0:
192,192,12293,1,0,0:0:0:0:
448,192,12293,1,0,0:0:0:0:
64,192,12552,1,0,0:0:0:0:
192,192,12810,1,0,0:0:0:0:
320,192,12810,1,0,0:0:0:0:
64,192,13069,1,0,0:0:0:0:
192,192,13328,1,0,0:0:0:0:
320,192,13328,1,0,0:0:0:0:
320,192,13586,1,0,0:0:0:0:
64,192,13845,1,0,0:0:0:0:
320,192,13845,128,0,14362:0:0:0:0:
448,192,14103,1,0,0:0:0:0:
192,192,14362,128,0,14879:0:0:0:0:
64,192,14879,128,0,15914:0:0:0:0:
192,192,15138,1,0,0:0:0:0:
320,192,15397,1,0,0:0:0:0:
448,192,15397,1,0,0:0:0:0:
192,192,15655,1,0,0:0:0:0:
320,192,15914,128,0,16431:0:0:0:0:
448,192,15914,1,0,0:0:0:0:
192,192,16172,1,0,0:0:0:0:
64,192,16431,1,0,0:0:0:0:
192,192,16690,1,0,0:0:0:0:
64,192,16948,128,0,17465:0:0:0:0:
192,192,16948,1,0,0:0:0:0:
320,192,17207,1,0,0:0:0:0:
448,192,17465,1,0,0:0:0:0:
320,192,23155,5,0,0:0:0:0:
64,192,23155,1,0,0:0:0:0:
448,192,23155,1,0,0:0:0:0:
448,192,24707,1,0,0:0:0:0:
320,192,24707,1,0,0:0:0:0:
64,192,24965,1,0,0:0:0:0:
192,192,24965,1,0,0:0:0:0:
320,192,25224,1,0,0:0:0:0:
192,192,25224,1,0,0:0:0:0:
448,192,25483,1,0,0:0:0:0:
320,192,25741,1,0,0:0:0:0:
448,192,25741,1,0,0:0:0:0:
192,192,26000,1,0,0:0:0:0:
64,192,26259,1,0,0:0:0:0:
320,192,26259,1,0,0:0:0:0:
448,192,26517,1,0,0:0:0:0:
320,192,26776,1,0,0:0:0:0:
192,192,26776,1,0,0:0:0:0:
64,192,27034,1,0,0:0:0:0:
192,192,27293,1,0,0:0:0:0:
448,192,27293,1,0,0:0:0:0:
320,192,27552,1,0,0:0:0:0:
448,192,27810,1,0,0:0:0:0:
320,192,27810,1,0,0:0:0:0:
192,192,28069,1,0,0:0:0:0:
64,192,28328,1,0,0:0:0:0:
192,192,28586,1,0,0:0:0:0:
320,192,28845,1,0,0:0:0:0:
448,192,28845,1,0,0:0:0:0:
192,192,29103,1,0,0:0:0:0:
64,192,29362,1,0,0:0:0:0:
320,192,29362,1,0,0:0:0:0:
448,192,29621,1,0,0:0:0:0:
320,192,29879,1,0,0:0:0:0:
192,192,29879,1,0,0:0:0:0:
448,192,30138,1,0,0:0:0:0:
192,192,30397,1,0,0:0:0:0:
320,192,30397,1,0,0:0:0:0:
64,192,30655,1,0,0:0:0:0:
192,192,30914,1,0,0:0:0:0:
320,192,30914,1,0,0:0:0:0:
448,192,31172,1,0,0:0:0:0:
320,192,31431,128,0,32465:0:0:0:0:
192,192,31948,1,0,0:0:0:0:
64,192,31948,1,0,0:0:0:0:
448,192,32207,1,0,0:0:0:0:
192,192,32465,1,0,0:0:0:0:
448,192,32465,1,0,0:0:0:0:
64,192,32724,1,0,0:0:0:0:
192,192,32983,1,0,0:0:0:0:
320,192,32983,1,0,0:0:0:0:
320,192,33241,1,0,0:0:0:0:
448,192,33241,1,0,0:0:0:0:
448,192,33500,128,0,34017:0:0:0:0:
192,192,33500,1,0,0:0:0:0:
320,192,33759,1,0,0:0:0:0:
192,192,34017,1,0,0:0:0:0:
64,192,34017,1,0,0:0:0:0:
192,192,34276,1,0,0:0:0:0:
320,192,34534,128,0,35052:0:0:0:0:
448,192,34534,1,0,0:0:0:0:
192,192,34793,1,0,0:0:0:0:
64,192,35052,1,0,0:0:0:0:
192,192,35310,1,0,0:0:0:0:
192,192,35569,128,0,36086:0:0:0:0:
320,192,35569,1,0,0:0:0:0:
448,192,35828,1,0,0:0:0:0:
320,192,36086,1,0,0:0:0:0:
192,192,36345,1,0,0:0:0:0:
64,192,36603,128,0,37121:0:0:0:0:
192,192,36603,1,0,0:0:0:0:
320,192,36862,1,0,0:0:0:0:
448,192,37121,1,0,0:0:0:0:
320,192,37121,128,0,37638:0:0:0:0:
192,192,37638,1,0,0:0:0:0:
64,192,37897,1,0,0:0:0:0:
192,192,38155,1,0,0:0:0:0:
448,192,38155,1,0,0:0:0:0:
320,192,38414,1,0,0:0:0:0:
192,192,38672,1,0,0:0:0:0:
64,192,38672,1,0,0:0:0:0:
320,192,38931,1,0,0:0:0:0:
448,192,39190,1,0,0:0:0:0:
320,192,39190,1,0,0:0:0:0:
192,192,39448,1,0,0:0:0:0:
192,192,39707,1,0,0:0:0:0:
64,192,39707,128,0,40741:0:0:0:0:
192,192,41000,1,0,0:0:0:0:
320,192,41259,1,0,0:0:0:0:
448,192,41259,1,0,0:0:0:0:
320,192,41517,1,0,0:0:0:0:
192,192,41517,1,0,0:0:0:0:
64,192,41776,1,0,0:0:0:0:
192,192,41776,1,0,0:0:0:0:
320,192,42034,1,0,0:0:0:0:
448,192,42293,1,0,0:0:0:0:
192,192,42293,1,0,0:0:0:0:
192,192,42552,1,0,0:0:0:0:
64,192,42810,1,0,0:0:0:0:
320,192,42810,1,0,0:0:0:0:
192,192,43069,1,0,0:0:0:0:
320,192,43328,1,0,0:0:0:0:
448,192,43328,1,0,0:0:0:0:
192,192,43586,1,0,0:0:0:0:
64,192,43845,1,0,0:0:0:0:
192,192,43845,1,0,0:0:0:0:
448,192,44103,1,0,0:0:0:0:
64,192,44362,1,0,0:0:0:0:
192,192,44362,1,0,0:0:0:0:
320,192,44621,1,0,0:0:0:0:
320,192,44879,1,0,0:0:0:0:
448,192,45138,1,0,0:0:0:0:
320,192,45397,1,0,0:0:0:0:
192,192,45397,1,0,0:0:0:0:
192,192,45655,1,0,0:0:0:0:
64,192,45914,1,0,0:0:0:0:
320,192,45914,1,0,0:0:0:0:
192,192,46431,1,0,0:0:0:0:
320,192,46431,1,0,0:0:0:0:
320,192,46948,1,0,0:0:0:0:
448,192,46948,1,0,0:0:0:0:
448,192,47207,1,0,0:0:0:0:
192,192,47465,1,0,0:0:0:0:
64,192,47465,1,0,0:0:0:0:
64,192,47724,1,0,0:0:0:0:
320,192,47983,1,0,0:0:0:0:
448,192,47983,128,0,49017:0:0:0:0:
320,192,48500,1,0,0:0:0:0:
192,192,48500,1,0,0:0:0:0:
64,192,48759,1,0,0:0:0:0:
192,192,49017,1,0,0:0:0:0:
320,192,49276,1,0,0:0:0:0:
448,192,49534,1,0,0:0:0:0:
320,192,49534,1,0,0:0:0:0:
320,192,49793,1,0,0:0:0:0:
192,192,49793,1,0,0:0:0:0:
64,192,50052,1,0,0:0:0:0:
320,192,50052,1,0,0:0:0:0:
192,192,50310,1,0,0:0:0:0:
320,192,50569,1,0,0:0:0:0:
448,192,50569,1,0,0:0:0:0:
320,192,50828,1,0,0:0:0:0:
192,192,51086,1,0,0:0:0:0:
64,192,51086,1,0,0:0:0:0:
192,192,51345,1,0,0:0:0:0:
320,192,51603,1,0,0:0:0:0:
64,192,51603,1,0,0:0:0:0:
448,192,51862,1,0,0:0:0:0:
320,192,52121,1,0,0:0:0:0:
192,192,52121,1,0,0:0:0:0:
64,192,52379,1,0,0:0:0:0:
192,192,52638,1,0,0:0:0:0:
448,192,52638,1,0,0:0:0:0:
320,192,52897,1,0,0:0:0:0:
192,192,53155,1,0,0:0:0:0:
64,192,53155,1,0,0:0:0:0:
192,192,53414,1,0,0:0:0:0:
320,192,53672,1,0,0:0:0:0:
64,192,53672,1,0,0:0:0:0:
448,192,53931,1,0,0:0:0:0:
320,192,54190,128,0,56259:0:0:0:0:
192,192,54448,1,0,0:0:0:0:
64,192,54707,1,0,0:0:0:0:
448,192,54707,1,0,0:0:0:0:
192,192,54965,1,0,0:0:0:0:
64,192,55224,1,0,0:0:0:0:
192,192,55224,1,0,0:0:0:0:
448,192,55483,1,0,0:0:0:0:
192,192,55741,1,0,0:0:0:0:
448,192,55741,1,0,0:0:0:0:
64,192,56000,1,0,0:0:0:0:
192,192,56259,1,0,0:0:0:0:
192,192,57810,1,0,0:0:0:0:
320,192,57940,1,0,0:0:0:0:
448,192,58069,1,0,0:0:0:0:
448,192,58328,128,0,58845:0:0:0:0:
320,192,58328,1,0,0:0:0:0:
192,192,58586,1,0,0:0:0:0:
64,192,58845,128,0,59362:0:0:0:0:
192,192,59103,1,0,0:0:0:0:
320,192,59362,1,0,0:0:0:0:
448,192,59362,1,0,0:0:0:0:
192,192,59362,128,0,59879:0:0:0:0:
320,192,59621,1,0,0:0:0:0:
320,192,59879,128,0,60397:0:0:0:0:
64,192,59879,1,0,0:0:0:0:
448,192,60138,1,0,0:0:0:0:
448,192,60397,128,0,61431:0:0:0:0:
64,192,60397,1,0,0:0:0:0:
320,192,60655,1,0,0:0:0:0:
192,192,60914,1,0,0:0:0:0:
320,192,60914,1,0,0:0:0:0:
192,192,61172,1,0,0:0:0:0:
64,192,61431,1,0,0:0:0:0:
320,192,61690,1,0,0:0:0:0:
448,192,61948,1,0,0:0:0:0:
320,192,61948,1,0,0:0:0:0:
192,192,62207,1,0,0:0:0:0:
320,192,62465,1,0,0:0:0:0:
64,192,62465,128,0,62983:0:0:0:0:
448,192,62724,1,0,0:0:0:0:
448,192,62983,128,0,63500:0:0:0:0:
192,192,63241,1,0,0:0:0:0:
64,192,63500,1,0,0:0:0:0:
320,192,63500,128,0,64017:0:0:0:0:
448,192,63759,1,0,0:0:0:0:
192,192,64017,128,0,64534:0:0:0:0:
64,192,64017,1,0,0:0:0:0:
320,192,64276,1,0,0:0:0:0:
64,192,64534,128,0,65569:0:0:0:0:
320,192,64534,1,0,0:0:0:0:
192,192,64793,1,0,0:0:0:0:
320,192,65052,1,0,0:0:0:0:
448,192,65052,1,0,0:0:0:0:
192,192,65310,1,0,0:0:0:0:
320,192,65569,1,0,0:0:0:0:
320,192,66086,1,0,0:0:0:0:
448,192,66086,1,0,0:0:0:0:
192,192,66345,1,0,0:0:0:0:
320,192,66345,1,0,0:0:0:0:
64,192,66603,1,0,0:0:0:0:
192,192,66603,1,0,0:0:0:0:
320,192,66862,1,0,0:0:0:0:
320,192,67121,1,0,0:0:0:0:
448,192,67121,1,0,0:0:0:0:
192,192,67379,1,0,0:0:0:0:
64,192,67638,1,0,0:0:0:0:
192,192,67638,1,0,0:0:0:0:
320,192,67897,1,0,0:0:0:0:
192,192,68155,1,0,0:0:0:0:
64,192,68155,128,0,68672:0:0:0:0:
192,192,68672,128,0,69190:0:0:0:0:
320,192,68672,1,0,0:0:0:0:
448,192,68931,128,0,69190:0:0:0:0:
64,192,69190,1,0,0:0:0:0:
192,192,69448,1,0,0:0:0:0:
320,192,69707,128,0,70224:0:0:0:0:
64,192,69707,1,0,0:0:0:0:
64,192,69965,128,0,70224:0:0:0:0:
448,192,70224,1,0,0:0:0:0:
320,192,70741,1,0,0:0:0:0:
192,192,70741,1,0,0:0:0:0:
64,192,71000,1,0,0:0:0:0:
320,192,71259,1,0,0:0:0:0:
448,192,71259,1,0,0:0:0:0:
448,192,71517,1,0,0:0:0:0:
320,192,71776,1,0,0:0:0:0:
192,192,72034,1,0,0:0:0:0:
64,192,72293,1,0,0:0:0:0:
192,192,72552,1,0,0:0:0:0:
320,192,72810,1,0,0:0:0:0:
448,192,72940,1,0,0:0:0:0:
320,192,73069,1,0,0:0:0:0:
192,192,73198,1,0,0:0:0:0:
64,192,73328,1,0,0:0:0:0:
192,192,73457,1,0,0:0:0:0:
320,192,73586,1,0,0:0:0:0:
448,192,73715,1,0,0:0:0:0:
320,192,73845,1,0,0:0:0:0:
192,192,73974,1,0,0:0:0:0:
64,192,74103,128,0,74879:0:0:0:0:
320,192,74362,128,0,74879:0:0:0:0:
192,192,74621,128,0,74879:0:0:0:0:
320,192,75914,1,0,0:0:0:0:
448,192,75914,1,0,0:0:0:0:
192,192,76172,1,0,0:0:0:0:
64,192,76172,1,0,0:0:0:0:
320,192,76431,1,0,0:0:0:0:
192,192,76690,1,0,0:0:0:0:
64,192,76948,1,0,0:0:0:0:
320,192,76948,1,0,0:0:0:0:
448,192,77207,1,0,0:0:0:0:
320,192,77465,1,0,0:0:0:0:
192,192,77465,1,0,0:0:0:0:
64,192,77724,1,0,0:0:0:0:
320,192,77983,1,0,0:0:0:0:
64,192,77983,1,0,0:0:0:0:
192,192,78241,1,0,0:0:0:0:
320,192,78500,1,0,0:0:0:0:
448,192,78500,1,0,0:0:0:0:
64,192,78759,1,0,0:0:0:0:
192,192,79017,1,0,0:0:0:0:
448,192,79017,1,0,0:0:0:0:
192,192,79276,1,0,0:0:0:0:
64,192,79534,128,0,80052:0:0:0:0:
192,192,79534,1,0,0:0:0:0:
320,192,79793,1,0,0:0:0:0:
320,192,80052,1,0,0:0:0:0:
448,192,80052,1,0,0:0:0:0:
192,192,80310,1,0,0:0:0:0:
64,192,80569,1,0,0:0:0:0:
448,192,80569,1,0,0:0:0:0:
192,192,80828,1,0,0:0:0:0:
320,192,81086,128,0,81603:0:0:0:0:
448,192,81345,1,0,0:0:0:0:
192,192,81603,128,0,82121:0:0:0:0:
64,192,81603,1,0,0:0:0:0:
320,192,81862,1,0,0:0:0:0:
64,192,82121,128,0,82638:0:0:0:0:
448,192,82121,1,0,0:0:0:0:
320,192,82379,1,0,0:0:0:0:
448,192,82638,128,0,83155:0:0:0:0:
192,192,82638,1,0,0:0:0:0:
320,192,82897,1,0,0:0:0:0:
192,192,83155,128,0,84190:0:0:0:0:
64,192,83155,1,0,0:0:0:0:
320,192,83414,1,0,0:0:0:0:
448,192,83672,1,0,0:0:0:0:
320,192,83931,1,0,0:0:0:0:
448,192,84190,1,0,0:0:0:0:
320,192,84448,1,0,0:0:0:0:
192,192,84707,1,0,0:0:0:0:
448,192,84707,1,0,0:0:0:0:
64,192,84965,1,0,0:0:0:0:
192,192,85224,1,0,0:0:0:0:
320,192,85224,1,0,0:0:0:0:
64,192,85483,1,0,0:0:0:0:
192,192,85741,1,0,0:0:0:0:
448,192,85741,1,0,0:0:0:0:
320,192,86000,1,0,0:0:0:0:
192,192,86259,1,0,0:0:0:0:
64,192,86259,1,0,0:0:0:0:
192,192,86517,1,0,0:0:0:0:
320,192,86776,1,0,0:0:0:0:
448,192,86776,1,0,0:0:0:0:
192,192,87034,1,0,0:0:0:0:
64,192,87293,1,0,0:0:0:0:
320,192,87293,1,0,0:0:0:0:
448,192,87552,1,0,0:0:0:0:
64,192,87810,1,0,0:0:0:0:
320,192,87810,1,0,0:0:0:0:
192,192,88069,1,0,0:0:0:0:
320,192,88069,1,0,0:0:0:0:
320,192,88328,1,0,0:0:0:0:
448,192,88328,1,0,0:0:0:0:
192,192,88586,1,0,0:0:0:0:
64,192,88845,1,0,0:0:0:0:
320,192,88845,1,0,0:0:0:0:
192,192,89103,1,0,0:0:0:0:
320,192,89362,1,0,0:0:0:0:
448,192,89362,1,0,0:0:0:0:
192,192,89621,1,0,0:0:0:0:
64,192,89879,1,0,0:0:0:0:
320,192,89879,1,0,0:0:0:0:
64,192,90138,1,0,0:0:0:0:
320,192,90397,1,0,0:0:0:0:
448,192,90397,1,0,0:0:0:0:
192,192,90655,1,0,0:0:0:0:
64,192,90914,1,0,0:0:0:0:
320,192,90914,1,0,0:0:0:0:
320,192,91172,1,0,0:0:0:0:
320,192,91431,1,0,0:0:0:0:
448,192,91431,128,0,92465:0:0:0:0:
448,192,92724,1,0,0:0:0:0:
320,192,92983,1,0,0:0:0:0:
192,192,92983,1,0,0:0:0:0:
192,192,93241,1,0,0:0:0:0:
64,192,93241,1,0,0:0:0:0:
192,192,93500,1,0,0:0:0:0:
320,192,93500,1,0,0:0:0:0:
448,192,93759,1,0,0:0:0:0:
320,192,94017,1,0,0:0:0:0:
64,192,94017,1,0,0:0:0:0:
192,192,94276,1,0,0:0:0:0:
320,192,94534,1,0,0:0:0:0:
448,192,94534,1,0,0:0:0:0:
192,192,94793,1,0,0:0:0:0:
64,192,95052,1,0,0:0:0:0:
192,192,95052,1,0,0:0:0:0:
320,192,95310,1,0,0:0:0:0:
320,192,95569,1,0,0:0:0:0:
192,192,95569,128,0,96086:0:0:0:0:
448,192,95828,1,0,0:0:0:0:
320,192,96086,128,0,96603:0:0:0:0:
448,192,96345,1,0,0:0:0:0:
192,192,96603,1,0,0:0:0:0:
64,192,96603,1,0,0:0:0:0:
320,192,96862,1,0,0:0:0:0:
192,192,97121,1,0,0:0:0:0:
320,192,97121,1,0,0:0:0:0:
448,192,97379,1,0,0:0:0:0:
320,192,97638,1,0,0:0:0:0:
64,192,97638,1,0,0:0:0:0:
192,192,97897,1,0,0:0:0:0:
320,192,98155,1,0,0:0:0:0:
448,192,98155,1,0,0:0:0:0:
192,192,98414,1,0,0:0:0:0:
64,192,98672,1,0,0:0:0:0:
192,192,98672,128,0,99190:0:0:0:0:
320,192,98931,1,0,0:0:0:0:
320,192,99190,128,0,99707:0:0:0:0:
64,192,99190,1,0,0:0:0:0:
192,192,99448,1,0,0:0:0:0:
448,192,99707,128,0,100741:0:0:0:0:
64,192,99707,1,0,0:0:0:0:
192,192,99965,1,0,0:0:0:0:
320,192,100224,1,0,0:0:0:0:
192,192,100224,1,0,0:0:0:0:
64,192,100483,1,0,0:0:0:0:
192,192,100741,1,0,0:0:0:0:
320,192,101000,1,0,0:0:0:0:
448,192,101259,1,0,0:0:0:0:
192,192,101259,1,0,0:0:0:0:
192,192,101776,1,0,0:0:0:0:
320,192,101776,1,0,0:0:0:0:
448,192,102034,1,0,0:0:0:0:
320,192,102293,1,0,0:0:0:0:
64,192,102293,1,0,0:0:0:0:
192,192,102552,1,0,0:0:0:0:
320,192,102810,1,0,0:0:0:0:
448,192,102810,1,0,0:0:0:0:
192,192,103069,1,0,0:0:0:0:
320,192,103328,1,0,0:0:0:0:
448,192,103328,1,0,0:0:0:0:
192,192,103586,1,0,0:0:0:0:
192,192,103845,1,0,0:0:0:0:
64,192,103845,1,0,0:0:0:0:
320,192,104103,1,0,0:0:0:0:
192,192,104362,1,0,0:0:0:0:
320,192,104362,1,0,0:0:0:0:
64,192,104621,1,0,0:0:0:0:
192,192,105397,1,0,0:0:0:0:
320,192,105655,1,0,0:0:0:0:
192,192,105914,1,0,0:0:0:0:
320,192,105914,1,0,0:0:0:0:
448,192,106172,1,0,0:0:0:0:
320,192,106431,1,0,0:0:0:0:
64,192,106431,1,0,0:0:0:0:
192,192,106690,1,0,0:0:0:0:
320,192,106948,1,0,0:0:0:0:
448,192,106948,128,0,107465:0:0:0:0:
320,192,107465,128,0,107983:0:0:0:0:
192,192,107983,1,0,0:0:0:0:
320,192,109017,1,0,0:0:0:0:
192,192,109276,1,0,0:0:0:0:
64,192,109534,1,0,0:0:0:0:
192,192,109664,1,0,0:0:0:0:
320,192,109793,1,0,0:0:0:0:
320,192,110052,1,4,0:0:0:0:
192,192,110052,1,4,0:0:0:0:
448,192,110052,1,4,0:0:0:0:
