osu file format v5

[General]
AudioFilename: 15 Snake Dance.mp3
AudioLeadIn: 0
PreviewTime: -1
Countdown: 1
SampleSet: Soft
StackLeniency: 0.7
Mode: 0
LetterboxInBreaks: 1

[Metadata]
Title:Snake Dance
Artist:Jay Chou
Creator:KyeoulNabi
Version:Hard
Source:
Tags:

[Difficulty]
HPDrainRate:7
CircleSize:5
OverallDifficulty:5
SliderMultiplier:1.3
SliderTickRate:2

[Events]
//Background and Video events
0,0,"jay_chou_070012.jpg"
//Break Periods
2,70880,74343
2,148546,151176
//Storyboard Layer 0 (Background)
//Storyboard Layer 1 (Failing)
//Storyboard Layer 2 (Passing)
//Storyboard Layer 3 (Foreground)
//Storyboard Sound Samples
//Background Colour Transformations
3,100,163,162,255

[TimingPoints]
1349.91194696337,555.755555555556,4,2,0,51,1,0

[Colours]
Combo1 : 231,41,226
Combo2 : 5,240,5
Combo3 : 96,244,241
Combo4 : 0,0,0

[HitObjects]
256,192,1349,12,0,3572
256,48,4545,6,0,B|152:144,1,130
256,48,5795,2,0,B|352:144,1,130
256,176,6907,5,0
256,176,7324,1,0
256,176,7741,1,0
256,176,8018,1,0
32,32,9130,5,0
16,352,10242,1,0
488,16,11353,1,0
488,360,12465,1,0
256,192,13576,5,0
256,192,13993,1,0
80,80,14688,1,0
416,88,15104,1,0
112,304,15799,1,0
424,312,16216,1,0
240,104,18022,5,0
248,280,18439,1,0
144,192,18856,1,0
352,208,19134,1,0
248,80,20245,5,0
256,224,20662,1,0
120,184,21079,1,0
360,200,21357,1,0
264,344,22468,5,0
256,104,22885,1,0
160,192,23302,1,0
376,224,23580,1,0
40,72,24691,5,0
416,128,25108,1,0
272,288,25525,1,0
264,160,25803,1,0
112,168,26636,5,0
176,136,26914,1,0
224,128,27192,1,0
288,128,27470,1,0
320,192,27748,1,0
288,240,28026,1,0
224,208,28442,1,0
88,264,29137,5,0
144,320,29415,1,0
232,336,29693,1,0
296,328,29971,1,0
320,256,30249,1,0
248,208,30666,1,0
152,64,31360,5,0
352,72,31916,1,0
352,280,32472,1,0
184,264,32889,1,0
192,144,33305,1,0
336,152,33583,1,0
264,192,34139,5,0
264,104,34695,1,0
248,304,35112,1,0
248,200,35528,1,0
248,200,35806,1,0
96,176,36779,5,0
360,208,37196,1,0
264,200,37751,1,0
264,200,38029,1,0
144,88,39002,5,0
128,272,39558,1,0
280,288,39835,1,0
352,272,40113,1,0
176,120,41364,5,0
360,112,41781,1,0
376,304,42197,1,0
248,304,42475,1,0
168,264,42614,1,0
176,192,42892,1,0
264,168,43170,1,0
336,200,43448,1,0
312,256,43726,1,0
264,240,44143,1,0
176,80,44698,5,0
320,88,45115,1,0
168,224,45393,1,0
280,240,45671,1,0
352,232,46227,1,0
344,168,46505,1,0
288,128,46782,1,0
192,120,47338,1,0
72,96,48033,5,0
72,272,48450,1,0
136,120,48867,1,0
248,96,49005,1,0
360,128,49561,1,0
392,272,49978,1,0
216,304,50256,1,0
112,208,50673,1,0
256,152,51090,5,0
208,88,51367,1,0
352,88,51923,1,0
344,272,52340,1,0
200,264,52618,1,0
176,104,53313,5,0
272,104,53451,1,0
184,200,54146,1,0
320,216,54563,1,0
352,272,54980,1,0
328,288,55119,1,0
256,288,55536,1,0
176,264,55813,1,0
128,200,56091,1,0
128,128,56369,1,0
248,96,56647,1,0
304,152,56786,1,0
232,184,57342,1,0
120,64,58036,5,0
384,96,58453,1,0
416,288,59009,1,0
200,280,59287,1,0
120,216,59565,1,0
160,96,59843,1,0
328,136,60260,1,0
232,176,60537,1,0
312,232,60815,1,0
224,280,61093,1,0
344,328,61371,1,0
72,96,62483,5,0
368,128,63038,1,0
320,280,63594,1,0
128,272,64011,1,0
136,152,64428,1,0
264,152,64706,1,0
312,216,64983,1,0
240,256,65261,1,0
200,224,65400,1,0
200,192,65817,1,0
256,200,66234,1,0
136,64,66929,5,0
96,312,67484,1,0
392,56,67901,1,0
392,312,68457,1,0
168,160,69152,1,0
384,176,69707,1,0
264,192,70124,5,0
264,192,70402,1,0
264,192,70680,1,0
104,48,75543,6,0,B|104:288,2,227.5
416,64,80267,2,0,B|104:320,3,390
256,192,86658,1,0
256,192,86936,1,0
256,192,90131,12,0,91660
248,192,92354,5,0
248,192,92910,1,0
248,192,93466,1,0
248,192,93744,1,0
88,96,94577,5,0
320,112,95133,1,0
320,248,95689,1,0
288,248,95967,1,0
256,248,96245,1,0
224,248,96523,1,0
176,248,96800,1,0
128,120,97912,5,0
328,136,98329,1,0
248,184,98746,1,0
248,184,99023,1,0
88,288,100135,5,0
376,304,100552,1,0
408,96,100969,1,0
208,64,101246,1,0
80,136,102358,5,0
440,144,102775,1,0
408,280,103192,1,0
128,264,103469,1,0
240,184,104720,5,0
400,160,104859,1,0
264,72,105137,1,0
112,80,105693,1,0
48,160,106109,1,0
112,304,106526,1,0
304,336,106804,1,0
408,200,106943,1,0
232,184,107916,5,0
360,112,108332,1,0
216,96,108749,1,0
80,120,109027,1,0
376,144,110139,5,0
344,264,110555,1,0
184,280,110972,1,0
88,184,111250,1,0
168,80,111667,1,0
256,200,112362,1,0
264,88,112778,1,0
392,184,113473,5,0
120,184,114029,1,0
256,88,114585,1,0
256,312,115140,1,0
264,184,116530,5,0
264,184,116808,1,0
264,184,117363,1,0
256,40,118058,1,0
248,296,118336,1,0
48,176,119031,5,0
400,192,119586,1,0
264,72,120142,1,0
248,312,120420,1,0
104,128,120698,1,0
328,296,121948,5,0
384,136,122504,1,0
104,264,123060,1,0
256,192,125005,5,0
72,152,125700,2,0,B|72:264|72:288|72:272,1,97.5
384,136,126811,2,0,B|384:224|384:128|384:264|384:264,1,97.5
112,120,127923,5,0
344,112,128201,1,0
344,280,128756,1,0
192,280,129312,1,0
192,152,130146,5,0
304,160,130563,1,0
272,304,131396,1,0
264,64,131674,1,0
112,168,132508,5,0
352,176,132925,1,0
248,224,133619,1,0
248,224,133758,1,0
248,224,134036,1,0
248,224,134314,1,0
248,224,134592,1,0
256,192,136815,12,0,140149
128,96,141122,6,0,B|304:96|248:208|248:312|112:224|56:248|88:128|88:120,1,422.5
87,120,142928,2,0,B|440:336|456:352|16:344|24:336,1,617.5
72,328,146541,2,0,B|416:336,1,325
396,335,147930,2,0,B|392:216,1,97.5
184,104,152376,5,0
296,104,152932,1,0
184,224,153487,1,0
240,232,153765,1,0
296,240,154043,1,0
200,128,154599,5,0
208,320,155294,1,0
368,112,155849,1,0
368,312,156405,1,0
120,136,156822,5,0
384,128,157517,1,0
360,280,157934,1,0
176,296,158489,1,0
152,136,159045,5,0
152,136,159323,1,0
216,136,159601,1,0
248,136,159879,1,0
296,136,160157,1,0
336,136,160434,1,0
360,168,160712,1,0
152,184,161268,5,0
376,192,161963,1,0
256,312,162380,1,0
256,224,162796,1,0
248,168,163213,1,0
240,128,163491,1,0
88,160,164603,5,0
336,168,165158,1,0
248,288,165714,1,0
264,56,166409,1,0
472,344,166826,1,0
64,80,167381,1,0
72,296,168076,1,0
376,96,168632,1,0
264,200,169327,5,0
264,200,169604,1,0
264,200,169882,1,0
264,200,170160,1,0
