osu file format v14

[General]
AudioFilename: qinghuaciv.mp3
AudioLeadIn: 0
PreviewTime: 110497
Countdown: 0
SampleSet: Soft
StackLeniency: 0.7
Mode: 0
LetterboxInBreaks: 0
WidescreenStoryboard: 0

[Editor]
Bookmarks: 4668,22446,40223,58001,75779,93557,111335,129112,146890,164668,182446,200223,218001
DistanceSpacing: 1.4
BeatDivisor: 8
GridSize: 4
TimelineZoom: 1.3

[Metadata]
Title:Qing Hua Ci
TitleUnicode:青花瓷
Artist:Jay Chou
ArtistUnicode:周杰倫
Creator:liangv587
Version:Hard
Source:
Tags:我很忙 on the run 周杰伦 zhou jie lun blue and white porcelain
BeatmapID:578495
BeatmapSetID:251913

[Difficulty]
HPDrainRate:5.5
CircleSize:4
OverallDifficulty:6.5
ApproachRate:7
SliderMultiplier:1.6
SliderTickRate:2

[Events]
//Background and Video events
0,0,"bg.jpg",0,0
//Break Periods
2,93696,101681
//Storyboard Layer 0 (Background)
//Storyboard Layer 1 (Fail)
//Storyboard Layer 2 (Pass)
//Storyboard Layer 3 (Foreground)
//Storyboard Sound Samples

[TimingPoints]
359,555.555555555556,4,2,1,30,1,0
22789,-100,4,2,1,10,0,0
23067,-100,4,2,1,30,0,0
23900,-100,4,2,1,10,0,0
24178,-100,4,2,1,30,0,0
27234,-100,4,2,1,10,0,0
27511,-100,4,2,1,30,0,0
31678,-100,4,2,1,10,0,0
31956,-100,4,2,1,30,0,0
37234,-100,4,2,1,10,0,0
37511,-100,4,2,1,30,0,0
41678,-100,4,2,1,10,0,0
41956,-100,4,2,1,30,0,0
52789,-100,4,2,1,10,0,0
53067,-100,4,2,1,30,0,0
57234,-100,4,2,1,40,0,0
58067,-100,4,2,1,50,0,0
102789,-100,4,2,1,30,0,0
103067,-100,4,2,1,50,0,0
103345,-100,4,2,1,30,0,0
103622,-100,4,2,1,50,0,0
103900,-100,4,2,1,30,0,0
104178,-100,4,2,1,50,0,0
104456,-100,4,2,1,30,0,0
104734,-100,4,2,1,50,0,0
105011,-100,4,2,1,30,0,0
105289,-100,4,2,1,50,0,0
105567,-100,4,2,1,30,0,0
105845,-100,4,2,1,50,0,0
106122,-100,4,2,1,30,0,0
106400,-100,4,2,1,50,0,0
106678,-100,4,2,1,30,0,0
106956,-100,4,2,1,50,0,0
111400,-100,4,2,1,40,0,0
111678,-100,4,2,1,20,0,0
111956,-100,4,2,1,40,0,0
112789,-100,4,2,1,20,0,0
113067,-100,4,2,1,40,0,0
116122,-100,4,2,1,20,0,0
116400,-100,4,2,1,40,0,0
120567,-100,4,2,1,20,0,0
120845,-100,4,2,1,40,0,0
121678,-100,4,2,1,20,0,0
121956,-100,4,2,1,40,0,0
126122,-100,4,2,1,20,0,0
126400,-100,4,2,1,40,0,0
130567,-100,4,2,1,20,0,0
130845,-100,4,2,1,40,0,0
141678,-100,4,2,1,30,0,0
141956,-100,4,2,1,40,0,0
146122,-100,4,2,1,50,0,0
178622,-100,4,2,1,40,0,0
182581,-80,4,2,1,55,0,1
213831,-100,4,2,1,20,0,1
214109,-100,4,2,1,30,0,1
216053,-100,4,2,1,20,0,1
218136,-100,4,2,1,30,0,0

[Colours]
Combo1 : 134,162,187
Combo2 : 192,192,192
Combo3 : 38,62,87

[HitObjects]
370,99,21747,6,0,L|448:58,2,80,0|8|2,3:0|0:0|0:0,0:0:0:0:
434,170,22581,6,0,P|444:220|432:258,1,80,2|0,0:0|0:0,0:0:0:0:
363,309,23136,2,0,L|284:304,1,80,0|2,0:0|0:0,0:0:0:0:
206,211,23692,2,0,L|292:218,1,80,2|0,0:1|0:0,0:0:0:0:
365,163,24247,2,0,P|374:130|367:78,1,80,2|0,0:0|0:0,0:0:0:0:
303,14,24803,5,2,0:0:0:0:
212,44,25081,1,0,0:0:0:0:
224,140,25359,2,0,L|144:134,2,80,0|2|4,0:0|0:0|0:1,0:0:0:0:
244,233,26192,2,0,L|158:226,1,80,0|2,0:0|0:0,0:0:0:0:
116,309,26747,1,0,0:0:0:0:
187,372,27025,6,0,P|237:359|262:330,1,80,2|0,0:0|0:0,0:0:0:0:
322,269,27581,2,0,P|339:309|366:343,1,80,0|2,0:0|0:0,0:0:0:0:
457,353,28136,1,2,0:1:0:0:
457,353,28692,2,0,P|440:313|413:279,1,80,2|0,0:0|0:0,0:0:0:0:
322,269,29247,5,2,0:0:0:0:
347,176,29525,1,0,0:0:0:0:
244,213,29803,2,0,P|237:171|214:130,2,80,0|2|4,0:0|0:0|0:1,0:0:0:0:
187,290,30636,1,0,0:0:0:0:
187,290,30914,1,2,0:0:0:0:
123,218,31192,1,0,0:0:0:0:
121,121,31470,6,0,P|140:76|173:51,1,80,2|0,0:0|0:0,0:0:0:0:
259,60,32025,2,0,P|303:56|346:44,2,80,0|2|2,0:0|0:0|0:1,0:0:0:0:
51,68,33136,2,0,P|35:109|39:153,1,80,2|0,0:0|0:0,0:0:0:0:
70,234,33692,5,2,0:0:0:0:
159,268,33970,2,0,P|107:322|21:316,1,160,0|2,0:0|0:0,0:0:0:0:
139,176,34803,1,4,0:1:0:0:
233,158,35081,2,0,P|272:163|309:187,2,80,0|2|0,0:0|0:0|0:0,0:0:0:0:
241,253,35914,6,0,P|236:294|214:338,1,80,2|0,0:0|0:0,0:0:0:0:
303,377,36470,2,0,P|308:336|330:292,1,80,0|2,0:0|0:0,0:0:0:0:
443,251,37025,2,0,P|396:246|363:223,1,80,2|0,0:1|0:0,0:0:0:0:
325,142,37581,1,2,0:0:0:0:
406,75,37859,2,0,P|426:112|429:151,2,80,0|2|0,0:0|0:0|0:0,0:0:0:0:
312,52,38692,6,0,P|247:104|169:111,1,160,2|4,0:0|0:1,0:0:0:0:
77,101,39525,2,0,L|61:195,2,80,0|8|2,3:0|0:0|0:0,0:0:0:0:
130,27,40359,5,2,3:2:0:0:
130,27,40636,1,0,0:0:0:0:
173,112,40914,2,0,L|160:195,1,80,0|2,0:0|0:0,0:0:0:0:
87,292,41470,2,0,P|133:277|176:274,1,80,2|0,0:1|0:0,0:0:0:0:
261,282,42025,2,0,L|269:365,1,80,2|0,0:0|0:0,0:0:0:0:
352,314,42581,5,2,0:0:0:0:
427,373,42859,1,0,0:0:0:0:
438,278,43136,2,0,P|485:262|518:238,2,80,0|2|4,0:0|0:0|0:1,0:0:0:0:
362,218,43970,2,0,P|356:182|361:138,1,80,0|2,0:0|0:0,0:0:0:0:
414,59,44525,1,0,0:0:0:0:
442,150,44803,6,0,P|361:138|280:119,1,160,2|0,0:0|0:0,0:0:0:0:
199,77,45636,1,2,0:0:0:0:
50,144,45914,2,0,P|131:156|212:175,1,160,2|2,0:1|0:0,0:0:0:0:
293,217,46747,1,0,0:0:0:0:
213,270,47025,5,2,0:0:0:0:
126,229,47303,1,0,0:0:0:0:
46,282,47581,2,0,P|32:321|27:362,2,80,0|2|4,0:0|0:0|0:1,0:0:0:0:
26,163,48414,2,0,P|40:124|45:83,2,80,0|2|0,0:0|0:0|0:0,0:0:0:0:
121,154,49247,5,2,0:0:0:0:
216,167,49525,1,0,0:0:0:0:
294,221,49803,2,0,P|293:263|284:305,1,80,0|2,0:0|0:0,0:0:0:0:
202,349,50359,1,2,0:1:0:0:
393,352,50914,2,0,P|403:312|408:263,1,80,2|0,0:0|0:0,0:0:0:0:
367,185,51470,5,2,0:0:0:0:
425,109,51747,1,0,0:0:0:0:
361,37,52025,2,0,P|317:52|279:55,1,80,0|2,0:0|0:0,0:0:0:0:
133,103,52581,2,0,P|178:101|214:107,1,80,4|0,0:1|0:0,0:0:0:0:
256,192,53136,1,2,0:0:0:0:
256,192,53414,1,4,0:0:0:0:
256,192,53692,12,2,55914,0:0:0:0:
153,285,57303,6,0,P|116:295|75:299,2,80,0|8|2,3:0|0:0|0:0,0:0:0:0:
206,205,58136,5,0,1:0:0:0:
179,112,58414,1,2,0:0:0:0:
90,73,58692,2,0,P|83:114|93:156,1,80,0|0,0:0|0:0,0:0:0:0:
119,243,59247,1,2,0:1:0:0:
206,205,59525,1,8,3:1:0:0:
233,296,59803,1,0,0:0:0:0:
320,256,60081,1,2,3:0:0:0:
346,347,60359,6,0,P|385:371|426:374,2,80,0|2|0,1:0|0:0|0:0,0:0:0:0:
413,279,61192,2,0,P|425:231|421:191,1,80,2|4,0:0|0:1,0:0:0:0:
342,148,61747,2,0,P|329:195|334:236,1,80,0|8,3:0|0:0,0:0:0:0:
406,75,62303,1,0,0:0:0:0:
254,103,62581,5,0,1:0:0:0:
207,205,62859,1,2,0:0:0:0:
190,315,63136,2,0,P|151:332|99:336,1,80,0|0,0:0|0:0,0:0:0:0:
9,295,63692,1,2,0:1:0:0:
25,184,63970,1,8,3:1:0:0:
136,196,64247,1,0,1:0:0:0:
151,85,64525,1,2,3:0:0:0:
263,96,64803,6,0,P|338:142|361:214,1,160,0|0,1:0|0:0,0:0:0:0:
307,314,65636,1,2,0:0:0:0:
469,205,65914,1,4,0:1:0:0:
428,100,66192,2,0,P|429:58|436:20,2,80,0|8|2,3:0|0:0|0:0,0:0:0:0:
361,207,67025,5,0,1:0:0:0:
247,208,67303,1,2,0:0:0:0:
174,293,67581,2,0,P|210:315|251:320,1,80,0|2,0:0|0:0,0:0:0:0:
149,189,68136,1,2,0:1:0:0:
138,75,68414,2,0,P|108:46|61:28,1,80,8|0,3:1|1:0,0:0:0:0:
47,140,68970,1,2,3:0:0:0:
149,189,69247,6,0,P|86:250|11:247,1,160,0|0,1:0|0:0,0:0:0:0:
47,140,70081,1,2,0:0:0:0:
241,140,70359,1,4,0:1:0:0:
233,251,70636,2,0,P|209:286|177:315,2,80,0|8|2,3:0|0:0|0:0,0:0:0:0:
241,140,71470,5,0,1:0:0:0:
224,29,71747,1,2,0:0:0:0:
310,100,72025,1,0,0:0:0:0:
418,127,72303,2,0,P|447:102|463:58,1,80,2|2,0:0|0:1,0:0:0:0:
355,37,72859,2,0,P|326:62|310:106,1,80,8|0,3:1|0:0,0:0:0:0:
417,230,73414,2,0,L|341:203,1,80,2|0,1:3|1:0,0:0:0:0:
239,250,73970,5,2,0:0:0:0:
229,361,74247,1,0,1:0:0:0:
322,296,74525,2,0,L|319:335,2,40,2|0|4,0:0|0:0|0:1,0:0:0:0:
157,299,75081,2,0,L|74:311,2,80,0|8|2,3:0|0:0|0:0,0:0:0:0:
183,189,75914,5,0,1:0:0:0:
115,99,76192,1,2,0:0:0:0:
9,199,76470,2,0,P|47:210|87:210,1,80
115,99,77025,1,2,0:1:0:0:
88,210,77303,1,8,3:1:0:0:
157,299,77581,1,0,1:0:0:0:
267,319,77859,1,2,3:0:0:0:
359,256,78136,6,0,L|445:243,2,80,0|2|0,1:0|0:0|0:0,0:0:0:0:
261,199,78970,2,0,L|250:245,2,40,2|0|4,0:0|0:0|0:1,0:0:0:0:
361,148,79525,2,0,P|361:113|352:58,1,80,0|8,3:0|0:0,0:0:0:0:
249,28,80081,1,2,1:2:0:0:
183,119,80359,5,0,1:0:0:0:
261,199,80636,1,2,0:0:0:0:
249,28,80914,2,0,L|164:32,1,80
75,94,81470,1,2,0:1:0:0:
183,119,81747,1,8,3:1:0:0:
261,199,82025,1,0,1:0:0:0:
255,310,82303,1,2,3:0:0:0:
348,375,82581,6,0,P|427:355|471:293,1,160,0|0,1:0|0:0,0:0:0:0:
440,183,83414,1,2,0:0:0:0:
359,260,83692,1,4,0:1:0:0:
261,199,83970,2,0,L|169:196,2,80,0|8|2,3:0|0:0|1:2,0:0:0:0:
255,310,84803,5,0,1:0:0:0:
142,348,85081,1,2,0:0:0:0:
86,240,85359,2,0,L|-8:237,1,80,0|2,3:0|0:0,0:0:0:0:
102,128,85914,2,0,L|17:125,1,80,2|8,0:1|3:1,0:0:0:0:
51,16,86470,1,0,1:0:0:0:
162,21,86747,1,2,3:0:0:0:
209,122,87025,6,0,P|170:211|116:234,1,160,0|0,1:0|0:0,0:0:0:0:
18,179,87859,1,2,0:0:0:0:
19,290,88136,2,0,P|45:321|82:341,1,80,4|0,0:1|3:0,0:0:0:0:
191,339,88692,1,8,0:0:0:0:
196,227,88970,2,0,P|156:228|116:233,2,80,2|0|4,0:0|1:0|0:0,0:0:0:0:
256,192,89803,12,4,92581,0:1:0:0:
190,281,102581,6,0,P|194:326|187:370,1,80,2|0,1:2|0:0,0:0:0:0:
102,321,103136,2,0,P|56:325|13:318,1,80,2|0,0:0|0:0,0:0:0:0:
64,233,103692,2,0,P|59:187|67:144,1,80,2|0,0:1|0:0,0:0:0:0:
152,193,104247,2,0,P|197:188|241:196,1,80,2|0,0:0|0:0,0:0:0:0:
318,232,104803,6,0,P|324:191|315:144,1,80,0|0,1:0|0:0,0:0:0:0:
193,27,105359,2,0,P|187:68|196:115,1,80,2|0,0:0|0:0,0:0:0:0:
360,66,105914,2,0,P|319:60|272:69,1,80,4|0,0:1|0:0,0:0:0:0:
153,193,106470,2,0,P|194:199|241:190,1,80,8|0,0:0|0:0,0:0:0:0:
281,65,107025,5,0,1:0:0:0:
256,192,107303,12,4,109247,0:0:0:0:
145,242,110636,6,0,L|66:266,2,80,0|8|2,3:0|0:0|0:0,0:0:0:0:
176,151,111470,6,0,P|176:104|164:67,1,80,0|0,1:2|0:0,0:0:0:0:
252,29,112025,2,0,L|338:36,1,80,0|2,0:0|0:0,0:0:0:0:
415,125,112581,2,0,L|333:117,1,80,2|0,0:1|0:0,0:0:0:0:
249,159,113136,2,0,P|244:200|256:247,1,80,0|2,1:0|0:0,0:0:0:0:
330,293,113692,5,0,1:0:0:0:
343,198,113970,1,2,0:0:0:0:
436,216,114247,2,0,P|459:254|465:295,2,80,0|0|4,0:0|0:0|0:1,0:0:0:0:
330,293,115081,2,0,P|294:308|252:321,1,80,0|0,3:0|0:0,0:0:0:0:
160,304,115636,1,2,0:0:0:0:
76,352,115914,6,0,P|70:303|51:266,1,80,0|0,1:0|0:0,0:0:0:0:
12,190,116470,2,0,L|97:181,1,80,0|2,0:0|0:0,0:0:0:0:
183,211,117025,1,2,0:1:0:0:
183,211,117581,2,0,L|270:201,1,80,0|2,1:0|0:0,0:0:0:0:
321,277,118136,5,0,1:0:0:0:
351,186,118414,1,2,0:0:0:0:
384,97,118692,2,0,L|370:14,2,80,0|0|4,0:0|1:0|0:1,0:0:0:0:
290,120,119525,1,0,3:0:0:0:
207,70,119803,1,8,0:0:0:0:
290,22,120081,1,2,0:0:0:0:
207,70,120359,6,0,L|116:77,1,80,0|0,1:0|0:0,0:0:0:0:
70,166,120914,2,0,L|149:161,1,80,0|2,0:0|1:2,0:0:0:0:
92,252,121470,2,0,L|13:257,1,80,2|0,0:1|0:0,0:0:0:0:
183,290,122025,2,0,L|197:370,1,80,0|2,1:0|0:0,0:0:0:0:
315,238,122581,5,0,1:0:0:0:
406,268,122859,2,0,P|353:327|272:324,1,160,2|2,0:0|0:0,0:0:0:0:
384,176,123692,1,4,0:1:0:0:
476,202,123970,2,0,P|498:243|500:278,2,80,0|0|2,3:0|0:0|0:0,0:0:0:0:
304,186,124803,6,0,L|384:176,1,80,0|2,1:0|0:0,0:0:0:0:
286,106,125359,2,0,L|206:118,1,80,0|0,0:0|1:0,0:0:0:0:
100,34,125914,2,0,P|120:84|116:123,1,80,2|0,0:1|0:0,0:0:0:0:
100,203,126470,1,0,1:0:0:0:
174,262,126747,2,0,P|200:232|218:193,2,80,2|0|2,0:0|1:0|0:0,0:0:0:0:
159,366,127581,6,0,P|229:322|306:327,1,160,0|4,0:0|0:1,0:0:0:0:
397,351,128414,2,0,P|385:308|394:264,2,80,0|8|2,3:0|0:0|0:0,0:0:0:0:
481,305,129247,5,0,1:0:0:0:
486,209,129525,1,2,0:0:0:0:
317,207,129803,2,0,L|393:182,1,80,0|2,0:0|0:0,0:0:0:0:
285,128,130359,2,0,P|285:94|307:49,1,80,2|0,0:1|0:0,0:0:0:0:
217,52,130914,2,0,L|135:73,1,80,0|2,1:0|0:0,0:0:0:0:
89,153,131470,5,0,1:0:0:0:
34,245,131747,1,2,0:0:0:0:
5,153,132025,2,0,P|13:115|40:84,2,80,0|0|4,0:0|0:0|0:1,0:0:0:0:
116,242,132859,2,0,P|107:286|78:314,1,80,0|0,3:0|0:0,0:0:0:0:
89,153,133414,1,2,0:0:0:0:
180,183,133692,6,0,P|269:212|339:197,1,160,0|0,1:0|0:0,0:0:0:0:
379,115,134525,1,2,0:0:0:0:
395,258,134803,2,0,P|322:289|242:291,1,160,2|0,0:1|1:0,0:0:0:0:
153,255,135636,1,2,0:0:0:0:
63,220,135914,5,0,1:0:0:0:
77,314,136192,1,2,0:0:0:0:
153,255,136470,2,0,L|140:172,2,80,0|2|4,0:0|0:0|0:1,0:0:0:0:
243,292,137303,2,0,L|256:376,2,80,0|8|2,3:0|0:0|0:0,0:0:0:0:
319,236,138136,5,0,1:0:0:0:
410,273,138414,1,2,0:0:0:0:
475,168,138692,2,0,L|396:179,1,80,0|2,0:0|1:2,0:0:0:0:
382,83,139247,1,2,0:1:0:0:
382,83,139803,2,0,L|296:95,1,80,0|2,1:0|0:0,0:0:0:0:
218,141,140359,5,0,1:0:0:0:
157,215,140636,1,2,0:0:0:0:
95,288,140914,2,0,L|17:268,1,80,0|2,0:0|0:0,0:0:0:0:
219,295,141470,2,0,P|249:262|259:229,1,80,4|2,0:1|0:0,0:0:0:0:
218,141,142025,1,0,0:0:0:0:
125,115,142303,2,0,L|47:95,2,80,2|0|4,0:0|1:0|0:0,0:0:0:0:
256,192,143136,12,2,144803,0:0:0:0:
246,68,146192,6,0,L|161:59,2,80,0|8|2,3:0|0:0|0:0,0:0:0:0:
306,152,147025,5,0,1:0:0:0:
242,234,147303,1,2,0:0:0:0:
302,317,147581,2,0,L|395:326,1,80
458,255,148136,1,2,0:1:0:0:
411,162,148414,1,8,3:1:0:0:
306,152,148692,1,0,0:0:0:0:
242,234,148970,1,2,3:0:0:0:
138,226,149247,6,0,L|48:218,2,80,0|2|0,1:0|0:0|0:0,0:0:0:0:
186,327,150081,2,0,L|191:380,2,40,2|0|4,0:0|0:0|0:1,0:0:0:0:
302,317,150636,2,0,L|331:243,1,80,0|8,3:0|0:0,0:0:0:0:
306,132,151192,1,2,0:0:0:0:
424,154,151470,5,0,1:0:0:0:
450,265,151747,1,2,0:0:0:0:
424,154,152025,2,0,L|451:78,1,80,0|0,0:0|0:0,0:0:0:0:
306,132,152581,1,2,0:1:0:0:
192,171,152859,1,8,3:1:0:0:
163,54,153136,1,0,1:0:0:0:
47,86,153414,1,2,3:0:0:0:
37,255,153692,6,0,P|95:201|120:126,1,160,0|0,1:0|0:0,0:0:0:0:
89,9,154525,1,2,1:2:0:0:
236,91,154803,1,4,0:1:0:0:
353,64,155081,2,0,L|440:41,2,80,0|8|2,3:0|0:0|0:0,0:0:0:0:
318,178,155914,5,0,1:0:0:0:
209,204,156192,1,2,0:0:0:0:
100,231,156470,2,0,L|79:147,1,80,0|2,0:0|0:0,0:0:0:0:
208,314,157025,2,0,L|297:290,1,80,2|8,0:1|3:1,0:0:0:0:
400,259,157581,1,0,1:0:0:0:
371,375,157859,1,2,3:0:0:0:
285,293,158136,6,0,P|290:215|342:156,1,160,0|0,1:0|0:0,0:0:0:0:
457,119,158970,1,2,0:0:0:0:
338,133,159247,1,4,0:1:0:0:
223,96,159525,2,0,P|196:66|179:24,2,80,0|8|2,3:0|0:0|0:0,0:0:0:0:
342,111,160359,5,0,1:0:0:0:
457,80,160636,1,2,0:0:0:0:
381,180,160914,1,0,0:0:0:0:
387,299,161192,2,0,P|415:333|455:354,1,80,2|2,0:0|0:1,0:0:0:0:
486,240,161747,2,0,P|501:198|499:153,1,80,8|0,3:1|0:0,0:0:0:0:
381,180,162303,2,0,P|337:187|299:211,1,80,2|0,1:3|1:0,0:0:0:0:
316,317,162859,5,2,0:0:0:0:
220,259,163136,1,0,1:0:0:0:
123,202,163414,2,0,L|126:253,2,40,2|0|4,0:0|0:0|0:1,0:0:0:0:
194,115,163970,2,0,L|189:36,2,80,0|8|2,3:0|0:0|0:0,0:0:0:0:
82,101,164803,5,0,1:0:0:0:
123,202,165081,1,2,0:0:0:0:
233,221,165359,2,0,L|238:309,1,80
299,131,165914,1,2,0:1:0:0:
408,154,166192,1,8,3:1:0:0:
483,71,166470,1,0,1:0:0:0:
374,48,166747,1,2,3:0:0:0:
408,154,167025,6,0,L|492:172,2,80,0|2|0,1:0|0:0|0:0,0:0:0:0:
331,236,167859,2,0,L|345:287,2,40,2|0|4,0:0|0:0|0:1,0:0:0:0:
271,330,168414,2,0,L|184:351,1,80,0|8,3:0|0:0,0:0:0:0:
86,313,168970,1,2,1:2:0:0:
144,217,169247,5,0,1:0:0:0:
104,112,169525,1,2,0:0:0:0:
219,91,169803,2,0,L|304:71,1,80
371,157,170359,1,2,0:1:0:0:
256,179,170636,1,8,3:1:0:0:
104,112,170914,1,0,1:0:0:0:
219,91,171192,1,2,3:0:0:0:
144,217,171470,6,0,P|188:278|269:299,1,160,0|0,1:0|0:0,0:0:0:0:
382,276,172303,1,2,3:0:0:0:
256,179,172581,1,4,0:1:0:0:
371,157,172859,2,0,L|397:74,2,80,0|8|2,3:0|0:0|1:2,0:0:0:0:
295,73,173692,5,0,1:0:0:0:
184,92,173970,1,2,0:0:0:0:
160,201,174247,2,0,L|82:215,1,80,0|2,0:0|0:0,0:0:0:0:
274,290,174803,2,0,L|287:368,1,80,2|8,0:1|3:1,0:0:0:0:
363,222,175359,1,0,1:0:0:0:
472,201,175636,1,2,3:0:0:0:
419,318,175914,6,0,P|341:329|273:289,1,160,0|0,1:0|0:0,0:0:0:0:
256,180,176747,1,2,0:0:0:0:
365,159,177025,1,4,0:1:0:0:
347,48,177303,2,0,L|253:67,1,80,0|0,3:0|0:0,0:0:0:0:
256,180,177859,2,0,L|173:198,2,80,2|0|4,0:0|1:0|0:0,0:0:0:0:
256,192,178692,12,2,180359,0:0:0:0:
313,168,181747,6,0,P|327:126|329:82,2,80,0|8|2,3:0|0:0|0:0,0:0:0:0:
206,224,182581,5,0,1:0:0:0:
150,117,182859,1,2,0:0:0:0:
86,218,183136,2,0,P|72:267|71:325,1,100
176,371,183692,1,8,0:3:0:0:
258,283,183970,1,8,3:1:0:0:
364,337,184247,1,0,0:0:0:0:
446,250,184525,1,2,3:0:0:0:
351,91,184803,6,0,P|340:140|341:189,2,100,0|4|0,1:0|0:0|0:0,0:0:0:0:
449,23,185636,2,0,L|441:79,2,50,2|0|8,1:2|0:0|0:3,0:0:0:0:
290,27,186192,2,0,P|238:44|204:79,1,100,8|4,3:1|0:1,0:0:0:0:
212,185,186747,1,2,0:0:0:0:
114,134,187025,5,0,1:0:0:0:
122,243,187303,1,2,0:0:0:0:
218,295,187581,2,0,P|269:280|307:243,1,100
306,116,188136,1,8,0:3:0:0:
378,224,188414,1,8,3:1:0:0:
256,178,188692,1,0,1:0:0:0:
382,146,188970,1,2,3:0:0:0:
302,247,189247,6,0,P|331:288|378:303,2,100,0|4|0,1:0|0:0|0:0,0:0:0:0:
382,146,190081,1,2,1:2:0:0:
256,178,190359,1,8,0:3:0:0:
378,224,190636,2,0,P|432:206|456:165,2,100,8|4|2,3:1|0:1|0:0,0:0:0:0:
497,76,191470,5,0,1:0:0:0:
360,104,191747,1,2,0:0:0:0:
222,133,192025,2,0,L|120:153,1,100,0|2,0:0|0:0,0:0:0:0:
338,324,192581,2,0,L|437:307,1,100,8|8,0:3|3:1,0:0:0:0:
376,210,193136,1,0,1:0:0:0:
260,338,193414,1,2,3:0:0:0:
183,247,193692,6,0,L|76:265,2,100,0|4|0,1:0|0:0|0:0,0:0:0:0:
222,133,194525,1,2,0:0:0:0:
144,41,194803,1,8,0:3:0:0:
107,155,195081,2,0,L|8:173,2,100,8|4|2,3:1|0:1|0:0,0:0:0:0:
183,247,195914,5,0,1:0:0:0:
151,362,196192,1,2,0:0:0:0:
247,291,196470,1,0,0:0:0:0:
363,265,196747,2,0,P|361:325|339:368,1,100,2|8,1:2|0:3,0:0:0:0:
280,185,197303,2,0,P|324:157|377:150,1,100,8|0,3:1|0:0,0:0:0:0:
247,291,197859,2,0,P|198:259|173:213,1,100,2|0,1:3|1:0,0:0:0:0:
191,105,198414,5,4,0:0:0:0:
280,185,198692,1,0,1:0:0:0:
177,224,198970,2,0,L|128:215,2,50,2|0|8,0:0|0:0|0:3,0:0:0:0:
191,105,199525,2,0,P|187:56|164:12,2,100,8|4|0,1:0|0:1|0:0,0:0:0:0:
79,150,200359,5,0,1:0:0:0:
71,269,200636,1,2,0:0:0:0:
170,353,200914,2,0,P|225:343|262:320,1,100
280,185,201470,1,8,0:3:0:0:
339,300,201747,1,8,3:1:0:0:
221,245,202025,1,0,1:0:0:0:
349,223,202303,1,2,3:0:0:0:
263,320,202581,6,0,P|289:362|347:378,2,100,0|4|0,1:0|0:0|0:0,0:0:0:0:
349,223,203414,2,0,L|406:235,2,50,2|0|8,0:0|0:0|0:3,0:0:0:0:
221,245,203970,2,0,P|189:204|148:182,1,100,8|4,3:1|0:1,0:0:0:0:
11,146,204525,1,2,1:2:0:0:
144,97,204803,5,0,1:0:0:0:
66,215,205081,1,2,0:0:0:0:
60,75,205359,2,0,P|90:29|133:11,1,100
147,182,205914,1,8,0:3:0:0:
155,291,206192,1,8,3:1:0:0:
257,332,206470,1,0,1:0:0:0:
351,275,206747,2,0,L|457:258,2,100,2|0|4,3:0|1:0|0:0,0:0:0:0:
340,165,207581,5,0,0:0:0:0:
239,119,207859,1,2,0:0:0:0:
147,182,208136,1,8,0:3:0:0:
247,232,208414,2,0,L|257:332,2,100,8|4|2,3:1|0:1|1:2,0:0:0:0:
239,119,209247,5,0,1:0:0:0:
329,56,209525,1,2,0:0:0:0:
440,210,209803,1,0,0:0:0:0:
429,101,210081,1,2,0:0:0:0:
350,273,210359,2,0,L|361:376,1,100,8|8,0:3|3:1,0:0:0:0:
257,332,210914,1,0,1:0:0:0:
154,291,211192,1,2,3:0:0:0:
142,181,211470,6,0,L|38:199,2,100,0|4|0,1:0|0:0|0:3,0:0:0:0:
138,70,212303,1,2,0:0:0:0:
235,121,212581,2,0,P|253:170|242:226,1,100,8|8,0:3|3:1,0:0:0:0:
142,181,213136,1,4,0:1:0:0:
53,262,213414,2,0,P|53:314|81:360,1,100,2|0,0:0|1:0,0:0:0:0:
149,288,213970,6,0,B|189:293|217:264|217:264|209:305|254:330|254:330|300:306|294:265|294:265|324:294|372:277|372:277|381:225|348:205|348:205|388:198|399:151|399:151|365:113|327:126|327:126|352:95|322:52|322:52|269:54|256:94|256:94|242:54|193:52|193:52|164:94|185:128|185:128|148:113|115:147|115:147|124:200|166:204|166:204|127:223|129:266,1,1120,4|0,0:0|0:0,0:0:0:0:
129,256,218136,1,2,0:0:0:0:
