osu file format v5

[General]
AudioFilename: Jay Chou - Nocturne.mp3
AudioLeadIn: 0
PreviewTime: -1
Countdown: 1
SampleSet: Soft
StackLeniency: 0.7
Mode: 0
LetterboxInBreaks: 0
EditorBookmarks: 19898,36309,46996,67681,80092,90089,110774,123183,134906,146634,155590,167312,178361,199028,212128
EditorDistanceSpacing: 0.800000011920929

[Metadata]
Title:Nocturne (Ye Qu)
Artist:Jay Chou
Creator:thepianist
Version:Prelude
Source:November Chopin
Tags:

[Difficulty]
HPDrainRate:1
CircleSize:4
OverallDifficulty:2
SliderMultiplier:0.999999999999999
SliderTickRate:2

[Events]
//Background and Video events
0,0,"cd1jay8if.jpg"
1,0,"Jay Chou Nocturne.mpg.AVI"
//Break Periods
//Storyboard Layer 0 (Background)
//Storyboard Layer 1 (Failing)
//Storyboard Layer 2 (Passing)
//Storyboard Layer 3 (Foreground)
//Storyboard Sound Samples
//Background Colour Transformations
3,100,163,162,255

[TimingPoints]
22470,689.655172413793,4,2,1,100,1,0

[HitObjects]
80,80,24883,1,0
160,80,25228,2,8,L|272:80,1,99.9999999999999,8|8
336,80,26263,1,0
336,160,26607,5,8
256,160,26952,1,0
176,160,27297,1,8
176,240,27642,1,0
256,240,27987,5,8
336,240,28332,2,2,B|368:240|400:224|432:192|448:160|448:80,1,200
368,96,30056,1,4
208,96,30745,5,0
208,176,31090,2,2,B|288:176,1,50
312,176,31780,2,2,B|248:176,1,50,2|2
256,256,32469,5,0
168,256,32814,1,8
208,176,33159,1,0
120,176,33504,6,0,B|24:240|296:240|24:288,1,200
72,112,35573,1,4
240,112,36263,6,2,B|336:160|448:112,1,200
432,200,37987,1,8
432,288,38332,2,2,B|336:256|224:288,1,200
152,288,40056,1,0
88,240,40401,6,0,B|88:304,2,50
88,160,41435,1,4
256,160,42125,5,0
352,160,42469,2,8,B|272:240|168:248|80:152,1,300
88,80,44883,1,4
256,208,46952,5,0
176,208,47297,1,0
176,288,47642,2,8,B|336:288|336:288|336:176,1,250
336,120,49711,5,2
256,120,50056,1,2
176,120,50401,2,8,B|224:168|224:168|176:216|176:216|224:264|224:264|224:312,1,250
304,312,52470,5,0
384,312,52814,1,8
384,152,53504,5,2
224,152,54194,1,8
64,152,54883,1,2
256,192,55573,12,4,57642
128,80,58332,6,2,B|256:80,1,99.9999999999999
384,80,59711,2,2,B|256:80,1,99.9999999999999
280,240,61090,1,8
432,240,61780,1,8
432,80,62470,1,8
352,80,62814,1,0
352,160,63159,1,8
280,120,63504,1,0
200,120,63849,5,4
200,280,64538,2,8,B|280:280,1,50
328,280,65228,1,4
328,120,65918,2,10,B|328:56,1,50,10|2
248,72,66607,1,2
248,232,67297,1,4
256,112,69366,5,0
96,112,70056,2,8,B|96:224|240:224,1,200
392,224,72125,5,0
304,88,72814,2,8,B|368:168|288:248,1,150
224,224,74194,1,0
64,224,74883,6,2,B|64:64|64:64|152:64|152:64|152:280|152:280|56:280,1,549.999999999999
64,360,79021,1,8
224,360,79711,1,2
384,360,80401,6,8,B|480:360|480:200,1,200
320,208,82470,1,4
320,368,83159,5,8
280,296,83504,1,0
240,224,83849,1,8
200,296,84194,1,0
240,368,84538,1,8
160,368,84883,1,0
120,296,85228,1,4
120,136,85918,6,0,B|120:72,1,50
200,88,86607,2,8,B|200:152,1,50
200,216,87297,1,0
360,216,87987,1,8
280,72,88676,1,4
72,312,90056,6,0,B|184:312,1,99.9999999999999
328,312,91435,1,8
464,200,92125,2,0,B|464:312|320:312,1,200,0|0
304,176,94194,5,8
328,312,94883,2,0,B|264:256|312:160,1,150,0|0
304,88,96263,1,4
136,96,96952,6,2,B|224:160|224:160|144:248|144:248|56:168|56:168|56:288,1,450
56,352,100401,1,8
232,352,101090,1,8
232,184,101780,1,4
232,16,102470,6,2,B|136:16|136:176,1,200
304,168,104538,1,8
304,336,105228,5,8
344,256,105573,1,0
264,256,105918,1,8
304,184,106263,1,0
384,184,106607,1,8
344,112,106952,1,0
264,112,107297,1,4
96,160,107987,6,0,B|96:104,1,50
160,160,108676,2,8,B|160:96,1,50
160,24,109366,1,0
328,24,110056,1,8
328,192,110745,1,6
