osu file format v5

[General]
AudioFilename: Jay Chou - Nocturne.mp3
AudioLeadIn: 0
PreviewTime: -1
Countdown: 1
SampleSet: Soft
StackLeniency: 0.7
Mode: 0
LetterboxInBreaks: 0
EditorBookmarks: 19898,36309,46996,67681,80092,90089,110774,134906,155590,167312,199028,212128
EditorDistanceSpacing: 0.800000011920929

[Metadata]
Title:Nocturne (Ye Qu)
Artist:Jay Chou
Creator:thepianist
Version:Nocturne
Source:November Chopin
Tags:November Chopin Chinese Pop Nocturne Jay Chou

[Difficulty]
HPDrainRate:5
CircleSize:5
OverallDifficulty:4
SliderMultiplier:1.6
SliderTickRate:2

[Events]
//Background and Video events
0,0,"cd1jay8if.jpg"
1,0,"Jay Chou Nocturne.mpg.AVI"
//Break Periods
2,121987,133916
2,155097,167370
2,199227,211790
//Storyboard Layer 0 (Background)
//Storyboard Layer 1 (Failing)
//Storyboard Layer 2 (Passing)
//Storyboard Layer 3 (Foreground)
//Storyboard Sound Samples
//Background Colour Transformations
3,100,163,162,255

[TimingPoints]
22470,689.655172413793,4,2,1,100,1,0

[Colours]
Combo1 : 225,225,0
Combo2 : 243,89,34
Combo3 : 112,196,193
Combo4 : 193,97,0

[HitObjects]
0,64,24883,2,0,B|64:64,1,40
72,64,25228,1,8
136,64,25573,1,0
200,64,25918,1,0
232,64,26090,2,0,B|280:64,1,40
336,64,26607,2,0,B|400:64,3,40
376,64,27297,6,0,B|376:176,1,80
376,208,27987,1,8
376,280,28332,2,0,B|376:344,2,40,0|0|0
312,280,29021,1,0
248,280,29366,2,0,B|200:280,3,40
176,280,30056,2,0,B|80:280,1,80
176,176,31090,6,8,B|176:112,2,40,8|0|8
240,176,31780,2,2,B|240:112,2,40,2|0|2
304,176,32470,1,0
360,136,32814,2,8,B|360:40,1,80
296,56,33504,6,2,B|200:88|200:88|200:152|200:152|40:216,1,320
56,272,35228,2,2,B|168:272,1,80
200,272,35918,1,6
296,280,36435,6,0,B|296:232,3,40,0|0|2|2
296,208,37125,6,0,B|296:152,3,40,0|0|2|2
232,168,37987,1,8
232,104,38332,6,0,B|152:104,4,40
232,40,39366,1,10
296,40,39711,2,2,B|296:88,3,40
296,112,40401,2,2,L|296:192,1,80
376,192,41090,2,8,L|296:192,1,80,8|8
216,96,42125,6,0,B|216:304|216:304|216:320|208:352|144:360|64:312|88:224|184:208|224:304,1,480
280,288,44538,1,8
344,288,44883,1,12
320,96,46952,5,8
320,160,47297,1,8
320,224,47642,2,0,L|320:288,2,40
288,224,48159,2,0,B|240:224,1,40
192,224,48676,2,0,B|192:160,3,40
192,184,49366,1,0
128,192,49711,2,0,B|128:144,1,40
128,112,50056,5,8
192,112,50401,2,0,B|192:176,1,40
224,176,50745,2,0,B|224:128,1,40
248,160,51090,2,0,B|248:272,1,80
272,264,51607,2,0,B|272:200,1,40
296,248,51952,2,0,B|296:312,1,40
360,288,52470,6,0,B|360:352,2,40
424,288,53159,1,8
424,288,53332,1,8
424,288,53504,1,8
384,248,53849,2,2,B|352:216,3,40
384,200,54538,2,2,B|416:232,3,40
432,256,55228,1,0
368,256,55573,5,8
304,256,55918,2,0,B|240:256,1,40
232,256,56263,2,2,B|104:256,1,120
96,224,56952,2,2,B|224:224,1,120
248,224,57642,1,2
312,224,57987,1,6
376,224,58332,6,0,B|376:320|504:320,1,160
456,344,59194,1,0
424,352,59366,2,0,B|376:336,1,40
360,320,59711,2,0,B|456:320|456:192,1,160
456,184,60573,2,0,B|456:136,1,40
456,112,60918,1,0
392,112,61263,5,0
360,112,61435,2,0,B|312:112,1,40
320,144,61780,2,0,B|272:144,1,40
280,112,62125,1,0
216,112,62470,2,0,B|216:160,6,26.6666666666667
152,112,63504,1,4
152,176,63849,5,0
216,176,64194,2,0,B|248:176,2,26.6666666666667,2|2|0
216,176,64538,2,10,B|344:176|344:80,1,160
320,80,65401,1,0
288,64,65573,2,0,B|224:64,1,40
224,88,65918,2,10,B|224:184|352:184,1,160
360,184,66780,2,10,B|408:184,2,40
360,152,67297,1,4
360,152,69021,6,2,B|264:152,1,80
216,152,69711,2,0,B|168:152,1,40
112,152,70228,1,2
112,248,70745,2,0,B|208:248,1,80
224,248,71263,1,6
384,248,72125,5,0
384,184,72470,2,0,B|384:232,1,40
320,216,72987,1,0
256,216,73332,1,0
256,184,73504,1,0
192,184,73849,2,4,B|192:232,1,40
40,184,74883,6,8,B|152:328,1,160
200,312,75918,1,0
264,312,76263,2,8,B|336:184|200:184,1,160
168,184,77297,1,0
104,184,77642,6,10,B|104:88|392:88,1,320
264,32,79711,1,4
200,32,80056,6,2,B|136:32,2,40
200,96,80745,2,0,B|152:96,1,40
96,96,81263,1,8
96,192,81780,1,2
96,256,82125,2,2,B|144:256,1,40
296,256,83159,6,2,B|296:64|88:64,1,320
96,128,84883,2,4,B|96:176,1,40
96,328,85918,5,8
144,288,86263,2,0,B|240:192,1,120
320,208,87297,2,4,B|384:272,1,80
400,288,87814,2,0,B|464:352,1,80
456,248,88676,1,4
200,200,90056,5,8
200,72,90745,1,8
328,72,91435,2,2,B|200:168|424:200|424:168|520:296,1,320
432,264,93159,2,0,B|384:264,1,40
392,104,94194,5,0
392,168,94538,2,0,B|344:168,1,40
288,168,95056,1,0
224,168,95401,2,0,B|160:168,1,40
144,216,95918,2,12,B|208:216,1,40,8|12
256,192,96952,12,8,99711
368,96,101090,6,0,B|176:96,1,160
80,96,102470,5,8
128,144,102814,1,0
160,160,102987,1,0
224,176,103332,1,0
320,176,103849,1,8
384,160,104194,2,4,B|416:128,1,40
384,288,105228,6,0,B|456:208|432:128|384:136|360:216|360:216|336:136|280:128|280:232|352:304,1,440
216,192,107987,5,0
216,256,108332,1,0
248,256,108504,1,0
216,312,108849,1,0
304,272,109366,1,0
360,240,109711,1,8
384,224,109883,1,8
440,192,110228,1,4
440,96,110745,1,4
256,64,113504,6,0,B|256:320,1,240,8|0
320,304,114883,1,8
320,176,115573,1,8
320,48,116263,2,8,B|392:48|392:192,1,160,8|8
392,240,117297,1,2
392,304,117642,2,8,B|312:304|312:184,1,160
312,56,119021,1,8
120,56,120056,2,0,B|184:56,2,40,0|0|8
56,56,120745,1,0
56,88,120918,1,0
56,152,121263,2,0,B|112:152,2,40,0|0|4
272,192,135228,6,0,B|224:192,1,40
192,192,135573,1,0
192,256,135918,1,0
192,320,136263,2,0,B|440:320,1,240
432,320,137642,2,0,B|344:240,1,80
432,320,138332,2,0,B|376:392,1,80
384,352,138849,1,0
384,320,139021,1,0
384,256,139366,1,0
384,192,139711,2,0,B|384:144,3,40
384,120,140401,2,4,B|272:120,1,80
176,120,141435,5,0
176,120,141607,1,0
176,120,141780,1,8
240,120,142125,1,0
240,120,142297,1,0
240,120,142470,1,8
240,184,142814,2,8,B|128:184,1,80
160,248,143504,1,8
224,248,143849,6,0,B|224:200,2,40,2|2|2
160,248,144538,2,0,B|112:248,3,40
120,216,145228,1,8
120,152,145573,1,8
120,88,145918,2,12,B|232:88,1,80
264,88,146607,6,0,C|328:264|464:312,1,320
448,240,148332,1,0
448,176,148676,6,0,C|368:72|232:96,1,240
264,152,150056,1,2
264,184,150228,2,2,B|312:184,2,40
264,216,150745,2,0,B|312:216,2,40
264,280,151435,2,4,B|360:280,1,80,0|4
256,192,152125,12,4,154883
256,192,168676,5,8
320,192,169021,2,0,B|320:112,1,40
320,80,169538,1,0
224,80,170056,1,8
160,80,170401,2,4,B|112:80,1,40
160,160,171435,2,8,C|320:160|416:112,1,240
336,88,172814,1,0
272,88,173159,2,0,B|224:88,1,40
200,248,174194,6,2,C|264:184,2,80
256,191,175228,1,8
296,152,175573,2,2,C|360:88,2,80
352,95,176607,1,8
392,56,176952,1,4
360,312,178332,6,8,C|424:264|488:312,1,160
480,184,179711,1,2
416,184,180056,2,0,B|368:184,1,40
312,184,180573,1,2
216,184,181090,1,2
216,120,181435,2,4,B|216:72,1,40
312,184,182470,6,0,C|280:216|248:184|216:216|184:184,1,160
112,208,183676,1,0
112,240,183849,1,8
48,240,184194,1,0
48,240,184366,1,4
48,240,184538,1,0
176,240,185228,6,0,C|176:336|272:336|272:208,1,320
272,152,186952,1,0
272,120,187125,2,8,B|384:120,1,80
352,216,187987,1,0
352,280,188332,2,0,B|416:280,1,40
352,216,188849,5,8
256,216,189366,1,0
304,96,190056,1,4
256,216,190745,6,2,B|256:48,1,160
288,56,191607,1,2
384,56,192125,2,2,B|496:56,1,80
496,56,192642,1,2
496,216,193504,1,2
432,216,193849,2,2,B|304:136|472:88,1,200
496,96,194883,1,2
496,160,195228,2,4,B|496:224,1,40,0|0
496,360,196263,5,2
432,360,196607,2,8,B|432:312,1,40
432,256,197125,1,8
336,256,197642,1,2
272,256,197987,2,8,C|272:320,1,40
272,360,198504,2,8,B|208:376|144:360,1,120
256,192,212987,6,2,C|256:128,7,40,2|2|0|0|2|0|0|2
192,152,214538,1,8
128,152,214883,2,0,C|128:216,4,40
128,216,215918,1,8
128,280,216263,2,0,B|304:280,1,160
288,248,217125,2,0,B|288:200,1,40
288,144,217642,2,0,B|400:144,1,80
256,192,218332,12,4,222470
