osu file format v13

[General]
AudioFilename: M.mp3
AudioLeadIn: 0
PreviewTime: 71702
Countdown: 0
SampleSet: Normal
StackLeniency: 0.6
Mode: 0
LetterboxInBreaks: 1
EpilepsyWarning: 1
WidescreenStoryboard: 0

[Editor]
Bookmarks: 11795
DistanceSpacing: 1.2
BeatDivisor: 4
GridSize: 4
TimelineZoom: 1

[Metadata]
Title:Mai Ya Tang
TitleUnicode:麥芽糖
Artist:Jay Chou
ArtistUnicode:周杰倫
Creator:liangv587
Version:Normal
Source:
Tags:十一月的萧邦 11月的蕭邦 november's chopin 周杰伦 chou chieh lun zhou jie 麦芽糖 malt candy
BeatmapID:332784
BeatmapSetID:132303

[Difficulty]
HPDrainRate:3.2
CircleSize:3
OverallDifficulty:3
ApproachRate:4
SliderMultiplier:1.59999990463257
SliderTickRate:2

[Events]
//Background and Video events
0,0,"M.jpg",0,0
//Break Periods
2,115099,121326
2,183223,191767
2,243601,244912
2,248633,249944
//Storyboard Layer 0 (Background)
//Storyboard Layer 1 (Fail)
//Storyboard Layer 2 (Pass)
//Storyboard Layer 3 (Foreground)
//Storyboard Sound Samples

[TimingPoints]
1890,628.93894736842,4,1,2,40,1,0
19343,-100,4,1,2,50,0,0
32236,-100,4,1,2,60,0,0
52362,-100,4,2,1,60,0,0
72173,-100,4,1,1,60,0,0
92457,-100,4,1,1,70,0,1
112583,-100,4,1,1,60,0,0
113841,-100,4,1,1,50,0,0
114470,-100,4,1,1,40,0,0
122489,-100,4,1,2,60,0,0
142929,-100,4,2,1,60,0,0
162898,-100,4,1,1,70,0,1
183024,-100,4,1,1,60,0,0
203150,-100,4,1,1,70,0,1
223276,-100,4,1,1,60,0,0
243245,-100,4,1,2,50,0,0
252679,-100,4,1,2,40,0,0
253151,-100,4,1,2,30,0,0

[Colours]
Combo1 : 0,128,0
Combo2 : 170,0,170
Combo3 : 255,128,0

[HitObjects]
424,180,11953,6,0,P|388:252|316:288,1,159.999990463257,4|8,0:0|0:0,0:0:0:0:
127,290,13210,2,0,P|140:252|139:206,1,79.9999952316285,0|2,0:0|0:2,0:0:0:0:
126,117,13839,2,0,P|154:85|194:65,1,79.9999952316285,8|2,0:0|0:2,0:0:0:0:
282,72,14468,6,0,P|279:157|309:239,1,159.999990463257,2|8,0:2|0:0,0:0:0:0:
465,124,15726,2,0,P|472:84|466:34,2,79.9999952316285,0|2|8,0:0|0:2|0:0,0:0:0:0:
282,72,16984,6,0,P|200:88|140:142,1,159.999990463257,4|8,0:2|0:0,0:0:0:0:
220,312,18242,2,0,P|295:298|361:240,1,159.999990463257,0|8,0:0|0:0,0:0:0:0:
336,56,19500,6,0,P|352:96|376:124,1,79.9999952316285,4|2,0:2|0:2,0:0:0:0:
452,184,20129,2,0,P|448:224|452:264,1,79.9999952316285,8|2,0:0|0:2,0:0:0:0:
380,328,20758,2,0,P|300:312|222:312,1,159.999990463257,4|8,0:2|0:0,0:0:0:0:
36,363,22016,6,0,P|70:305|86:201,1,159.999990463257,4|8,0:0|0:0,0:0:0:0:
147,32,23273,2,0,P|196:93|219:170,1,159.999990463257,0|8,0:0|0:0,0:0:0:0:
217,362,24531,5,0,0:0:0:0:
341,215,25160,2,0,L|412:176,1,79.9999952316285,8|2,0:0|0:2,0:0:0:0:
392,82,25789,2,0,L|468:41,2,79.9999952316285,0|2|8,0:0|0:2|0:0,0:0:0:0:
220,170,27047,5,4,0:2:0:0:
52,264,27676,2,0,P|113:331|183:356,1,159.999990463257,8|0,0:0|0:0,0:0:0:0:
366,315,28934,2,0,P|391:284|408:246,1,79.9999952316285,8|2,0:0|0:2,0:0:0:0:
428,154,29563,5,4,0:2:0:0:
273,40,30192,2,0,L|297:117,1,79.9999952316285,8|2,0:0|0:2,0:0:0:0:
200,118,30821,2,0,L|228:203,2,79.9999952316285,4|2|8,0:2|0:2|0:0,0:0:0:0:
126,186,31764,2,0,L|151:270,1,79.9999952316285,2|4,0:2|0:0,0:0:0:0:
219,328,32393,5,2,0:2:0:0:
315,322,32708,2,0,B|356:306|367:267|367:267|412:264|441:226,1,159.999990463257,8|0,0:0|0:0,0:0:0:0:
442,38,33965,1,8,0:0:0:0:
362,94,34280,6,0,P|355:137|360:179,2,79.9999952316285,2|0|2,0:2|0:0|0:2,0:0:0:0:
274,53,35223,2,0,B|235:49|201:78|201:78|157:67|121:90,1,159.999990463257,8|0,0:0|0:0,0:0:0:0:
80,175,36167,1,2,0:2:0:0:
148,241,36481,2,0,P|169:208|175:169,1,79.9999952316285,8|2,0:0|0:2,0:0:0:0:
268,147,37110,6,0,P|308:143|342:118,1,79.9999952316285,4|2,0:2|0:2,0:0:0:0:
391,39,37739,2,0,B|427:61|438:117|438:117|462:137|497:144,2,159.999990463257,8|0|8,0:0|0:0|0:0,0:0:0:0:
294,35,39311,5,2,0:2:0:0:
338,120,39626,2,0,P|342:154|336:201,1,79.9999952316285,4|2,0:2|0:2,0:0:0:0:
301,288,40255,2,0,B|257:330|198:317|198:317|181:337|148:347,2,159.999990463257,8|4|8,0:0|0:0|0:0,0:0:0:0:
227,225,41827,6,0,B|166:207|123:253|123:253|104:232|85:225,1,159.999990463257,2|2,0:2|0:2,0:0:0:0:
60,132,42771,1,8,0:0:0:0:
145,86,43085,2,0,B|196:54|253:64|253:64|286:26,2,159.999990463257,2|2|2,0:2|0:2|0:2,0:0:0:0:
152,181,44657,6,0,B|123:234|54:236|54:236|48:284,2,159.999990463257,0|8|0,0:0|0:0|0:0,0:0:0:0:
246,161,46230,2,0,P|286:146|319:120,2,79.9999952316285,2|8|2,0:2|0:0|0:2,0:0:0:0:
152,181,47173,5,4,0:2:0:0:
288,316,47802,1,8,0:0:0:0:
424,181,48431,1,0,0:0:0:0:
372,100,48745,2,0,P|340:68|308:52,1,79.9999952316285,2|8,0:2|0:0,0:0:0:0:
213,53,49374,1,2,0:2:0:0:
152,127,49689,6,0,B|207:163|256:137|256:137|286:148|302:166,1,159.999990463257,4|8,0:2|0:0,0:0:0:0:
401,324,50947,2,0,P|326:354|242:346,2,159.999990463257,4|8|2,0:0|0:0|0:2,0:0:0:0:
457,246,52519,5,2,0:2:0:0:
444,150,52834,2,0,P|418:118|381:96,1,79.9999952316285,8|2,0:0|0:2,0:0:0:0:
292,74,53462,2,0,B|279:120|240:139|240:139|254:173|247:214,2,159.999990463257,0|8|4,0:0|0:0|0:2,0:0:0:0:
198,49,55035,5,2,0:2:0:0:
104,76,55349,2,0,P|120:120|120:160,1,79.9999952316285,8|2,0:0|0:2,0:0:0:0:
157,241,55978,2,0,B|92:256|51:218|51:218|36:231|20:260,2,159.999990463257,0|8|4,0:0|0:0|0:0,0:0:0:0:
249,212,57551,5,2,0:2:0:0:
340,182,57865,2,0,P|342:223|327:267,1,79.9999952316285,8|2,0:0|0:2,0:0:0:0:
292,348,58494,2,0,B|252:329|238:294|238:294|205:332|162:332,1,159.999990463257,0|8,0:0|0:0,0:0:0:0:
72,331,59437,1,2,0:2:0:0:
108,241,59752,6,0,P|107:160|64:79,1,159.999990463257,4|8,0:2|0:0,0:0:0:0:
141,21,60695,1,2,0:2:0:0:
213,83,61010,2,0,P|288:111|377:103,1,159.999990463257,4|8,0:2|0:0,0:0:0:0:
450,59,61953,1,2,0:2:0:0:
470,152,62268,6,0,P|450:216|386:288,1,159.999990463257,4|8,0:1|0:0,0:0:0:0:
299,253,63211,2,0,B|255:242|219:253|219:253|189:225|177:183,1,159.999990463257,2|2,0:2|0:2,0:0:0:0:
118,111,64154,2,0,B|75:142|81:202|81:202|61:224|35:236,2,159.999990463257,8|4|8,0:0|0:0|0:0,0:0:0:0:
213,96,65727,6,0,P|268:148|264:230,1,159.999990463257,2|2,0:2|0:2,0:0:0:0:
206,303,66670,2,0,P|292:319|352:263,1,159.999990463257,8|4,0:0|0:2,0:0:0:0:
364,180,67614,2,0,P|358:136|343:96,1,79.9999952316285,2|8,0:2|0:0,0:0:0:0:
278,32,68243,2,0,B|250:24|219:28|219:28|215:92|156:114,1,159.999990463257,2|2,0:2|0:2,0:0:0:0:
121,24,69186,1,8,0:0:0:0:
16,185,69815,6,0,P|37:219|70:246,1,79.9999952316285,4|2,0:2|0:2,0:0:0:0:
163,238,70444,2,0,B|205:235|238:256|238:256|228:305|254:341,1,159.999990463257,8|8,0:0|0:0,0:0:0:0:
331,284,71387,1,2,0:2:0:0:
324,188,71702,2,0,P|297:160|260:144,1,79.9999952316285,8|2,0:0|0:2,0:0:0:0:
164,131,72331,6,0,P|88:163|57:239,1,159.999990463257,4|8,0:0|0:0,0:0:0:0:
244,187,73589,2,0,P|256:154|256:100,1,79.9999952316285,0|2,0:0|0:2,0:0:0:0:
242,15,74217,2,0,P|319:31|355:101,1,159.999990463257,8|0,0:0|0:0,0:0:0:0:
333,289,75475,5,8,0:0:0:0:
145,279,76104,2,0,B|92:256|85:194|85:194|68:180|34:176,2,159.999990463257,0|8|4,0:0|0:0|0:2,0:0:0:0:
308,177,77991,5,8,0:0:0:0:
283,84,78306,1,2,0:2:0:0:
192,115,78620,2,0,P|178:155|179:194,1,79.9999952316285,0|2,0:0|0:2,0:0:0:0:
247,259,79249,5,8,0:0:0:0:
338,287,79563,1,2,0:2:0:0:
414,228,79878,2,0,P|425:192|421:144,1,79.9999952316285,4|2,0:2|0:2,0:0:0:0:
377,65,80507,6,0,B|346:36|346:36|303:84|241:90,1,159.999990463257,8|4,0:0|0:2,0:0:0:0:
152,60,81450,2,0,P|120:36|71:20,2,79.9999952316285,2|8|2,0:2|0:0|0:2,0:0:0:0:
169,154,82394,6,0,P|141:229|83:289,1,159.999990463257,4|8,0:0|0:0,0:0:0:0:
261,206,83652,1,0,0:0:0:0:
422,312,84281,2,0,B|374:349|318:323|318:323|301:341|276:353,1,159.999990463257,8|0,0:0|0:0,0:0:0:0:
86,353,85538,6,0,P|55:276|72:200,1,159.999990463257,8|0,0:0|0:0,0:0:0:0:
126,124,86482,2,0,P|104:88|95:50,2,79.9999952316285,2|8|2,0:2|0:0|0:2,0:0:0:0:
312,172,87740,6,0,P|347:193|378:232,2,79.9999952316285,2|8|2,0:2|0:0|0:2,0:0:0:0:
148,273,88998,2,0,P|145:305|150:354,2,79.9999952316285,2|8|2,0:2|0:0|0:2,0:0:0:0:
180,182,89941,1,4,0:2:0:0:
249,115,90255,5,2,0:2:0:0:
335,73,90570,2,0,P|371:99|391:140,1,79.9999952316285,8|2,0:0|0:2,0:0:0:0:
479,98,91199,2,0,P|483:142|472:177,1,79.9999952316285,4|2,0:2|0:2,0:0:0:0:
456,270,91828,2,0,P|415:253|390:223,1,79.9999952316285,8|10,0:0|0:2,0:0:0:0:
387,130,92457,6,0,B|347:129|316:163|316:163|282:133|238:134,1,159.999990463257,4|8,0:0|0:0,0:0:0:0:
78,232,93715,2,0,P|120:240|170:231,1,79.9999952316285,0|2,0:0|0:2,0:0:0:0:
252,226,94344,2,0,P|285:298|358:339,1,159.999990463257,8|0,0:0|0:0,0:0:0:0:
496,208,95601,5,8,0:0:0:0:
304,212,96230,2,0,B|251:225|251:225|266:290|232:331,2,159.999990463257,0|8|4,0:0|0:0|0:2,0:0:0:0:
414,53,98117,5,8,0:0:0:0:
320,77,98432,1,2,0:2:0:0:
228,49,98746,2,0,P|187:49|147:60,1,79.9999952316285,0|2,0:0|0:2,0:0:0:0:
69,112,99375,5,8,0:0:0:0:
41,204,99690,1,2,0:2:0:0:
104,276,100004,2,0,P|142:260|168:222,1,79.9999952316285,4|2,0:2|0:2,0:0:0:0:
228,156,100633,5,8,0:0:0:0:
324,176,100947,1,2,0:2:0:0:
400,236,101262,2,0,P|404:286|386:326,1,79.9999952316285,4|2,0:2|0:2,0:0:0:0:
304,348,101891,2,0,P|300:306|314:263,1,79.9999952316285,8|10,0:0|0:2,0:0:0:0:
324,176,102520,6,0,P|392:136|476:176,1,159.999990463257,4|8,0:0|0:0,0:0:0:0:
310,271,103778,2,0,P|275:289|234:295,1,79.9999952316285,0|2,0:0|0:2,0:0:0:0:
139,284,104407,2,0,P|80:232|68:145,1,159.999990463257,8|0,0:0|0:0,0:0:0:0:
206,23,105664,5,8,0:0:0:0:
324,175,106293,2,0,P|320:255|260:319,2,159.999990463257,0|8|4,0:0|0:0|0:2,0:0:0:0:
402,119,107866,6,0,L|486:131,2,79.9999952316285,2|8|2,0:2|0:0|0:2,0:0:0:0:
214,163,109124,2,0,L|122:175,2,79.9999952316285,2|8|2,0:2|0:0|0:2,0:0:0:0:
380,258,110381,5,2,0:2:0:0:
292,296,110696,2,0,L|200:312,1,79.9999952316285,8|2,0:0|0:2,0:0:0:0:
118,293,111325,2,0,P|46:257|14:185,1,159.999990463257,4|8,0:2|0:0,0:0:0:0:
256,192,112583,12,2,114784,2:0:0:0:
160,56,122646,6,0,P|116:48|68:64,1,79.9999952316285,4|2,0:0|0:2,0:0:0:0:
120,144,123275,2,0,P|137:221|202:272,1,159.999990463257,8|0,0:0|0:0,0:0:0:0:
380,212,124533,1,8,0:0:0:0:
424,128,124847,6,0,P|456:156|472:200,2,79.9999952316285,2|0|2,0:2|0:0|0:2,0:0:0:0:
328,132,125790,2,0,B|304:144|284:179|284:179|248:140|192:144,1,159.999990463257,8|0,0:0|0:0,0:0:0:0:
126,207,126734,1,2,0:2:0:0:
110,303,127048,2,0,P|149:302|185:285,1,79.9999952316285,8|2,0:0|0:2,0:0:0:0:
280,268,127677,6,0,L|328:336,1,79.9999952316285,4|2,0:2|0:2,0:0:0:0:
420,312,128306,2,0,P|460:268|468:164,2,159.999990463257,8|2|8,0:0|0:2|0:0,0:0:0:0:
324,332,129879,5,2,0:2:0:0:
280,248,130193,2,0,P|276:200|284:164,1,79.9999952316285,4|2,0:2|0:2,0:0:0:0:
304,76,130822,2,0,B|268:68|268:68|216:116|136:92,2,159.999990463257,8|4|8,0:0|0:0|0:0,0:0:0:0:
388,124,132394,6,0,P|388:204|340:268,1,159.999990463257,2|2,0:2|0:2,0:0:0:0:
252,304,133338,1,8,0:0:0:0:
168,260,133652,2,0,P|80:260|16:288,2,159.999990463257,2|2|2,0:2|0:2|0:2,0:0:0:0:
136,168,135225,6,0,P|111:92|127:12,2,159.999990463257,0|8|0,0:0|0:0|0:0,0:0:0:0:
224,212,136797,2,0,L|224:296,2,79.9999952316285,2|8|2,0:2|0:0|0:2,0:0:0:0:
312,168,137740,5,4,0:2:0:0:
188,24,138369,1,8,0:0:0:0:
368,88,138998,1,0,0:0:0:0:
312,168,139313,2,0,P|296:212|296:252,1,79.9999952316285,2|8,0:2|0:0,0:0:0:0:
336,332,139942,5,2,0:2:0:0:
420,284,140256,2,0,P|456:220|452:132,1,159.999990463257,4|8,0:2|0:0,0:0:0:0:
260,124,141514,2,0,P|216:196|212:276,2,159.999990463257,4|8|4,0:2|0:0|0:0,0:0:0:0:
348,80,143086,5,2,0:2:0:0:
412,152,143401,2,0,L|428:244,1,79.9999952316285,8|2,0:0|0:2,0:0:0:0:
336,260,144030,2,0,P|292:320|216:356,2,159.999990463257,0|8|4,0:0|0:0|0:0,0:0:0:0:
316,164,145602,5,2,0:2:0:0:
248,96,145917,2,0,L|168:96,1,79.9999952316285,8|2,0:0|0:2,0:0:0:0:
92,152,146545,2,0,P|32:100|12:16,2,159.999990463257,0|8|4,0:0|0:0|0:2,0:0:0:0:
179,197,148118,5,2,0:2:0:0:
268,238,148432,2,0,L|268:326,1,79.9999952316285,8|2,0:0|0:2,0:0:0:0:
360,360,149061,2,0,B|360:260|360:260|408:212,1,159.999990463257,0|8,0:0|0:0,0:0:0:0:
480,160,150005,1,2,0:2:0:0:
400,104,150319,6,0,P|321:93|246:118,1,159.999990463257,4|8,0:2|0:0,0:0:0:0:
180,188,151262,1,2,0:2:0:0:
84,184,151577,2,0,P|40:120|48:36,1,159.999990463257,4|8,0:2|0:0,0:0:0:0:
141,45,152520,1,2,0:2:0:0:
236,60,152835,2,0,P|308:96|348:172,1,159.999990463257,4|8,0:1|0:0,0:0:0:0:
352,260,153778,6,0,B|292:264|256:204|256:204|235:215|220:236,1,159.999990463257,2|2,0:2|0:2,0:0:0:0:
184,320,154722,2,0,B|136:300|124:240|124:240|144:180,2,159.999990463257,8|0|8,0:0|0:0|0:0,0:0:0:0:
272,356,156294,6,0,P|348:372|436:344,1,159.999990463257,2|2,0:2|0:2,0:0:0:0:
464,260,157237,2,0,B|481:207|481:207|469:147|417:127,1,159.999990463257,8|4,0:0|0:2,0:0:0:0:
328,100,158181,2,0,L|236:128,1,79.9999952316285,2|8,0:2|0:0,0:0:0:0:
244,220,158810,2,0,B|204:284|204:284|112:312,1,159.999990463257,2|2,0:2|0:2,0:0:0:0:
44,256,159753,1,8,0:0:0:0:
72,64,160382,6,0,P|88:108|120:144,1,79.9999952316285,4|10,0:2|0:2,0:0:0:0:
200,104,161011,2,0,P|228:128|272:144,1,79.9999952316285,8|2,0:0|0:2,0:0:0:0:
344,84,161640,2,0,B|388:88|432:64|432:64|432:144,1,159.999990463257,0|8,0:2|0:0,0:0:0:0:
428,228,162583,5,10,0:2:0:0:
360,296,162898,2,0,P|288:324|204:316,1,159.999990463257,4|8,0:0|0:0,0:0:0:0:
40,224,164156,2,0,L|124:204,1,79.9999952316285,0|2,0:0|0:2,0:0:0:0:
212,180,164785,2,0,P|268:128|288:48,1,159.999990463257,8|0,0:0|0:0,0:0:0:0:
96,20,166043,5,8,0:0:0:0:
112,208,166672,2,0,P|160:272|240:280,2,159.999990463257,0|8|4,0:0|0:0|0:2,0:0:0:0:
296,152,168558,5,8,0:0:0:0:
388,180,168873,1,2,0:2:0:0:
428,268,169187,2,0,P|416:308|388:344,1,79.9999952316285,0|2,0:0|0:2,0:0:0:0:
300,352,169816,5,8,0:0:0:0:
208,328,170131,1,2,0:2:0:0:
164,244,170445,2,0,P|180:208|212:168,1,79.9999952316285,4|2,0:2|0:2,0:0:0:0:
296,152,171074,6,0,B|340:156|340:156|404:128|412:72,1,159.999990463257,8|0,0:0|0:0,0:0:0:0:
316,56,172017,2,0,P|284:40|228:36,2,79.9999952316285,2|8|2,0:2|0:0|0:2,0:0:0:0:
296,152,172961,6,0,P|260:220|180:260,1,159.999990463257,4|8,0:0|0:0,0:0:0:0:
4,204,174219,1,0,0:0:0:0:
188,152,174848,2,0,P|268:184|296:260,1,159.999990463257,8|0,0:0|0:0,0:0:0:0:
472,328,176106,6,0,P|424:264|420:176,1,159.999990463257,8|0,0:0|0:0,0:0:0:0:
432,92,177049,2,0,L|508:124,2,79.9999952316285,2|8|2,0:2|0:0|0:2,0:0:0:0:
240,112,178307,6,0,L|156:56,2,79.9999952316285,2|8|2,0:2|0:0|0:2,0:0:0:0:
124,264,179565,2,0,L|196:312,2,79.9999952316285,2|8|2,0:2|0:0|0:2,0:0:0:0:
96,72,180823,5,2,0:2:0:0:
192,84,181137,2,0,P|215:120|220:168,1,79.9999952316285,8|2,0:0|0:2,0:0:0:0:
312,188,181766,2,0,P|284:232|252:248,1,79.9999952316285,4|2,0:2|0:2,0:0:0:0:
312,328,182395,2,0,P|272:340|224:336,2,79.9999952316285,8|2|4,0:0|0:2|0:0,0:0:0:0:
132,264,193087,6,0,P|98:192|120:104,1,159.999990463257,4|8,0:0|0:0,0:0:0:0:
280,20,194345,2,0,P|303:46|316:92,1,79.9999952316285,0|2,0:0|0:2,0:0:0:0:
396,140,194974,2,0,B|356:196|288:180|288:180|296:228,1,159.999990463257,8|0,0:0|0:0,0:0:0:0:
446,333,196232,5,8,0:0:0:0:
256,324,196861,2,0,P|196:280|176:188,2,159.999990463257,0|8|0,0:0|0:0|0:2,0:0:0:0:
315,248,198433,6,0,L|407:248,2,79.9999952316285,2|8|2,0:2|0:0|0:2,0:0:0:0:
135,178,199691,2,0,L|51:178,2,79.9999952316285,0|0|2,0:0|0:0|0:2,0:0:0:0:
216,126,200634,5,8,0:3:0:0:
216,126,200949,1,4,0:3:0:0:
286,61,201263,2,0,L|366:61,1,79.9999952316285,8|2,0:0|0:2,0:0:0:0:
436,128,201892,6,0,P|448:208|400:288,2,159.999990463257,4|8|4,0:2|0:0|0:0,0:0:0:0:
252,80,203779,1,8,0:0:0:0:
64,116,204408,2,0,P|60:160|72:204,1,79.9999952316285,0|2,0:0|0:2,0:0:0:0:
124,272,205037,2,0,P|188:236|284:240,1,159.999990463257,8|0,0:0|0:0,0:0:0:0:
448,316,206295,5,8,0:0:0:0:
396,236,206609,1,2,0:2:0:0:
384,140,206924,2,0,P|412:68|488:28,2,159.999990463257,0|8|4,0:0|0:0|0:2,0:0:0:0:
352,328,208810,5,8,0:0:0:0:
256,352,209125,1,2,0:2:0:0:
164,322,209439,2,0,P|145:286|141:246,1,79.9999952316285,0|2,0:0|0:2,0:0:0:0:
236,260,210068,5,8,0:0:0:0:
260,168,210383,1,2,0:2:0:0:
248,72,210697,2,0,P|220:40|176:24,1,79.9999952316285,4|2,0:2|0:2,0:0:0:0:
164,120,211326,5,8,0:0:0:0:
152,216,211641,1,2,0:2:0:0:
236,260,211955,2,0,P|276:272|320:272,1,79.9999952316285,4|2,0:2|0:2,0:0:0:0:
408,248,212584,2,0,P|424:204|424:164,1,79.9999952316285,8|10,0:0|0:2,0:0:0:0:
380,84,213213,6,0,B|300:68|300:68|224:96,1,159.999990463257,4|8,0:0|0:0,0:0:0:0:
84,224,214471,2,0,L|63:305,1,79.9999952316285,0|2,0:0|0:2,0:0:0:0:
152,344,215100,2,0,P|232:344|304:284,1,159.999990463257,8|0,0:0|0:0,0:0:0:0:
332,109,216358,5,8,0:0:0:0:
488,220,216987,2,0,B|500:256|484:300|484:300|444:324|416:360,2,159.999990463257,0|8|4,0:0|0:0|0:0,0:0:0:0:
396,252,218559,6,0,P|362:258|316:256,2,79.9999952316285,2|8|2,0:2|0:0|0:2,0:0:0:0:
324,76,219817,2,0,P|288:72|244:80,2,79.9999952316285,2|8|2,0:2|0:0|0:2,0:0:0:0:
228,244,221075,5,2,0:2:0:0:
132,228,221389,2,0,P|101:210|72:172,1,79.9999952316285,8|2,0:0|0:2,0:0:0:0:
56,80,222018,2,0,B|64:36|104:20|104:20|132:40|184:36,2,159.999990463257,4|8|4,0:2|0:0|0:0,0:0:0:0:
76,176,223590,5,2,0:2:0:0:
164,216,223905,2,0,P|235:211|308:164,1,159.999990463257,8|0,0:0|0:0,0:0:0:0:
352,80,224848,1,2,0:2:0:0:
436,128,225163,2,0,P|468:188|472:284,1,159.999990463257,8|4,0:0|0:2,0:0:0:0:
424,360,226106,5,2,0:2:0:0:
360,288,226421,2,0,P|336:264|292:244,1,79.9999952316285,0|2,0:0|0:2,0:0:0:0:
200,232,227050,2,0,P|216:152|200:72,2,159.999990463257,0|8|4,0:0|0:0|0:0,0:0:0:0:
140,308,228622,5,2,0:2:0:0:
232,332,228936,2,0,P|312:312|368:256,1,159.999990463257,8|0,0:0|0:0,0:0:0:0:
396,168,229880,1,2,0:2:0:0:
300,168,230194,2,0,P|221:153|156:108,1,159.999990463257,8|4,0:0|0:2,0:0:0:0:
88,40,231138,6,0,L|20:92,2,79.9999952316285,2|8|2,0:2|0:0|0:2,0:0:0:0:
184,20,232081,2,0,P|240:76|236:160,2,159.999990463257,0|12|4,0:0|0:0|0:0,0:0:0:0:
88,40,233654,5,2,0:2:0:0:
52,128,233968,2,0,P|56:208|100:276,1,159.999990463257,8|0,0:0|0:0,0:0:0:0:
192,288,234911,1,2,0:2:0:0:
280,248,235226,2,0,P|304:164|284:92,1,159.999990463257,8|4,0:0|0:2,0:0:0:0:
212,36,236169,5,2,0:2:0:0:
144,104,236484,2,0,P|144:144|160:184,1,79.9999952316285,8|2,0:0|0:2,0:0:0:0:
236,236,237113,2,0,P|312:252|396:236,2,159.999990463257,0|8|4,0:0|0:0|0:0,0:0:0:0:
156,180,238685,5,2,0:2:0:0:
168,84,238999,2,0,P|232:52|320:44,1,159.999990463257,8|0,0:0|0:0,0:0:0:0:
404,92,239943,1,2,0:2:0:0:
416,188,240257,2,0,P|364:256|292:292,1,159.999990463257,8|4,0:0|0:2,0:0:0:0:
204,296,241201,6,0,P|164:295|118:275,2,79.9999952316285,2|8|2,0:2|0:0|0:2,0:0:0:0:
240,208,242144,2,0,P|244:128|216:52,2,159.999990463257,0|8|4,0:0|0:0|0:0,0:0:0:0:
132,216,246232,6,0,L|132:304,2,79.9999952316285,2|8|2,0:2|0:0|0:2,0:0:0:0:
180,132,247176,2,0,B|224:124|256:148|256:148|288:124|332:131,1,159.999990463257,0|8,0:0|0:0,0:0:0:0:
380,216,248119,2,0,L|380:300,1,79.9999952316285,2|4,0:2|0:0,0:0:0:0:
256,284,251264,5,2,0:2:0:0:
344,244,251578,2,0,P|364:204|364:164,1,79.9999952316285,8|2,0:0|0:2,0:0:0:0:
320,84,252207,1,0,0:0:0:0:
228,60,252522,1,2,0:2:0:0:
132,72,252836,2,0,B|144:120|176:140|176:140|168:180|188:224,1,159.999990463257,8|4,0:0|0:0,0:0:0:0:
