osu file format v13

[General]
AudioFilename: M.mp3
AudioLeadIn: 0
PreviewTime: 71702
Countdown: 0
SampleSet: Normal
StackLeniency: 0.6
Mode: 0
LetterboxInBreaks: 1
EpilepsyWarning: 1
WidescreenStoryboard: 0

[Editor]
Bookmarks: 11795
DistanceSpacing: 1.3
BeatDivisor: 4
GridSize: 4
TimelineZoom: 1

[Metadata]
Title:Mai Ya Tang
TitleUnicode:麥芽糖
Artist:Jay Chou
ArtistUnicode:周杰倫
Creator:liangv587
Version:Insane
Source:
Tags:十一月的萧邦 11月的蕭邦 november's chopin 周杰伦 chou chieh lun zhou jie 麦芽糖 malt candy
BeatmapID:332783
BeatmapSetID:132303

[Difficulty]
HPDrainRate:6.4
CircleSize:4
OverallDifficulty:7
ApproachRate:8
SliderMultiplier:3.19999990463257
SliderTickRate:4

[Events]
//Background and Video events
0,0,"M.jpg",0,0
//Break Periods
2,115099,122210
2,183224,192337
//Storyboard Layer 0 (Background)
//Storyboard Layer 1 (Fail)
//Storyboard Layer 2 (Pass)
//Storyboard Layer 3 (Foreground)
//Storyboard Sound Samples

[TimingPoints]
1890,628.93894736842,4,1,2,40,1,0
19343,-100,4,1,2,50,0,0
32236,-100,4,1,2,60,0,0
51576,-133.333333333333,4,2,1,60,0,0
71230,-100,4,1,1,60,0,0
92457,-100,4,1,1,60,0,1
112583,-100,4,1,1,60,0,0
113841,-100,4,1,1,50,0,0
114470,-100,4,1,1,40,0,0
122489,-100,4,1,2,60,0,0
142143,-111.111111111111,4,1,2,60,0,0
142457,-125,4,1,1,60,0,0
142929,-133.333333333333,4,2,1,60,0,0
160225,-100,4,1,1,60,0,0
162898,-100,4,1,1,60,0,1
183024,-100,4,1,1,60,0,0
192930,-100,4,1,1,50,0,0
203150,-100,4,1,1,70,0,1
223276,-100,4,1,1,60,0,0
243559,-133.333333333333,4,1,2,50,0,0
252679,-133.333333333333,4,1,2,40,0,0
253072,-133.333333333333,4,1,2,30,0,0

[Colours]
Combo1 : 0,128,0
Combo2 : 170,0,170
Combo3 : 255,128,0

[HitObjects]
80,148,11953,6,0,P|88:232|140:296,1,159.999995231628,4|2,0:0|0:2,0:0:0:0:
208,312,12424,1,0,0:0:0:0:
256,248,12581,1,8,0:0:0:0:
256,248,12896,1,2,0:2:0:0:
322,56,13210,2,0,P|368:119|374:198,1,159.999995231628,0|2,0:0|0:2,0:0:0:0:
334,268,13682,1,0,0:0:0:0:
256,248,13839,1,8,0:0:0:0:
255,248,14154,1,2,0:2:0:0:
128,344,14468,5,0,0:0:0:0:
128,344,14783,1,2,0:2:0:0:
80,280,14940,1,0,0:0:0:0:
88,200,15097,2,0,P|128:132|208:116,1,159.999995231628,8|2,0:0|0:2,0:0:0:0:
449,183,15726,2,0,P|409:251|329:267,1,159.999995231628,0|2,0:0|0:2,0:0:0:0:
188,212,16355,1,8,0:0:0:0:
256,32,16984,5,4,0:2:0:0:
392,44,17299,1,2,0:2:0:0:
154,108,17613,1,8,0:0:0:0:
342,153,17927,1,2,0:2:0:0:
152,236,18242,2,0,P|116:312|44:360,1,159.999995231628,0|2,0:0|0:2,0:0:0:0:
32,139,18871,1,8,0:0:0:0:
211,181,19185,1,2,0:2:0:0:
312,336,19500,6,0,P|348:264|416:212,1,159.999995231628,4|2,0:2|0:2,0:0:0:0:
372,28,20129,2,0,P|300:64|216:56,1,159.999995231628,8|8,0:0|0:0,0:0:0:0:
148,28,20600,1,8,0:0:0:0:
80,72,20758,2,0,L|8:120,1,79.9999976158142,4|8,0:2|0:3,0:0:0:0:
104,152,21072,2,0,L|72:240,1,79.9999976158142,4|4,0:3|0:3,0:0:0:0:
172,204,21387,2,0,L|184:300,1,79.9999976158142,8|8,0:0|0:3,0:0:0:0:
256,208,21701,2,0,L|328:264,1,79.9999976158142,4|4,0:3|0:3,0:0:0:0:
352,184,22016,6,0,B|432:196|432:196|484:116,1,159.999995231628,4|2,0:0|0:2,0:0:0:0:
301,72,22644,2,0,B|221:60|221:60|173:132,1,159.999995231628,8|2,0:0|0:2,0:0:0:0:
172,204,23116,1,0,0:0:0:0:
182,283,23273,2,0,B|101:315,2,79.9999976158142,8|8|0,0:0|0:0|0:0,0:0:0:0:
134,29,23902,1,8,0:0:0:0:
89,209,24217,1,2,0:2:0:0:
302,72,24531,6,0,B|329:152|329:152|398:192,1,159.999995231628,0|0,0:0|0:0,0:0:0:0:
451,339,25160,2,0,B|382:300|382:300|300:319,1,159.999995231628,8|0,0:0|0:0,0:0:0:0:
225,337,25632,1,0,0:0:0:0:
152,304,25789,2,0,L|67:325,2,79.9999976158142,2|8|0,0:2|0:0|0:0,0:0:0:0:
33,195,26418,2,0,B|6:120|6:120|29:35,1,159.999995231628,8|2,0:0|0:2,0:0:0:0:
184,14,27047,5,4,0:2:0:0:
219,177,27362,1,2,0:2:0:0:
375,149,27676,2,0,B|402:224|402:224|379:309,1,159.999995231628,8|2,0:0|0:2,0:0:0:0:
302,318,28148,1,0,0:0:0:0:
239,268,28305,2,0,B|152:292,2,79.9999976158142,0|8|2,0:0|0:0|0:2,0:0:0:0:
290,116,28934,1,8,0:0:0:0:
132,145,29248,1,2,0:2:0:0:
86,312,29563,6,0,B|26:256|26:256|34:176,1,159.999995231628,4|2,0:2|0:2,0:0:0:0:
80,12,30192,2,0,B|140:68|140:68|132:148,1,159.999995231628,8|2,0:0|0:2,0:0:0:0:
190,200,30663,1,0,0:0:0:0:
155,272,30821,2,0,L|74:319,1,79.9999976158142,4|8,0:2|0:0,0:0:0:0:
238,269,31135,2,0,L|214:349,1,79.9999976158142,2|8,0:2|0:0,0:0:0:0:
317,291,31450,1,8,0:0:0:0:
328,68,31764,5,8,0:0:0:0:
368,136,31921,1,8,0:0:0:0:
332,208,32079,1,4,0:0:0:0:
389,362,32393,6,0,P|399:289|457:223,1,159.999995231628,2|8,0:2|0:0,0:0:0:0:
416,72,33022,2,0,L|368:136,1,79.9999976158142,2|0,0:2|0:0,0:0:0:0:
292,156,33336,2,8,P|220:124|188:52,2,159.999995231628,2|2|8,0:2|0:2|0:0,0:0:0:0:
132,148,34280,1,2,0:2:0:0:
76,204,34437,1,0,0:0:0:0:
16,256,34594,1,0,0:0:0:0:
168,274,34909,6,0,L|200:348,1,79.9999976158142,2|0,0:2|0:0,0:0:0:0:
192,200,35223,2,0,P|208:128|148:68,1,159.999995231628,8|2,0:0|0:2,0:0:0:0:
132,148,35695,2,0,P|116:228|172:276,1,159.999995231628
248,276,36167,1,2,0:2:0:0:
432,192,36481,1,8,0:0:0:0:
460,268,36638,1,0,0:0:0:0:
488,344,36796,1,2,0:2:0:0:
488,132,37110,6,0,P|416:112|352:176,1,159.999995231628,4|2,0:2|0:2,0:0:0:0:
28,252,37739,2,0,P|108:272|160:212,1,159.999995231628,8|2,0:0|0:2,0:0:0:0:
168,144,38211,2,0,B|228:300,1,159.999995231628
256,368,38682,1,2,0:2:0:0:
256,368,38997,1,8,0:0:0:0:
292,212,39311,5,2,0:2:0:0:
260,140,39469,1,0,0:0:0:0:
228,68,39626,2,0,P|152:48|80:100,1,159.999995231628,4|2,0:2|0:2,0:0:0:0:
292,212,40255,1,8,0:0:0:0:
76,167,40569,1,2,0:2:0:0:
76,168,40726,2,0,L|68:256,1,79.9999976158142,0|4,0:0|0:2,0:0:0:0:
108,316,41041,1,8,0:0:0:0:
156,252,41198,2,0,P|224:216|292:256,1,159.999995231628,2|8,0:2|0:0,0:0:0:0:
464,160,41827,6,0,P|396:116|364:36,1,159.999995231628,2|4,0:2|0:0,0:0:0:0:
124,100,42456,2,0,P|190:142|222:214,1,159.999995231628,2|8,0:2|0:0,0:0:0:0:
136,356,43085,2,0,L|56:344,1,79.9999976158142,2|0,0:2|0:0,0:0:0:0:
180,284,43399,2,0,L|100:272,1,79.9999976158142
224,216,43714,1,2,0:2:0:0:
264,148,43871,1,0,0:0:0:0:
308,80,44028,1,8,0:0:0:0:
376,264,44343,5,2,0:2:0:0:
300,240,44500,1,0,0:0:0:0:
224,216,44657,2,0,P|156:176|124:100,1,159.999995231628,0|2,0:0|0:2,0:0:0:0:
308,80,45286,2,0,P|371:113|408:196,1,159.999995231628,8|2,0:0|0:2,0:0:0:0:
376,264,45758,2,0,L|404:344,1,79.9999976158142
188,248,46230,2,0,L|216:340,1,79.9999976158142,2|0,0:2|0:0,0:0:0:0:
107,240,46544,2,0,L|131:320,1,79.9999976158142,8|0,0:0|0:0,0:0:0:0:
30,232,46859,1,2,0:2:0:0:
100,48,47173,5,4,0:2:0:0:
252,168,47488,1,2,0:2:0:0:
124,68,47802,1,8,0:0:0:0:
276,188,48117,1,2,0:2:0:0:
276,188,48274,2,0,P|340:148|364:64,1,159.999995231628
428,24,48745,2,0,L|496:68,1,79.9999976158142,2|0,0:2|0:0,0:0:0:0:
480,148,49060,1,8,0:0:0:0:
456,304,49374,6,0,L|388:260,1,79.9999976158142,2|0,0:2|0:0,0:0:0:0:
336,320,49689,2,0,P|256:328|192:380,1,159.999995231628,4|2,0:2|0:2,0:0:0:0:
84,260,50318,2,0,P|136:196|144:116,1,159.999995231628,8|2,0:0|0:2,0:0:0:0:
128,44,50790,2,0,B|160:100|160:100|260:128,1,159.999995231628,0|0,0:0|0:0,0:0:0:0:
328,108,51261,1,8,0:0:0:0:
368,176,51418,1,8,0:0:0:0:
408,248,51576,2,0,P|384:304|332:336,2,120.000001001358,8|2|4,1:0|0:2|0:1,0:0:0:0:
436,108,52519,5,2,0:2:0:0:
315,28,52834,2,0,P|263:56|247:112,1,120.000001001358,8|2,0:0|0:2,0:0:0:0:
284,180,53305,2,0,B|168:144,1,120.000001001358,0|0,0:0|0:0,0:0:0:0:
93,124,53777,1,2,0:2:0:0:
74,278,54091,2,0,L|138:254,1,60.0000005006791,8|0,0:0|0:0,0:0:0:0:
208,262,54406,2,0,P|240:318|240:374,1,120.000001001358,2|4,0:2|0:2,0:0:0:0:
240,372,55035,5,2,0:2:0:0:
240,372,55349,2,0,B|368:320,1,120.000001001358,8|2,0:0|0:2,0:0:0:0:
405,270,55821,2,0,P|409:214|369:162,1,120.000001001358
304,124,56293,2,0,L|352:68,1,60.0000005006791,2|0,0:2|0:0,0:0:0:0:
226,132,56607,2,0,L|251:195,1,60.0000005006791,8|0,0:0|0:0,0:0:0:0:
256,57,56922,2,0,B|200:37|200:37|136:53,1,120.000001001358,2|4,0:2|0:0,0:0:0:0:
200,252,57551,5,2,0:2:0:0:
200,252,57865,2,0,P|264:268|316:232,1,120.000001001358,8|2,0:0|0:2,0:0:0:0:
356,180,58337,2,0,P|409:154|469:170,1,120.000001001358
512,232,58808,1,2,0:2:0:0:
400,328,59123,1,8,0:0:0:0:
276,224,59437,1,2,0:2:0:0:
420,248,59752,5,4,0:2:0:0:
320,352,60066,1,2,0:2:0:0:
356,180,60381,1,8,0:0:0:0:
254,302,60695,1,2,0:2:0:0:
254,302,60853,1,0,1:0:0:0:
176,295,61010,2,0,L|112:287,1,60.0000005006791,4|8,0:0|0:0,0:0:0:0:
138,211,61324,6,0,B|142:167|142:167|106:95,2,120.000001001358,2|8|2,0:2|0:0|0:2,0:0:0:0:
252,120,62268,2,0,B|219:55|219:55|223:7,2,120.000001001358,4|2|8,0:0|0:2|0:0,0:0:0:0:
384,176,63211,5,2,0:2:0:0:
427,240,63368,2,0,B|430:288|430:288|395:356,1,120.000001001358
332,308,63840,2,0,L|276:328,1,60.0000005006791,2|0,0:2|0:0,0:0:0:0:
232,262,64154,1,8,0:0:0:0:
112,190,64469,2,0,L|132:118,1,60.0000005006791,2|0,0:2|0:0,0:0:0:0:
40,156,64783,1,0,0:0:0:0:
45,234,64941,2,0,P|93:270|161:250,1,120.000001001358,2|0,2:0|0:0,0:0:0:0:
193,196,65412,1,8,0:0:0:0:
280,64,65727,5,2,0:2:0:0:
280,64,65884,2,0,P|340:56|392:92,1,120.000001001358
409,162,66356,2,0,L|373:222,1,60.0000005006791,2|0,0:2|0:0,0:0:0:0:
390,290,66670,2,0,P|458:302|510:286,2,120.000001001358,8|2|4,0:0|0:2|0:2,0:0:0:0:
254,210,67614,2,0,L|282:158,1,60.0000005006791,2|0,0:2|0:0,0:0:0:0:
268,80,67928,2,0,P|209:67|144:80,1,120.000001001358,8|2,0:0|0:2,0:0:0:0:
178,150,68400,2,0,P|130:182|98:246,1,120.000001001358,0|8,0:0|0:0,0:0:0:0:
167,275,68871,2,0,L|151:335,1,60.0000005006791,2|0,0:2|0:0,0:0:0:0:
235,327,69186,2,0,P|295:335|351:371,1,120.000001001358,8|2,0:0|0:2,0:0:0:0:
312,220,69815,6,0,P|300:160|316:100,1,120.000001001358,4|10,0:2|0:2,0:0:0:0:
384,70,70287,2,0,P|416:74|444:86,1,60.0000005006791,2|8,0:2|0:0,0:0:0:0:
492,144,70601,2,0,P|476:204|432:252,1,120.000001001358,8|10,0:0|0:2,0:0:0:0:
366,277,71073,1,8,0:0:0:0:
320,32,71387,6,0,L|240:32,1,79.9999976158142,8|0,0:0|0:0,0:0:0:0:
280,108,71702,2,0,L|200:108,1,79.9999976158142,8|0,0:0|0:0,0:0:0:0:
240,184,72016,2,0,L|160:184,1,79.9999976158142,8|0,0:0|0:0,0:0:0:0:
192,264,72331,6,0,B|112:264|112:264|36:304,2,159.999995231628,4|0|8,0:0|0:0|0:0,0:0:0:0:
340,352,73274,2,0,P|372:336|404:304,1,79.9999976158142,0|0,0:0|0:0,0:0:0:0:
363,237,73589,1,0,0:0:0:0:
304,184,73746,2,0,B|304:104|304:104|368:48,1,159.999995231628,8|0,0:0|0:0,0:0:0:0:
444,52,74217,1,8,0:0:0:0:
504,104,74375,2,0,B|504:184|504:184|440:240,1,159.999995231628,0|0,0:0|0:0,0:0:0:0:
363,237,74846,1,0,0:0:0:0:
363,237,75161,1,0,0:0:0:0:
196,180,75475,5,8,0:0:0:0:
240,320,75790,1,0,0:0:0:0:
240,320,75947,2,0,P|160:328|88:276,1,159.999995231628
60,216,76419,1,0,0:0:0:0:
100,140,76576,2,0,L|48:64,1,79.9999976158142,0|8,0:0|0:0,0:0:0:0:
116,24,76890,2,0,P|200:20|268:68,1,159.999995231628,0|0,0:0|0:0,0:0:0:0:
292,136,77362,1,4,0:2:0:0:
292,136,77677,1,0,0:0:0:0:
240,284,77991,5,8,0:0:0:0:
292,344,78148,1,0,0:0:0:0:
372,356,78306,2,0,L|452:344,1,79.9999976158142,0|0,0:0|0:0,0:0:0:0:
408,276,78620,2,0,L|476:232,1,79.9999976158142,0|8,0:0|0:0,0:0:0:0:
404,192,78935,1,0,0:0:0:0:
404,192,79249,5,8,0:0:0:0:
328,164,79406,1,0,0:0:0:0:
284,96,79563,1,0,0:0:0:0:
284,96,79878,2,0,P|224:156|144:184,1,159.999995231628,4|0,0:2|0:0,0:0:0:0:
44,68,80507,5,8,0:0:0:0:
124,72,80664,1,0,0:0:0:0:
196,108,80821,2,0,P|240:168|208:248,1,159.999995231628,0|0,0:0|0:0,0:0:0:0:
152,296,81293,1,0,0:0:0:0:
152,296,81450,2,0,P|124:324|72:344,1,79.9999976158142,0|0,0:0|0:0,0:0:0:0:
20,300,81765,1,8,0:0:0:0:
20,220,81922,1,8,0:3:0:0:
88,176,82079,1,4,0:3:0:0:
156,216,82236,1,4,0:3:0:0:
224,260,82394,6,0,P|296:264|376:224,1,159.999995231628,4|0,0:0|0:0,0:0:0:0:
420,72,83023,1,8,0:0:0:0:
264,104,83337,1,0,0:0:0:0:
188,124,83494,2,0,L|108:88,1,79.9999976158142
132,180,83809,2,0,P|100:256|136:328,1,159.999995231628,0|0,0:0|0:0,0:0:0:0:
188,380,84281,1,8,0:0:0:0:
244,324,84438,2,0,P|276:256|240:180,1,159.999995231628,0|0,0:0|0:0,0:0:0:0:
188,124,84909,1,0,0:0:0:0:
188,124,85224,1,0,0:0:0:0:
352,204,85538,5,8,0:0:0:0:
352,204,85696,2,0,P|432:192|496:136,1,159.999995231628,0|0,0:0|0:0,0:0:0:0:
504,64,86167,1,0,0:0:0:0:
436,20,86325,1,8,0:0:0:0:
356,24,86482,1,0,0:0:0:0:
296,76,86639,1,8,0:0:0:0:
288,156,86796,1,8,0:0:0:0:
352,204,86953,2,0,P|360:280|324:360,1,159.999995231628,0|0,0:0|0:0,0:0:0:0:
252,380,87425,1,4,0:2:0:0:
112,300,87740,5,0,0:0:0:0:
112,300,88054,1,8,0:0:0:0:
112,140,88369,1,0,0:0:0:0:
176,188,88526,2,0,P|212:200|260:196,1,79.9999976158142,0|0,0:0|0:0,0:0:0:0:
304,260,88840,1,8,0:0:0:0:
384,256,88998,2,0,B|448:208|448:208|448:128,1,159.999995231628,0|8,0:0|0:0,0:0:0:0:
320,32,89626,2,0,B|256:80|256:80|256:160,1,159.999995231628,0|4,0:0|0:2,0:0:0:0:
256,352,90255,5,0,0:0:0:0:
256,352,90570,2,0,P|236:268|164:240,1,159.999995231628,8|0,0:0|0:0,0:0:0:0:
92,232,91042,2,0,P|52:180|64:88,1,159.999995231628,0|8,0:0|0:0,0:0:0:0:
116,32,91513,1,0,0:0:0:0:
196,24,91671,2,0,L|224:100,1,79.9999976158142,0|8,0:0|0:0,0:0:0:0:
264,168,91985,1,8,0:3:0:0:
340,188,92142,1,4,0:3:0:0:
404,140,92299,1,4,0:3:0:0:
420,60,92457,6,0,P|436:140|496:192,1,159.999995231628,4|0,0:0|0:0,0:0:0:0:
356,264,93086,1,8,0:0:0:0:
356,264,93400,2,0,L|324:344,1,79.9999976158142,0|0,0:0|0:0,0:0:0:0:
280,240,93715,2,0,L|248:164,1,79.9999976158142
220,292,94029,2,0,P|148:308|88:252,1,159.999995231628,8|0,0:0|0:0,0:0:0:0:
140,192,94501,2,0,P|167:122|120:44,1,159.999995231628,0|0,0:0|0:0,0:0:0:0:
56,24,94972,1,0,0:0:0:0:
56,24,95287,1,0,0:0:0:0:
200,160,95601,5,8,0:0:0:0:
360,188,95916,1,0,0:0:0:0:
360,188,96073,2,0,P|392:168|416:128,1,79.9999976158142
332,104,96388,2,0,P|307:68|269:51,2,79.9999976158142,8|0|0,0:0|0:0|0:0,0:0:0:0:
252,136,96859,1,8,0:0:0:0:
280,220,97017,2,0,B|294:260|336:276|368:276|368:276|424:276,1,159.999995231628,0|0,0:0|0:0,0:0:0:0:
504,272,97488,1,4,0:2:0:0:
504,272,97803,1,0,0:0:0:0:
484,104,98117,5,8,0:0:0:0:
440,172,98275,1,0,0:0:0:0:
360,188,98432,2,0,L|380:268,1,79.9999976158142,0|0,0:0|0:0,0:0:0:0:
288,148,98746,2,0,L|280:228,1,79.9999976158142
268,308,99061,1,0,0:0:0:0:
268,308,99375,5,8,0:0:0:0:
196,344,99532,1,0,0:0:0:0:
124,312,99690,1,0,0:0:0:0:
124,312,100004,2,0,P|108:240|124:152,1,159.999995231628,4|0,0:2|0:0,0:0:0:0:
280,228,100633,5,8,0:0:0:0:
280,228,100790,1,0,0:0:0:0:
356,184,100947,2,0,P|348:104|304:36,1,159.999995231628,0|8,0:0|0:0,0:0:0:0:
228,64,101419,1,0,0:0:0:0:
152,28,101576,2,0,P|144:72|156:108,1,79.9999976158142,0|0,0:0|0:0,0:0:0:0:
224,144,101891,1,8,0:0:0:0:
224,144,102048,1,8,0:3:0:0:
196,220,102205,1,4,0:3:0:0:
196,220,102362,1,4,0:3:0:0:
168,296,102520,6,0,P|244:260|320:272,1,159.999995231628,4|0,0:0|0:0,0:0:0:0:
452,356,103149,1,8,0:0:0:0:
386,187,103463,1,0,0:0:0:0:
386,187,103620,2,0,L|426:113,1,79.9999976158142,0|0,0:0|0:0,0:0:0:0:
284,186,103935,2,0,L|296:105,1,79.9999976158142
196,220,104249,2,0,L|178:135,1,79.9999976158142,0|8,0:0|0:0,0:0:0:0:
102,221,104564,2,0,P|58:157|54:77,1,159.999995231628,0|0,0:0|0:0,0:0:0:0:
96,8,105035,1,0,0:0:0:0:
96,8,105350,1,0,0:0:0:0:
304,36,105664,5,8,0:0:0:0:
436,124,105979,1,0,0:0:0:0:
436,124,106136,2,0,P|436:164|424:208,1,79.9999976158142
364,256,106451,1,0,0:0:0:0:
364,256,106608,1,0,0:0:0:0:
292,220,106765,2,0,P|288:176|300:132,1,79.9999976158142,0|8,0:0|0:0,0:0:0:0:
360,92,107080,2,0,B|184:132,1,159.999995231628,0|0,0:0|0:0,0:0:0:0:
124,144,107551,1,4,0:2:0:0:
124,144,107866,6,0,P|112:224|60:288,1,159.999995231628,0|8,0:0|0:0,0:0:0:0:
216,236,108495,1,0,0:0:0:0:
216,236,108652,2,0,P|288:216|376:240,1,159.999995231628
316,304,109124,2,0,P|240:324|160:304,2,159.999995231628,0|8|0,0:0|0:0|0:0,0:0:0:0:
424,180,110067,1,4,0:2:0:0:
300,24,110381,5,0,0:0:0:0:
300,24,110696,2,0,P|264:88|264:172,1,159.999995231628,8|0,0:0|0:0,0:0:0:0:
304,244,111168,1,0,0:0:0:0:
380,272,111325,2,0,P|396:304|392:352,1,79.9999976158142,0|8,0:0|0:0,0:0:0:0:
320,320,111639,1,0,0:0:0:0:
304,244,111797,2,0,P|332:208|372:192,1,79.9999976158142,8|8,0:3|0:3,0:0:0:0:
380,272,112111,1,0,0:0:0:0:
320,320,112268,2,0,P|280:320|244:296,1,79.9999976158142,4|4,0:3|0:3,0:0:0:0:
224,224,112583,5,4,0:0:0:0:
256,192,112740,12,2,114784,2:0:0:0:
420,152,122960,6,0,P|428:240|384:304,2,159.999995231628,2|8|2,0:2|0:0|0:2,0:0:0:0:
364,92,123746,2,0,L|392:16,2,79.9999976158142
292,124,124218,2,0,P|214:136|147:96,1,159.999995231628,2|8,0:2|0:0,0:0:0:0:
147,96,124847,5,2,0:2:0:0:
76,132,125004,1,0,0:0:0:0:
112,204,125162,2,0,P|108:284|60:356,1,159.999995231628,0|2,0:0|0:2,0:0:0:0:
204,268,125790,2,0,P|272:224|348:232,1,159.999995231628,8|2,0:0|0:2,0:0:0:0:
368,308,126262,2,0,P|372:224|416:160,1,159.999995231628
488,132,126734,1,2,0:2:0:0:
348,60,127048,1,8,0:0:0:0:
308,128,127206,1,0,0:0:0:0:
264,196,127363,1,2,0:2:0:0:
184,332,127677,6,0,B|152:260|152:260|76:208,1,159.999995231628,4|2,0:2|0:2,0:0:0:0:
60,28,128306,2,0,B|92:100|92:100|168:152,1,159.999995231628,8|2,0:0|0:2,0:0:0:0:
216,88,128778,2,0,P|276:40|364:32,1,159.999995231628
432,56,129250,1,2,0:2:0:0:
332,176,129564,1,8,0:0:0:0:
488,212,129879,5,2,0:2:0:0:
488,212,130036,1,0,0:0:0:0:
460,288,130193,2,0,P|400:332|312:340,1,159.999995231628,4|2,0:2|0:2,0:0:0:0:
72,248,130822,1,8,0:0:0:0:
72,248,131136,2,0,L|152:224,1,79.9999976158142,2|0,0:2|0:0,0:0:0:0:
228,244,131451,1,4,0:2:0:0:
304,224,131608,2,0,B|352:184|353:115|353:115|392:132,1,159.999995231628,8|2,0:0|0:2,0:0:0:0:
460,164,132080,1,8,0:0:0:0:
376,28,132394,5,2,0:2:0:0:
296,44,132552,1,8,0:0:0:0:
228,88,132709,2,0,P|212:168|233:254,1,159.999995231628,4|2,0:0|0:2,0:0:0:0:
356,336,133338,1,8,0:0:0:0:
432,196,133652,1,2,0:2:0:0:
356,176,133809,2,0,P|316:176|272:188,1,79.9999976158142
127,278,134281,1,2,0:2:0:0:
202,303,134438,2,0,P|242:303|286:291,1,79.9999976158142,0|8,0:0|0:0,0:0:0:0:
260,104,134910,5,2,0:2:0:0:
180,96,135067,1,0,0:0:0:0:
104,120,135225,2,0,B|128:288,1,159.999995231628,0|2,0:0|0:2,0:0:0:0:
300,340,135853,2,0,B|272:160,1,159.999995231628,8|2,0:0|0:2,0:0:0:0:
336,132,136325,2,0,L|424:140,1,79.9999976158142
472,196,136640,1,8,0:0:0:0:
456,276,136797,2,0,L|364:268,1,79.9999976158142,2|0,0:2|0:0,0:0:0:0:
300,340,137111,2,0,L|392:348,1,79.9999976158142,8|0,0:0|0:0,0:0:0:0:
296,260,137426,1,2,0:2:0:0:
84,300,137740,5,4,0:2:0:0:
212,144,138055,1,2,0:2:0:0:
112,268,138369,1,8,0:0:0:0:
240,112,138684,1,2,0:2:0:0:
300,164,138841,2,0,P|380:156|432:96,1,159.999995231628,0|8,0:0|0:0,0:0:0:0:
440,208,139312,2,0,P|468:184|492:148,1,79.9999976158142,2|0,0:2|0:0,0:0:0:0:
500,68,139627,1,8,0:0:0:0:
243,34,139941,6,0,P|235:70|243:122,1,79.9999976158142,2|0,0:2|0:0,0:0:0:0:
168,16,140256,2,0,P|160:96|184:176,1,159.999995231628,4|2,0:2|0:2,0:0:0:0:
112,336,140885,2,0,P|100:260|52:184,1,159.999995231628,8|2,0:0|0:2,0:0:0:0:
124,236,141357,2,0,P|200:256|264:196,1,159.999995231628,0|8,0:0|0:0,0:0:0:0:
301,136,141828,6,0,L|348:208,1,79.9999976158142,2|0,0:2|0:0,0:0:0:0:
416,156,142143,2,0,L|428:236,1,71.9999956569673,8|0,0:0|0:0,0:0:0:0:
508,216,142457,2,0,L|496:284,1,63.9999980926514,2|0,0:2|0:0,0:0:0:0:
508,216,142772,1,4,0:0:0:0:
368,340,143086,5,2,0:2:0:0:
368,340,143401,2,0,P|308:328|260:277,1,120.000001001358,8|2,0:0|0:2,0:0:0:0:
297,217,143872,2,0,B|189:289,1,120.000001001358
119,271,144344,1,2,0:2:0:0:
48,131,144659,2,0,L|124:147,1,60.0000005006791,8|0,0:0|0:0,0:0:0:0:
184,128,144973,2,0,P|212:72|208:12,1,120.000001001358,2|4,0:2|0:2,0:0:0:0:
216,208,145602,5,2,0:2:0:0:
216,208,145917,2,0,B|328:132,1,120.000001001358,8|2,0:0|0:2,0:0:0:0:
359,76,146388,2,0,P|347:140|371:200,1,120.000001001358,0|8,0:0|0:0,0:0:0:0:
441,206,146860,2,0,L|505:214,1,60.0000005006791,2|0,0:2|0:0,0:0:0:0:
391,265,147174,2,0,L|339:329,1,60.0000005006791,8|0,0:0|0:0,0:0:0:0:
275,322,147489,2,0,P|211:314|155:278,1,120.000001001358,2|4,0:2|0:0,0:0:0:0:
260,176,148118,5,2,0:2:0:0:
260,176,148432,2,0,B|231:43,1,120.000001001358,8|2,0:0|0:2,0:0:0:0:
156,52,148904,2,0,B|184:176,1,120.000001001358,0|8,0:0|0:0,0:0:0:0:
142,235,149376,1,2,0:2:0:0:
235,60,149690,1,8,0:0:0:0:
421,71,150004,1,2,0:2:0:0:
260,176,150319,5,4,0:2:0:0:
341,323,150633,1,2,0:2:0:0:
174,341,150948,2,0,B|142:313|142:313|142:233,1,120.000001001358,8|2,0:0|0:2,0:0:0:0:
168,161,151420,1,0,0:0:0:0:
226,110,151577,2,0,B|226:34,1,60.0000005006791,4|8,0:2|0:0,0:0:0:0:
296,148,151891,6,0,B|328:180|328:180|328:260,2,120.000001001358,2|8|2,0:2|0:0|0:2,0:0:0:0:
226,110,152678,1,8,0:0:0:0:
168,161,152835,2,0,B|136:193|136:193|52:193,2,120.000001001358,4|2|8,0:0|0:2|0:0,0:0:0:0:
288,48,153778,5,2,0:2:0:0:
288,48,153935,2,0,B|337:48|337:48|361:24|361:24|409:24,1,120.000001001358,0|8,0:0|0:0,0:0:0:0:
471,50,154407,2,0,L|479:118,1,60.0000005006791,2|0,0:2|0:0,0:0:0:0:
487,186,154721,1,8,0:0:0:0:
404,306,155036,2,0,L|396:238,1,60.0000005006791,2|0,0:2|0:0,0:0:0:0:
387,170,155350,1,0,0:0:0:0:
308,168,155508,2,0,B|272:168|272:168|244:204|244:204|204:204,1,120.000001001358,2|0,2:0|0:0,0:0:0:0:
127,199,155979,1,8,0:0:0:0:
136,29,156294,5,2,0:2:0:0:
136,29,156451,2,0,P|172:77|168:141,1,120.000001001358,0|8,0:0|0:0,0:0:0:0:
127,199,156923,2,0,L|75:167,1,60.0000005006791,2|0,0:2|0:0,0:0:0:0:
35,234,157237,2,0,P|39:290|75:346,2,120.000001001358,8|2|4,0:0|0:2|0:2,0:0:0:0:
192,244,158181,5,2,0:2:0:0:
192,244,158338,1,0,0:0:0:0:
266,265,158495,2,0,P|298:321|278:373,1,120.000001001358,8|2,0:0|0:2,0:0:0:0:
215,326,158967,2,0,B|343:308,1,120.000001001358,0|8,0:0|0:0,0:0:0:0:
387,253,159438,2,0,L|395:189,1,60.0000005006791,2|0,0:2|0:0,0:0:0:0:
352,128,159753,2,0,B|224:156,1,120.000001001358,8|2,0:0|0:2,0:0:0:0:
235,153,160382,5,4,0:2:0:0:
235,153,160697,1,10,0:2:0:0:
180,96,160854,2,0,P|180:56|204:12,1,79.9999976158142,0|8,0:0|0:0,0:0:0:0:
268,76,161168,2,0,P|316:136|292:212,1,159.999995231628,0|10,0:0|0:2,0:0:0:0:
215,227,161640,5,8,0:0:0:0:
137,206,161797,2,0,P|100:225|80:261,1,79.9999976158142,8|2,0:0|0:2,0:0:0:0:
157,283,162112,1,8,0:0:0:0:
215,227,162269,2,0,P|217:185|198:151,1,79.9999976158142,8|4,0:3|0:3,0:0:0:0:
157,283,162583,2,0,P|190:303|234:306,1,79.9999976158142,8|8,0:0|0:0,0:0:0:0:
215,227,162898,6,0,P|277:175|267:103,1,159.999995231628,4|0,0:0|0:0,0:0:0:0:
267,103,163527,1,8,0:0:0:0:
367,226,163841,1,0,0:0:0:0:
367,226,163999,1,0,0:0:0:0:
443,206,164156,2,0,P|479:226|503:266,1,79.9999976158142
419,290,164470,2,0,P|339:306|283:242,1,159.999995231628,0|8,0:0|0:0,0:0:0:0:
303,178,164942,2,0,P|291:102|219:66,1,159.999995231628,0|0,0:0|0:0,0:0:0:0:
143,70,165413,1,0,0:0:0:0:
19,245,165728,1,0,0:0:0:0:
168,180,166042,5,8,0:0:0:0:
16,56,166357,1,0,0:0:0:0:
16,56,166514,2,0,P|24:128|96:184,1,159.999995231628,0|8,0:0|0:0,0:0:0:0:
168,180,166986,1,0,0:0:0:0:
168,180,167143,2,0,L|232:132,1,79.9999976158142,0|8,0:0|0:0,0:0:0:0:
312,140,167458,2,0,P|366:189|372:276,1,159.999995231628,0|0,0:0|0:0,0:0:0:0:
328,340,167929,1,4,0:2:0:0:
484,248,168244,1,0,0:0:0:0:
280,236,168558,5,8,0:0:0:0:
200,244,168715,1,0,0:0:0:0:
128,280,168873,2,0,P|96:308|76:348,1,79.9999976158142,0|0,0:0|0:0,0:0:0:0:
76,216,169187,2,0,P|68:180|44:140,1,79.9999976158142,0|8,0:0|0:0,0:0:0:0:
148,180,169502,1,0,0:0:0:0:
148,180,169816,5,8,0:0:0:0:
228,168,169973,1,0,0:0:0:0:
301,132,170131,2,0,P|333:104|349:60,1,79.9999976158142,0|0,0:0|0:0,0:0:0:0:
228,88,170445,2,0,P|231:172|296:216,1,159.999995231628,4|0,0:2|0:0,0:0:0:0:
288,214,171074,5,8,0:0:0:0:
348,268,171231,1,0,0:0:0:0:
428,284,171388,2,0,P|468:224|472:132,1,159.999995231628,0|0,0:0|0:0,0:0:0:0:
440,64,171860,1,0,0:0:0:0:
368,28,172017,2,0,L|288:40,1,79.9999976158142,8|0,0:0|0:0,0:0:0:0:
244,144,172332,2,0,L|324:132,1,79.9999976158142,8|0,0:0|0:0,0:0:0:0:
404,212,172646,2,0,L|324:224,1,79.9999976158142,8|8,0:0|0:0,0:0:0:0:
244,144,172961,6,0,P|244:208|188:288,1,159.999995231628,4|0,0:0|0:0,0:0:0:0:
31,285,173590,1,8,0:0:0:0:
92,136,173904,1,0,0:0:0:0:
92,136,174061,2,0,L|176:140,1,79.9999976158142
132,216,174376,2,0,B|211:221|211:221|272:274,1,159.999995231628,8|0,0:0|0:0,0:0:0:0:
266,354,174848,1,8,0:0:0:0:
195,313,175005,2,0,P|200:228|264:188,1,159.999995231628,0|0,0:0|0:0,0:0:0:0:
336,176,175476,1,0,0:0:0:0:
436,288,175791,1,0,0:0:0:0:
492,76,176106,5,8,0:0:0:0:
468,152,176263,2,0,P|416:204|328:212,1,159.999995231628,0|0,0:0|0:0,0:0:0:0:
256,188,176734,1,0,0:0:0:0:
256,188,176892,1,8,0:0:0:0:
196,240,177049,1,0,0:0:0:0:
196,240,177206,1,0,0:0:0:0:
116,232,177363,1,8,0:0:0:0:
116,232,177521,2,0,B|64:172|64:172|68:88,1,159.999995231628,0|0,0:0|0:0,0:0:0:0:
128,36,177992,1,4,0:2:0:0:
324,24,178307,5,0,0:0:0:0:
164,32,178621,1,8,0:0:0:0:
360,20,178936,1,0,0:0:0:0:
360,20,179093,2,0,L|344:100,1,79.9999976158142
380,168,179407,1,8,0:0:0:0:
456,192,179565,2,0,P|460:272|416:340,1,159.999995231628,0|8,0:0|0:0,0:0:0:0:
232,344,180193,2,0,B|278:276|278:276|354:240,1,159.999995231628,0|4,0:0|0:2,0:0:0:0:
204,176,180823,5,0,0:0:0:0:
57,119,181137,2,0,B|132:84|132:84|176:16,1,159.999995231628,8|0,0:0|0:0,0:0:0:0:
240,68,181609,2,0,L|240:148,1,79.9999976158142,8|0,0:0|0:0,0:0:0:0:
308,24,181923,2,0,L|356:100,1,79.9999976158142,8|0,0:0|0:0,0:0:0:0:
424,120,182238,1,8,0:0:0:0:
451,194,182395,1,8,0:0:0:0:
430,271,182552,1,8,0:3:0:0:
367,321,182709,1,8,0:3:0:0:
287,322,182867,1,4,0:3:0:0:
222,277,183024,5,4,0:0:0:0:
180,300,193087,6,0,P|232:236|232:148,1,159.999995231628,4|0,0:0|0:0,0:0:0:0:
140,32,193716,1,8,0:0:0:0:
304,116,194030,1,0,0:0:0:0:
228,80,194187,2,0,P|164:116|160:196,1,159.999995231628,0|8,0:0|0:0,0:0:0:0:
236,160,194659,1,0,0:0:0:0:
304,116,194816,2,0,L|304:28,1,79.9999976158142,0|8,0:0|0:0,0:0:0:0:
384,88,195131,2,0,P|372:172|308:204,1,159.999995231628,0|0,0:0|0:0,0:0:0:0:
236,160,195603,2,0,B|236:328,1,159.999995231628,0|0,0:0|0:0,0:0:0:0:
236,352,196231,5,8,0:0:0:0:
88,292,196546,1,0,0:0:0:0:
88,292,196703,2,0,P|112:264|128:220,1,79.9999976158142
110,145,197018,1,0,0:0:0:0:
110,145,197175,1,0,0:0:0:0:
172,84,197332,2,0,P|184:124|212:156,1,79.9999976158142,0|8,0:0|0:0,0:0:0:0:
288,172,197647,2,0,P|360:148|416:80,1,159.999995231628,0|0,0:0|0:0,0:0:0:0:
416,4,198118,1,4,0:2:0:0:
244,4,198433,6,0,P|208:72|212:160,1,159.999995231628,0|8,0:0|0:0,0:0:0:0:
396,160,199062,1,0,0:0:0:0:
396,160,199219,2,0,P|392:244|352:316,1,159.999995231628
280,284,199691,2,0,P|200:284|128:328,2,159.999995231628,0|8|0,0:0|0:0|0:0,0:0:0:0:
168,168,200634,1,12,0:2:0:0:
48,64,200948,5,4,0:3:0:0:
60,251,201263,2,0,P|110:191|116:108,1,159.999995231628,8|0,0:0|0:0,0:0:0:0:
140,36,201735,1,0,0:0:0:0:
220,36,201892,2,0,L|293:67,1,79.9999976158142,8|8,0:0|0:3,0:0:0:0:
310,158,202207,2,0,L|236:127,1,79.9999976158142,4|4,0:3|0:3,0:0:0:0:
260,225,202521,2,0,L|343:264,1,79.9999976158142,8|8,0:0|0:3,0:0:0:0:
342,351,202835,2,0,L|270:315,1,79.9999976158142,4|4,0:3|0:3,0:0:0:0:
200,280,203150,6,0,P|132:324|52:312,1,159.999995231628,4|0,0:0|0:0,0:0:0:0:
184,196,203779,1,8,0:0:0:0:
320,108,204093,2,0,L|228:120,1,79.9999976158142,0|0,0:0|0:0,0:0:0:0:
308,28,204408,1,0,0:0:0:0:
384,56,204565,2,0,P|400:132|344:188,1,159.999995231628,8|0,0:0|0:0,0:0:0:0:
265,191,205037,1,8,0:0:0:0:
232,264,205194,2,0,P|260:336|340:360,1,159.999995231628,0|0,0:0|0:0,0:0:0:0:
404,324,205665,1,0,0:0:0:0:
404,324,205980,6,0,L|444:240,1,79.9999976158142,0|0,0:0|0:0,0:0:0:0:
420,172,206294,1,8,0:0:0:0:
300,64,206609,1,0,0:0:0:0:
300,64,206766,2,0,L|332:140,1,79.9999976158142
216,64,207081,2,0,L|252:148,1,79.9999976158142,8|0,0:0|0:0,0:0:0:0:
132,64,207395,2,0,L|164:140,1,79.9999976158142,0|8,0:0|0:0,0:0:0:0:
48,64,207710,2,0,B|80:136|80:136|86:182|68:218,1,159.999995231628,0|0,0:0|0:0,0:0:0:0:
14,274,208181,1,4,0:2:0:0:
284,208,208496,1,0,0:0:0:0:
144,332,208810,5,8,0:0:0:0:
144,332,208968,1,0,0:0:0:0:
220,356,209125,2,0,L|227:275,1,79.9999976158142,0|0,0:0|0:0,0:0:0:0:
312,283,209439,2,0,L|284:207,1,79.9999976158142,0|8,0:0|0:0,0:0:0:0:
360,184,209754,1,0,0:0:0:0:
276,28,210068,5,8,0:0:0:0:
276,28,210225,1,0,0:0:0:0:
192,24,210383,2,0,L|220:104,1,79.9999976158142,0|0,0:0|0:0,0:0:0:0:
140,108,210697,2,0,B|128:188|128:188|64:248,1,159.999995231628,4|0,0:2|0:0,0:0:0:0:
256,208,211326,5,8,0:0:0:0:
256,208,211483,1,0,0:0:0:0:
336,220,211641,2,0,L|320:304,1,79.9999976158142,0|8,0:0|0:0,0:0:0:0:
424,344,211955,2,0,L|404:260,1,79.9999976158142,0|8,0:0|0:0,0:0:0:0:
472,212,212270,2,0,L|492:296,1,79.9999976158142,0|0,0:0|0:0,0:0:0:0:
500,136,212584,1,8,0:0:0:0:
420,148,212741,1,8,0:3:0:0:
344,132,212899,1,4,0:3:0:0:
280,84,213055,1,4,0:3:0:0:
248,12,213213,6,0,P|232:92|176:152,1,159.999995231628,4|0,0:0|0:0,0:0:0:0:
8,76,213842,1,8,0:0:0:0:
144,76,214156,1,0,0:0:0:0:
144,76,214314,2,0,P|144:156|92:220,1,159.999995231628,0|8,0:0|0:0,0:0:0:0:
28,256,214785,1,0,0:0:0:0:
96,300,214942,2,0,P|140:304|184:296,1,79.9999976158142,0|8,0:0|0:0,0:0:0:0:
248,264,215257,2,0,B|296:200|296:200|296:116,1,159.999995231628,0|0,0:0|0:0,0:0:0:0:
364,80,215729,2,0,B|411:144|411:144|411:224,1,159.999995231628,0|0,0:0|0:0,0:0:0:0:
300,336,216358,5,8,0:0:0:0:
456,300,216672,1,0,0:0:0:0:
456,300,216829,2,0,L|372:308,1,79.9999976158142
316,256,217144,1,8,0:0:0:0:
316,256,217301,1,0,0:0:0:0:
356,188,217458,2,0,L|456:176,1,79.9999976158142,0|8,0:0|0:0,0:0:0:0:
360,108,217773,2,0,B|201:126,1,159.999995231628,0|0,0:0|0:0,0:0:0:0:
120,132,218244,1,4,0:2:0:0:
136,356,218559,6,0,P|161:290|168:200,1,159.999995231628,0|8,0:0|0:0,0:0:0:0:
64,36,219188,1,0,0:0:0:0:
64,36,219345,2,0,P|40:104|32:196,1,159.999995231628
84,252,219817,2,0,P|156:292|232:272,2,159.999995231628,0|8|0,0:0|0:0|0:0,0:0:0:0:
268,116,220760,1,4,0:2:0:0:
396,272,221075,5,0,0:0:0:0:
396,272,221389,2,0,P|328:312|248:292,1,159.999995231628,8|0,0:0|0:0,0:0:0:0:
192,240,221861,2,0,L|160:324,1,79.9999976158142,0|0,0:0|0:0,0:0:0:0:
168,164,222175,2,0,L|84:224,1,79.9999976158142,8|0,0:0|0:0,0:0:0:0:
184,84,222490,1,0,0:0:0:0:
184,84,222647,2,0,L|92:96,1,79.9999976158142,8|8,0:0|0:0,0:0:0:0:
236,20,222962,2,0,L|328:8,1,79.9999976158142,0|8,0:0|0:0,0:0:0:0:
236,20,223276,1,4,0:0:0:0:
268,176,223590,6,0,P|304:244|392:276,1,159.999995231628,2|8,0:2|0:0,0:0:0:0:
472,148,224219,1,2,0:2:0:0:
472,148,224377,1,0,0:0:0:0:
420,88,224534,1,0,0:0:0:0:
420,88,224691,1,8,0:0:0:0:
348,56,224848,2,0,P|272:64|212:128,1,159.999995231628,2|8,0:2|0:0,0:0:0:0:
268,272,225477,1,2,0:2:0:0:
268,272,225635,1,0,0:0:0:0:
204,320,225792,2,0,P|164:332|120:336,1,79.9999976158142
68,280,226106,6,0,P|52:208|80:120,1,159.999995231628,2|8,0:2|0:0,0:0:0:0:
236,104,226735,2,0,L|176:160,1,79.9999976158142,2|0,0:2|0:0,0:0:0:0:
255,194,227050,2,0,L|235:282,1,79.9999976158142,0|8,0:0|0:0,0:0:0:0:
319,261,227364,2,0,P|387:297|475:297,1,159.999995231628,2|8,0:2|0:0,0:0:0:0:
432,136,227993,2,0,L|488:76,1,79.9999976158142,2|0,0:2|0:0,0:0:0:0:
388,68,228308,1,4,0:2:0:0:
236,20,228622,6,0,L|280:86,1,79.9999976158142,2|0,0:2|0:0,0:0:0:0:
248,160,228936,2,0,P|160:160|100:108,1,159.999995231628,8|2,0:0|0:2,0:0:0:0:
116,196,229408,2,0,P|116:240|104:284,1,79.9999976158142
72,348,229723,1,8,0:0:0:0:
72,348,229880,2,0,P|136:303|224:308,1,159.999995231628,2|8,0:2|0:0,0:0:0:0:
368,352,230509,1,2,0:2:0:0:
368,352,230666,2,0,L|404:276,1,79.9999976158142,0|4,0:0|0:2,0:0:0:0:
468,132,231138,6,0,P|388:148|312:120,1,159.999995231628,2|8,0:2|0:0,0:0:0:0:
316,123,231767,2,0,L|280:199,1,79.9999976158142,2|0,0:2|0:0,0:0:0:0:
224,140,232082,2,0,L|188:226,1,79.9999976158142,0|8,0:0|0:0,0:0:0:0:
132,160,232396,2,0,B|100:236|100:236|32:284,1,159.999995231628,2|12,0:2|0:0,0:0:0:0:
192,212,233025,2,0,L|208:292,1,79.9999976158142,2|0,0:2|0:0,0:0:0:0:
276,332,233340,1,4,0:0:0:0:
280,184,233654,6,0,P|248:155|233:114,1,79.9999976158142,2|0,0:2|0:0,0:0:0:0:
320,108,233968,2,0,P|379:54|459:47,1,159.999995231628,8|2,0:0|0:2,0:0:0:0:
425,122,234440,2,0,P|467:127|502:154,1,79.9999976158142
437,201,234755,1,8,0:0:0:0:
412,276,234912,2,0,B|338:339|338:339|270:331,1,159.999995231628,2|8,0:2|0:0,0:0:0:0:
160,148,235541,1,2,0:2:0:0:
232,184,235698,2,0,P|256:212|268:264,1,79.9999976158142,0|0,0:0|0:0,0:0:0:0:
52,328,236169,6,0,B|92:280|92:280|196:264,1,159.999995231628,2|8,0:2|0:0,0:0:0:0:
348,240,236798,1,2,0:2:0:0:
348,240,236955,2,0,L|400:172,1,79.9999976158142
380,96,237270,1,8,0:0:0:0:
380,96,237427,2,0,B|340:48|340:48|228:32,1,159.999995231628,2|8,0:2|0:0,0:0:0:0:
25,102,238056,2,0,L|104:116,1,79.9999976158142,2|0,0:2|0:0,0:0:0:0:
156,204,238371,2,0,L|72:188,1,79.9999976158142,4|0,0:2|0:0,0:0:0:0:
8,252,238685,6,0,B|94:271|94:271|136:336,1,159.999995231628,2|8,0:2|0:0,0:0:0:0:
292,336,239314,2,0,P|336:264|336:184,1,159.999995231628,2|0,0:2|0:0,0:0:0:0:
308,116,239786,1,0,0:0:0:0:
240,156,239943,2,0,P|156:176|80:152,1,159.999995231628,2|8,0:2|0:0,0:0:0:0:
236,60,240572,2,0,L|312:20,1,79.9999976158142,2|0,0:2|0:0,0:0:0:0:
380,80,240887,2,0,L|308:116,1,79.9999976158142,4|0,0:2|0:0,0:0:0:0:
296,208,241201,6,0,B|368:172|368:172|460:168,1,159.999995231628,2|8,0:2|0:0,0:0:0:0:
364,344,241830,2,0,L|304:288,1,79.9999976158142,2|8,0:2|0:0,0:0:0:0:
236,340,242144,2,0,L|220:256,1,79.9999976158142,0|8,0:0|0:0,0:0:0:0:
148,292,242459,1,2,0:2:0:0:
108,136,242773,2,0,L|80:212,1,79.9999976158142,8|8,0:0|0:0,0:0:0:0:
188,112,243088,2,0,L|184:204,1,79.9999976158142,2|8,0:2|0:0,0:0:0:0:
268,88,243402,1,4,0:0:0:0:
256,192,243559,12,8,245289,0:0:0:0:
376,180,246232,5,2,0:2:0:0:
376,180,246547,2,0,P|324:152|293:101,1,120.000001001358,8|2,0:0|0:2,0:0:0:0:
220,104,247018,2,0,P|187:153|132:180,1,120.000001001358,8|8,0:0|0:0,0:0:0:0:
178,252,247490,2,0,L|166:316,1,60.0000005006791,2|0,0:2|0:0,0:0:0:0:
256,356,247805,2,0,L|256:292,1,60.0000005006791,8|0,0:0|0:0,0:0:0:0:
334,252,248119,2,0,L|350:316,2,60.0000005006791,2|0|4,0:2|0:0|0:0,0:0:0:0:
256,192,248591,12,8,250320,0:0:0:0:
104,208,251264,5,2,0:2:0:0:
104,208,251578,2,0,B|240:256,1,120.000001001358,8|2,0:0|0:2,0:0:0:0:
296,248,252050,2,0,B|420:204,1,120.000001001358,8|8,0:0|0:0,0:0:0:0:
409,208,252522,1,2,0:2:0:0:
257,43,252836,5,8,0:0:0:0:
188,94,252993,1,8,0:0:0:0:
216,170,253151,1,2,0:2:0:0:
296,170,253308,1,8,0:0:0:0:
324,94,253465,1,4,0:0:0:0:
