osu file format v6

[General]
AudioFilename: Jay Chou-Compendium of Materia Medica.mp3
AudioLeadIn: 0
PreviewTime: -1
Countdown: 1
SampleSet: Normal
StackLeniency: 0.7
Mode: 0
LetterboxInBreaks: 1

[Editor]
DistanceSpacing: 0.800000011920929
BeatDivisor: 4
GridSize: 8

[Metadata]
Title:Compendium of Materia Medica
Artist:Jay Chou
Creator:impossiblexu
Version:Normal
Source:
Tags:Jay Chou,Pop music,Ben Cao gang Mu,Zhoujielun,Still fantasy,Chinese

[Difficulty]
HPDrainRate:4
CircleSize:4
OverallDifficulty:6
SliderMultiplier:1.4
SliderTickRate:2

[Events]
//Background and Video events
0,0,"Still Fantasy.jpg"
//Break Periods
2,18827,27391
2,66409,75270
2,86036,87165
//Storyboard Layer 0 (Background)
//Storyboard Layer 1 (Fail)
//Storyboard Layer 2 (Pass)
//Storyboard Layer 3 (Foreground)
//Storyboard Sound Samples
//Background Colour Transformations
3,100,163,162,255

[TimingPoints]
190,594.766058683584,4,1,0,100,1,0
47761,-100,4,2,0,100,0,1
57276,-100,4,2,0,100,0,0
76307,-100,4,1,0,100,0,0
135775,-100,4,1,0,100,0,0

[HitObjects]
160,128,9706,1,8
256,128,10301,1,0
352,128,10895,1,8
352,192,11193,1,8
352,256,11490,1,0
256,296,12085,5,8
256,192,12680,1,0
256,96,13274,1,8
320,128,13572,1,8
384,160,13869,1,0
320,256,14464,5,8
224,256,15059,1,0
224,160,15653,1,8
160,128,15951,1,8
160,192,16248,1,0
256,288,16843,5,8
288,192,17438,1,0
352,96,18032,1,12
352,160,18330,1,12
352,224,18627,1,4
256,96,28441,6,0,B|288:96|288:160,1,70,0|8
288,256,29333,1,0
160,256,30225,1,0
160,192,30523,1,8
160,128,30820,1,0
224,128,31117,2,0,B|256:96|288:128,1,70
288,192,31712,1,8
160,192,32604,1,0
160,128,32902,1,8
224,96,33199,1,0
288,128,33496,6,0,B|352:128|288:160,1,70,0|4
224,160,34091,2,0,B|160:128|224:128,1,70,12|4
160,224,34983,1,0
160,160,35281,1,8
224,160,35578,1,4
288,192,35875,1,0
352,256,36470,2,0,B|384:256|384:192,1,70,8|4
384,96,37362,1,0
320,128,37660,1,8
256,160,37957,1,4
352,192,38255,5,0
288,256,38849,1,8
192,160,39741,1,0
256,128,40039,2,0,B|288:128|320:160,1,70,8|4
352,192,40634,1,0
288,256,41228,2,0,B|256:256|224:224,1,70,8|0
192,192,41823,1,0
192,96,42418,2,0,B|224:64|256:96,1,70,8|4
320,96,43013,5,0
344,208,43607,1,8
288,224,43905,2,2,B|256:288|256:224|224:256|224:256,1,70
224,192,44500,1,0
272,96,45094,2,2,B|304:32|304:96|336:64,1,70
368,176,45986,5,8
336,280,46581,1,0
288,256,46879,1,4
240,224,47176,1,12
272,176,47473,1,4
320,128,47771,5,0
384,192,48366,1,8
320,256,48960,1,4
256,256,49258,1,4
192,256,49555,1,8
192,256,49852,1,4
192,96,50150,5,0
288,128,50745,1,8
384,160,51339,1,4
320,192,51637,1,4
256,224,51934,1,8
256,224,52232,1,4
256,128,52529,5,0
352,192,53124,1,8
352,288,53718,1,4
288,288,54016,1,4
224,288,54313,1,8
224,288,54611,1,4
160,224,54908,5,0
160,96,55503,1,8
256,160,56098,1,4
288,96,56395,1,4
320,160,56692,1,12
224,224,57287,5,4
128,160,57882,1,8
224,96,58477,1,4
224,160,58774,1,4
224,224,59071,1,8
320,224,59666,5,4
320,128,60261,1,8
256,192,60856,1,4
192,192,61153,1,4
128,192,61450,1,8
192,288,62045,5,4
288,256,62640,1,8
384,224,63235,1,4
352,160,63532,1,4
320,96,63829,1,8
224,128,64424,5,4
224,224,65019,1,8
288,320,65614,1,4
320,256,65911,1,4
352,192,66209,1,8
128,96,76320,5,8
224,96,76914,1,0
320,96,77509,1,8
320,160,77806,1,0
320,224,78104,1,0
192,224,78699,5,8
192,96,79293,1,0
288,128,79888,2,0,B|320:160|320:192,2,70,8|0|0
224,224,81078,5,8
128,256,81672,1,0
160,160,82267,1,8
224,160,82565,1,0
288,160,82862,1,0
288,256,83457,5,8
160,256,84052,1,0
256,192,84646,2,0,B|224:192|224:160|256:128,2,70,8|0|0
256,160,85836,5,12
224,160,88215,5,8
320,160,88810,1,0
256,256,89404,1,8
160,192,89999,5,0
224,160,90297,1,0
160,128,90594,1,8
256,128,91189,5,0
352,192,91783,1,8
288,192,92081,1,0
288,256,92378,1,0
224,256,92676,1,0
224,192,92973,1,8
192,96,93568,5,0
256,192,94163,1,8
288,96,94757,2,0,B|352:96|352:128,1,70
288,159,95352,5,8
160,160,95947,1,0
64,96,96542,1,8
128,128,96839,1,0
192,160,97136,1,0
288,192,97731,5,8
192,224,98326,1,0
96,192,98921,1,8
160,160,99218,1,0
224,128,99515,2,0,B|256:96|288:160,1,70,0|0
320,192,100110,5,8
256,256,100705,1,0
192,256,101002,1,0
192,192,101300,1,8
288,128,101894,2,0,B|352:128|352:160,1,70
368,208,102489,1,8
192,224,103084,6,0,B|128:256|160:288|192:320|256:256|256:224,1,175,0|8
288,160,104274,1,0
352,160,104571,1,0
352,224,104868,5,8
256,160,105463,1,0
192,192,105760,1,0
128,224,106058,1,8
224,288,106653,5,0
288,256,106950,1,0
352,224,107247,1,8
288,128,107842,5,0
224,160,108140,1,0
160,192,108437,1,8
192,288,109032,5,0
256,256,109329,1,0
320,224,109626,1,8
288,128,110221,5,0
224,96,110519,1,0
160,64,110816,1,8
96,96,111113,1,0
32,128,111411,2,0,B|32:160|64:160|96:160,1,70
128,160,112006,6,0,B|204:161,1,70,8|0
192,224,112600,1,0
64,224,113195,6,0,B|96:160,1,70,8|0
160,160,113790,1,0
256,224,114385,6,0,B|320:192,1,70,8|0
352,256,114979,1,0
352,128,115574,5,8
256,192,116169,1,0
192,224,116466,1,0
128,192,116764,5,8
96,96,117358,1,0
128,192,117953,1,8
160,256,118251,1,0
192,192,118548,1,0
288,256,119143,5,8
288,128,119737,1,0
192,128,120332,2,0,B|160:160|192:192,1,70,8|0
192,256,120927,1,0
288,256,121522,5,8
256,160,122117,1,0
192,64,122711,1,8
192,128,123009,1,0
192,192,123306,1,0
288,256,123901,6,2,B|352:256|352:224|384:192|352:160,1,140,10|0
288,96,125090,1,8
224,128,125388,1,0
160,160,125685,1,0
192,256,126280,5,8
288,256,126875,1,0
288,128,127469,1,10
256,192,127767,1,0
224,256,128064,1,0
192,160,128659,5,8
288,128,129254,1,0
192,184,129849,2,0,B|128:128,2,70,8|0|0
288,256,131038,5,8
352,160,131633,1,0
288,64,132228,1,10
256,128,132525,1,0
224,192,132822,1,0
128,96,133417,5,8
128,192,134012,1,0
240,192,134607,1,10
240,192,134904,1,2
240,192,135201,1,2
256,192,135796,12,0,139365
256,192,140554,5,4
