osu file format v5

[General]
AudioFilename: 002. The Time Has Come.mp3
AudioLeadIn: 0
PreviewTime: -1
Countdown: 0
SampleSet: Normal
StackLeniency: 0.7
Mode: 0

[Metadata]
Title:The Time Has Come
Artist:Jason "Shyboy" Arnold of Hyonogaja
Creator:apple_100
Version:

[Difficulty]
HPDrainRate:4
CircleSize:7
OverallDifficulty:6
SliderMultiplier:0.999999999999999
SliderTickRate:2

[Events]
//Background and Video events
1,0,"654106515.avi"
//Break Periods
2,45169,57681
2,109434,134461
2,147585,159497
//Storyboard Layer 0 (Background)
//Storyboard Layer 1 (Failing)
//Storyboard Layer 2 (Passing)
//Storyboard Layer 3 (Foreground)
//Storyboard Sound Samples
//Background Colour Transformations
3,100,163,162,255

[TimingPoints]
6860,375,4,1,0,100
58280,375,4,1,0,100
135010,375,4,1,0,100
160720,375,4,1,0,100

[HitObjects]
64,64,6906,1,2
64,64,7110,1,0
128,64,7460,2,2,B|192:128|256:32,1,150
352,64,8485,5,0
352,64,8660,1,0
352,128,9060,2,0,B|448:192|384:256,1,150
288,256,10060,5,2
288,256,10260,1,0
224,256,10656,2,2,B|128:192|224:128,1,162.5
64,128,11660,5,0
64,128,11860,1,0
64,192,12210,2,0,B|128:288|192:256,1,150
192,192,13281,5,2
192,192,13469,1,0
256,192,13844,2,2,B|256:288|192:320,1,150
128,320,14810,5,0
128,320,15010,1,0
128,256,15410,2,0,B|224:192|288:224,1,162.5
288,288,16410,5,2
288,288,16610,1,0
352,288,17010,2,2,B|384:192|448:160,1,162.5
448,96,18063,5,0
448,96,18250,1,0
448,32,18625,2,0,B|320:32|288:96,1,175
384,128,19703,5,2
384,128,19891,1,0
384,192,20266,2,2,B|256:192|224:128,1,175
224,64,21297,5,0
224,64,21485,1,0
224,128,21906,2,0,B|96:128|64:64,1,175
32,128,22938,5,2
32,128,23125,1,0
32,192,23500,2,2,B|32:320|96:352,1,175
160,320,24531,5,0
160,320,24719,1,0
160,256,25094,2,0,B|96:160|160:96,1,162.5
160,32,26078,5,2
160,32,26266,1,0
224,32,26641,2,2,B|288:128|256:192,1,162.5
160,192,27672,5,0
160,192,27860,1,0
160,256,28235,2,0,B|288:320|320:256,1,175
320,192,29313,5,2
320,192,29500,1,0
256,192,29875,2,2,B|192:96|256:32,1,162.5
320,32,30906,5,0
320,32,31094,1,0
320,96,31469,2,0,B|448:32|480:96,1,175
480,160,32641,5,2
480,160,32828,1,2
416,160,33063,1,2
320,64,33297,1,2
320,128,33672,1,0
320,192,33953,1,2
192,192,34281,1,0
192,128,34656,1,2
64,320,35969,5,2
64,320,36156,1,2
64,256,36485,1,2
64,192,36906,1,2
64,160,37094,1,2
64,128,37281,1,2
192,128,37656,1,2
192,128,37844,2,0,B|192:320,1,187.5
416,320,39110,5,2
416,320,39297,1,2
416,320,39485,1,2
352,320,39719,1,2
256,320,40047,1,2
192,320,40281,1,2
128,256,40703,1,2
64,256,41031,1,2
128,192,41500,1,2
160,192,41735,1,2
192,192,41922,1,2
224,192,42110,1,4
320,192,42438,1,4
416,192,42860,1,4
352,128,43281,1,2
352,128,43469,1,2
352,128,43656,1,2
352,128,43844,1,2
320,128,44078,1,2
288,160,44313,2,0,B|224:224|128:128,1,175
64,224,58281,5,2
128,288,58516,1,2
128,288,58703,1,2
128,288,58891,2,0,B|256:288,1,125
256,288,59500,1,2
256,288,59688,1,2
320,256,59875,1,2
384,256,60156,2,0,B|480:160|384:64,1,212.5
256,32,61701,5,2
256,32,61889,1,2
256,32,62076,1,2
320,96,62405,5,0
320,96,62592,1,0
192,96,62969,1,0
128,96,63248,1,0
64,96,63672,2,0,B|64:256,1,150
128,224,64701,5,2
128,224,64891,1,2
128,224,65078,1,2
128,224,65266,2,0,B|128:64,2,150
128,224,66719,1,0
192,224,67188,1,0
256,224,67516,1,0
256,224,67703,1,0
320,224,68076,1,2
352,224,68266,1,0
416,224,68453,2,4,B|416:64,2,150
480,224,70000,1,0
480,288,71262,5,2
480,288,71451,1,2
480,288,71639,1,2
480,288,71826,1,2
448,288,72061,1,2
384,288,72297,1,2
288,224,72672,1,0
192,224,73047,1,0
96,160,74311,5,2
96,160,74498,1,2
96,160,74686,1,2
96,160,74875,1,2
160,64,75297,1,0
160,160,75485,1,0
160,224,75719,1,0
160,224,75860,1,0
160,320,76094,1,0
256,320,76516,1,0
256,192,77453,5,2
256,192,77641,1,2
256,192,77828,1,2
256,96,78110,1,2
256,96,78250,2,2,B|352:32|416:96,1,162.5
416,160,79281,1,0
416,192,79516,1,0
416,288,79938,1,0
352,352,80266,1,0
224,352,80685,1,0
160,352,81156,1,0
64,352,81527,1,2
64,352,81719,1,2
64,288,82092,1,0
64,192,82467,1,0
64,128,82748,1,0
192,32,83875,5,2
192,32,84063,1,2
256,32,84297,1,2
256,32,84531,1,2
320,32,84860,1,0
416,32,85235,1,0
416,96,85610,1,0
416,192,85985,1,0
352,96,87110,5,2
320,96,87297,1,2
288,96,87485,1,2
256,96,87672,1,2
128,96,88047,1,0
32,96,88328,1,0
32,192,88610,1,0
128,192,88936,2,0,B|64:224|224:352,1,200
256,256,90250,5,2
256,192,90531,1,2
256,128,90766,1,2
256,64,91000,1,2
352,64,91281,1,2
352,64,91516,1,2
352,96,91703,1,2
352,96,91891,1,2
352,160,92125,1,2
352,160,92313,2,0,B|352:288,1,125
256,288,93110,1,4
192,288,93485,1,0
96,288,93860,1,0
96,192,94235,1,2
96,128,94469,1,2
96,64,94703,1,2
96,64,94891,1,2
96,64,95125,1,2
96,64,95313,1,2
128,64,95500,2,0,B|288:64,1,150
448,64,96672,5,2
416,64,96860,1,2
384,64,97047,1,2
320,64,97281,1,2
288,64,97608,1,2
256,64,97891,1,2
224,64,98078,1,2
224,64,98313,1,2
224,64,98500,1,2
224,64,98688,2,2,B|64:64,1,150
64,128,99953,5,2
128,128,100141,1,2
128,128,100328,1,2
128,128,100516,1,2
192,128,100891,1,2
224,128,101078,1,2
288,128,101453,1,2
352,128,101641,1,2
416,128,101922,2,2,B|480:224|416:320,1,200
256,352,103090,5,2
256,320,103324,1,2
256,288,103512,1,2
256,256,103746,1,2
256,160,104123,1,2
256,128,104311,1,2
256,96,104498,1,2
256,96,104733,1,2
256,96,104920,1,2
256,96,105108,1,2
224,32,105485,1,0
192,32,105672,1,0
160,32,105906,1,0
64,96,106375,1,0
64,160,106703,2,4,B|64:320,1,150
64,310,107500,1,2
96,352,107735,1,2
128,352,108016,1,2
160,352,108250,2,4,B|256:224|384:352,1,262.5
480,160,135010,5,2
480,160,135197,1,2
416,160,135432,1,2
320,64,135666,1,2
320,128,136041,1,0
320,192,136322,1,0
192,192,136650,1,0
192,128,137025,1,0
64,320,138385,5,2
64,320,138572,1,2
64,256,138901,1,2
64,192,139322,1,2
64,160,139510,1,2
64,128,139697,1,2
192,128,140072,1,2
192,128,140260,2,0,B|192:320,1,187.5
416,320,141526,5,2
416,320,141713,1,2
416,320,141901,1,2
352,320,142135,1,2
256,320,142463,1,2
192,320,142697,1,2
128,256,143119,1,0
64,256,143447,1,0
128,192,143916,1,2
160,192,144151,1,2
192,192,144338,1,2
224,192,144526,1,4
320,192,144854,1,4
416,192,145276,1,4
352,128,145697,1,4
352,128,145885,1,2
352,128,146072,1,2
352,128,146260,1,2
320,128,146494,1,2
288,160,146729,2,2,B|224:224|128:128,1,175
64,224,160697,5,2
128,288,160932,1,2
128,288,161119,1,2
128,288,161307,2,0,B|256:288,1,125
256,288,161916,1,2
256,288,162104,1,2
320,256,162291,1,2
384,256,162572,2,0,B|480:160|384:64,1,212.5
256,32,164119,5,2
256,32,164305,1,2
256,32,164492,1,2
320,96,164821,5,0
320,96,165008,1,0
192,96,165385,1,0
128,96,165713,1,0
64,96,166088,2,0,B|64:256,1,150
128,224,167119,5,2
128,224,167307,1,2
128,224,167494,1,2
128,224,167682,2,0,B|128:64,2,150
128,224,169135,1,0
192,224,169604,1,0
256,224,169932,1,2
256,224,170119,1,2
320,224,170492,1,0
352,224,170682,1,0
416,224,170869,2,0,B|416:64,2,150
480,224,172416,1,0
480,288,173682,5,2
480,288,173869,1,2
480,288,174057,1,2
480,288,174244,1,2
448,288,174479,1,2
384,288,174713,1,2
288,224,175088,1,2
192,224,175463,1,2
96,160,176729,5,2
96,160,176916,1,2
96,160,177104,1,2
96,160,177291,1,2
160,64,177713,1,0
160,160,177901,1,0
160,224,178135,1,0
160,224,178276,1,0
160,320,178510,1,0
256,320,178932,1,0
256,192,179869,5,2
256,192,180057,1,2
256,192,180244,1,2
256,96,180526,1,2
256,96,180666,2,4,B|352:32|416:96,1,162.5
416,160,181697,1,0
416,192,181932,1,0
416,288,182354,1,0
352,352,182682,1,0
224,352,183101,1,0
160,352,183572,1,0
64,352,183943,1,2
64,352,184135,1,2
64,288,184508,1,0
64,192,184883,1,0
64,128,185164,1,0
192,32,186291,5,2
192,32,186479,1,2
256,32,186713,1,2
256,32,186947,1,2
320,32,187276,1,2
416,32,187651,1,2
416,96,188026,1,2
416,192,188401,1,2
352,96,189526,5,2
320,96,189713,1,2
288,96,189901,1,2
256,96,190088,1,2
128,96,190463,1,2
32,96,190744,1,2
32,192,191026,1,2
128,192,191516,2,4,B|64:224|224:352,1,200
256,256,192666,5,2
256,192,192947,1,2
256,128,193182,1,2
256,64,193416,1,2
352,64,193697,1,2
352,64,193932,1,2
352,96,194119,1,2
352,96,194307,1,2
352,160,194541,1,2
352,160,194729,2,4,B|352:288,1,125
256,288,195526,1,2
192,288,195901,1,2
96,288,196276,1,2
96,192,196651,1,2
96,128,196885,1,2
96,64,197119,1,2
96,64,197307,1,2
96,64,197541,1,2
96,64,197729,1,2
128,64,197916,2,4,B|288:64,1,150
448,64,199088,5,2
416,64,199276,1,2
384,64,199463,1,2
320,64,199697,1,2
288,64,200026,1,2
256,64,200307,1,2
224,64,200494,1,2
224,64,200729,1,2
224,64,200916,1,2
224,64,201104,2,4,B|64:64,1,150
64,128,202369,5,2
128,128,202557,1,2
128,128,202744,1,2
128,128,202932,1,2
192,128,203307,1,2
224,128,203494,1,2
288,128,203869,1,2
352,128,204057,1,2
416,128,204338,2,4,B|480:224|416:320,1,200
256,352,205510,5,2
256,320,205744,1,2
256,288,205932,1,2
256,256,206166,1,2
256,160,206541,1,2
256,128,206729,1,2
256,96,206916,1,2
256,96,207151,1,2
256,96,207338,1,2
256,96,207526,1,2
224,32,207901,1,0
192,32,208088,1,0
160,32,208322,1,0
64,96,208791,1,2
64,160,209119,2,0,B|64:320,1,150
64,310,209916,1,0
96,352,210151,1,0
128,352,210432,1,0
160,352,210666,2,4,B|256:224|384:352,1,262.5
