osu file format v5

[General]
AudioFilename: Jasan Radford - Run Around.mp3
AudioLeadIn: 0
PreviewTime: -1
Countdown: 1
SampleSet: Normal
StackLeniency: 0.7
Mode: 0
LetterboxInBreaks: 1
EditorBookmarks: 11681,12743,23362,34690,46371,57345,75752,96637,102300

[Metadata]
Title:Run Around
Artist:Jason Radford
Creator:wii_128
Version:Hard
Source:
Tags:

[Difficulty]
HPDrainRate:5
CircleSize:6
OverallDifficulty:5
SliderMultiplier:2
SliderTickRate:2

[Events]
//Background and Video events
//Break Periods
2,28805,33911
2,68533,74879
2,90819,96118
//Storyboard Layer 0 (Background)
//Storyboard Layer 1 (Failing)
//Storyboard Layer 2 (Passing)
//Storyboard Layer 3 (Foreground)
//Storyboard Sound Samples
//Background Colour Transformations
3,100,163,162,255

[TimingPoints]
0,353.982300884956,4,1,0,100

[HitObjects]
376,40,12007,5,0
472,136,12389,2,2,B|368:312,1,200
296,200,13097,1,2
240,312,13451,2,2,B|56:216,1,200
144,120,14159,1,2
320,288,14832,5,0
424,224,15176,2,0,B|296:48,1,200
88,40,16244,5,2
64,160,16592,2,2,B|240:264,1,200
304,152,17304,1,0
344,200,17480,1,2
384,152,17657,1,4
208,296,18363,5,0
56,152,19070,1,0
168,88,19423,1,0
208,200,19776,1,0
328,176,20129,1,2
448,152,20482,2,4,B|335:342|335:342,4,200
328,120,22248,5,0
224,192,22601,1,0
176,144,22778,1,2
128,192,22954,1,0
80,144,23131,1,2
448,288,23628,5,2
392,320,23805,1,0
336,352,23982,1,2
208,328,24336,2,4,B|399:217,1,200
328,96,25044,5,2
272,64,25221,1,0
216,32,25398,1,2
96,64,25752,2,4,B|272:168,1,200
256,192,26194,12,4,28583
104,80,34955,5,2
64,184,35265,1,0
128,184,35442,1,2
192,184,35619,1,2
320,184,35973,1,0
448,184,36327,5,2
488,80,36637,1,0
424,80,36814,1,2
360,80,36991,1,2
384,256,37389,1,0
256,328,37786,5,0
288,272,37964,1,0
224,272,38140,1,0
328,200,38493,1,0
376,152,38672,1,0
320,120,38846,2,4,B|72:120,3,200
64,192,40612,5,0
192,184,40965,1,2
224,240,41141,1,0
272,200,41318,1,0
240,72,41681,1,0
368,72,42035,5,0
432,176,42377,1,2
448,240,42554,1,2
384,224,42731,1,0
296,320,43097,1,0
256,192,43274,12,4,45929
152,144,46615,1,0
344,312,47321,1,0
280,200,47675,1,0
408,200,48028,1,2
344,88,48381,1,2
232,144,48734,5,0
184,104,48911,1,0
136,144,49087,1,0
136,272,49440,2,2,B|264:272|264:272,2,100
240,208,50147,2,0,B|368:208|368:208,2,100
444,159,50796,2,4,B|237:29|43:174,1,400
312,272,52266,5,0
184,272,52619,1,0
56,272,52972,1,2
120,168,53325,1,0
248,168,53678,1,0
376,168,54031,1,2
416,288,54384,6,2,B|192:288|192:288,1,200
120,224,55044,2,4,B|344:224|344:224,1,200
224,128,55797,1,0
224,128,55974,1,2
352,264,56503,1,0
352,264,56856,1,2
96,256,57563,5,2
147,217,57743,1,0
195,178,57916,1,2
246,138,58097,1,0
295,101,58269,1,2
280,208,58584,1,0
256,320,58938,6,2,B|432:169|432:169,2,200
256,192,60000,1,0
104,192,60309,2,2,B|280:41|280:41,2,200
216,256,61371,1,0
336,320,61769,2,2,B|606:349|450:-13|287:223|287:223,1,400
256,192,62683,12,0,63919
256,192,64273,12,2,65332
256,192,65685,12,4,68407
128,96,75929,5,0
248,128,76283,1,0
184,224,76592,1,2
184,224,76769,1,2
440,296,78716,5,0
416,168,79070,1,0
328,72,79424,1,2
328,72,79601,1,2
192,312,81504,5,0
296,240,81858,1,0
240,120,82212,1,2
240,120,82389,1,2
104,296,84402,5,0
152,176,84755,1,0
272,160,85088,1,2
272,160,85265,1,2
408,56,85752,5,0
408,56,85929,1,0
408,56,86106,1,0
280,40,86460,1,2
312,288,87168,5,0
312,288,87345,1,0
312,288,87522,1,0
192,256,87876,1,2
80,48,88539,5,0
80,48,88716,1,0
80,48,88893,1,0
216,72,89292,1,2
400,104,89823,5,0
424,160,90000,1,0
424,160,90176,1,0
424,160,90353,1,0
336,248,90707,1,2
326,36,97079,6,2,B|227:21|137:10|-2:89|9:301|137:326|137:326,1,500
173,347,98451,2,2,B|349:387|434:294|478:221|461:81|364:53|364:53,1,500
327,20,99867,2,2,B|1:-72|-8:295|92:358|251:336|339:316|402:289|431:220|440:116|350:3|293:38|81:-30|59:257|264:231,1,1225
40,128,102743,5,0
104,128,102920,1,0
168,128,103096,1,0
72,208,103449,1,2
200,208,103803,1,2
296,128,104156,5,0
360,128,104332,1,0
424,128,104509,1,0
328,208,104862,1,2
456,208,105215,1,2
368,296,105568,5,0
304,296,105745,1,0
256,256,105921,1,0
248,128,106274,1,2
344,208,106628,1,2
416,312,106981,2,4,B|416:-8,2,300
304,344,108407,5,0
336,288,108584,1,0
288,240,108761,1,0
184,312,109115,2,4,B|44:77|43:205|309:24|199:35|288:128,1,400
368,56,110176,1,0
388,107,110331,1,0
408,160,110486,1,2
344,216,110840,1,2
264,296,111150,5,0
200,272,111327,1,0
232,216,111504,1,0
352,240,111858,1,0
432,144,112212,1,0
368,144,112389,1,0
304,144,112566,1,0
160,136,112920,6,2,B|178:31|188:68|211:53|320:59,2,200
288,120,113982,2,2,B|274:227|258:194|205:201|114:201,3,200
248,272,115398,2,4,B|49:273|72:258|53:134|96:136|136:136|136:136,2,300
256,192,116814,12,0,120707
152,120,122123,2,4,B|280:-26|499:101|463:434|82:374|138:160,2,700
204,156,124778,1,0
256,192,124955,1,2
