osu file format v5

[General]
AudioFilename: 00_poketv1open.mp3
AudioLeadIn: 0
PreviewTime: -1
Countdown: 0
SampleSet: Normal
StackLeniency: 0.7
Mode: 0
LetterboxInBreaks: 1

[Metadata]
Title:Pokemon Theme (TV Edit)
Artist:Jason Paige
Creator:Ekaru
Version:Normal
Source:Pokemon
Tags:Bad Spacing

[Difficulty]
HPDrainRate:5
CircleSize:4
OverallDifficulty:5
SliderMultiplier:1.6
SliderTickRate:2

[Events]
//Background and Video events
0,0,"2478-pokemon-1-lityp.jpg"
1,-400,"pokemon_opening.avi"
//Break Periods
//Storyboard Layer 0 (Background)
//Storyboard Layer 1 (Failing)
//Storyboard Layer 2 (Passing)
//Storyboard Layer 3 (Foreground)
//Storyboard Sound Samples
//Background Colour Transformations
3,100,163,162,255

[TimingPoints]
4030,413.935839944809,4,1,0,100,1

[Colours]
Combo1 : 206,206,0
Combo2 : 255,0,0
Combo3 : 0,0,255
Combo4 : 105,0,210

[HitObjects]
256,192,3823,1,0
312,216,4029,1,0
304,280,4236,1,0
256,320,4443,2,0,B|80:320,1,160
88,192,5271,2,0,B|40:136|48:120|56:112|72:112|88:104|104:104|120:96|152:120|152:120|160:48|160:48|296:136,1,400,0|4
400,72,6720,5,0
400,72,6927,1,0
408,200,7341,1,0
336,304,7755,2,0,B|136:328|136:328|128:328,2,160
208,160,9204,5,0
320,208,9618,1,0
360,88,10032,1,0
256,32,10446,5,8
256,32,10652,1,8
256,160,11066,1,0
256,288,11480,2,0,B|360:288,1,80
400,176,12101,2,0,B|440:136|459:74|471:6|304:39|192:224,1,400
272,168,13343,5,0
272,168,13550,1,0
152,320,14171,1,0
336,288,14792,2,0,B|424:312|480:304|520:272|528:200|459:223|458:183|453:147|443:138|402:88|369:73|248:88,1,480
408,192,17275,5,0
408,312,17689,2,0,B|280:328|216:264,1,160
152,208,18517,2,0,B|112:120|-8:136,1,160
16,72,19138,2,0,B|120:72|144:88|224:176,1,240
296,64,20173,5,0
296,64,20380,1,0
280,256,21001,1,0
200,152,21415,1,0
200,152,21622,2,0,B|152:168|144:240|208:272|408:288,1,320
88,112,23691,6,12,B|144:208,3,80
272,304,24933,1,0
336,328,25140,2,0,B|416:312|432:264|432:192|400:136|72:128,1,480
80,72,26589,5,0
16,72,26796,2,0,B|64:248,1,160
96,176,27417,1,0
168,64,28038,2,0,B|56:296|56:296|328:304,1,480
344,304,29487,5,4
344,304,29694,1,4
344,304,29900,1,4
152,304,30521,6,0,B|232:224|248:176|168:120|88:156|88:156|96:112,1,240
136,32,31556,6,0,B|80:96|64:192|80:272|152:344|328:344|448:320|480:192|464:72|392:24,1,720,0|4
240,40,34040,5,0
296,72,34247,1,0
360,88,34454,1,0
320,136,34661,1,0
256,152,34868,2,0,B|338:420|496:152,1,320
489,78,36110,6,0,B|384:56|304:64|184:112,1,240
184,200,37144,6,0,B|64:136|64:136|248:64,1,320
360,64,38386,6,0,B|456:120|456:128|456:136|152:280,1,400
175,268,39628,5,4
175,268,39835,1,4
175,268,40042,2,4,B|176:64,1,160
240,112,40663,1,4
431,117,41284,2,4,B|487:221|351:333,2,240
366,115,42733,6,2,B|274:126|137:178|199:280|399:255,1,320
320,320,43767,5,0
256,320,43974,1,0
192,320,44181,1,0
128,320,44388,1,0
128,192,44802,5,0
192,192,45009,1,0
192,128,45216,1,0
320,128,45630,2,0,B|376:168|400:208|272:328|272:328|72:320,1,400
184,144,47286,5,0
184,208,47493,1,0
184,272,47700,1,0
304,320,48114,2,2,B|392:320|424:256|200:104,1,320
392,264,49976,5,0
368,208,50183,1,0
264,144,50597,1,0
136,144,51011,1,0
112,264,51425,1,0
224,328,51839,1,0
224,328,52253,2,12,B|224:56,1,240
112,160,53288,6,4,B|288:160,1,160
280,224,53909,2,4,B|96:224,1,160
120,288,54530,2,4,B|464:288,1,320
440,224,55565,5,0
400,176,55771,1,0
336,176,55978,2,0,B|336:88,1,80
288,48,56392,2,0,B|144:152,1,160
160,208,57013,5,0
160,208,57220,1,0
160,208,57427,1,0
160,208,57634,1,0
72,304,58048,2,0,B|288:304,1,160
296,304,58669,5,4
296,240,58876,1,4
296,176,59083,1,4
