osu file format v5

[General]
AudioFilename: 00_poketv1open.mp3
AudioLeadIn: 0
PreviewTime: -1
Countdown: 0
SampleSet: Normal
StackLeniency: 0.7
Mode: 0
LetterboxInBreaks: 1

[Metadata]
Title:Pokemon Theme (TV Edit)
Artist:Jason Paige
Creator:Ekaru
Version:Hard
Source:Pokemon
Tags:Bad Spacing

[Difficulty]
HPDrainRate:3
CircleSize:5
OverallDifficulty:7
SliderMultiplier:1.6
SliderTickRate:2

[Events]
//Background and Video events
0,0,"2478-pokemon-1-lityp.jpg"
1,-400,"pokemon_opening.avi"
//Break Periods
//Storyboard Layer 0 (Background)
//Storyboard Layer 1 (Failing)
//Storyboard Layer 2 (Passing)
//Storyboard Layer 3 (Foreground)
//Storyboard Sound Samples
//Background Colour Transformations
3,100,163,162,255

[TimingPoints]
4030,413.935839944809,4,1,0,100,1

[Colours]
Combo1 : 236,236,0
Combo2 : 255,0,0
Combo3 : 0,0,255
Combo4 : 96,0,191

[HitObjects]
256,192,3823,5,0
297,240,4029,1,0
242,273,4236,1,0
185,302,4443,2,0,B|133:297|108:288|90:273|75:253|66:241|60:229|57:212,1,160
76,158,5064,1,0
109,103,5271,2,0,B|142:76|147:75|152:73|156:72|160:72|162:72|168:72|180:71|192:71|201:71|208:72|221:84|233:92|237:102|242:108|242:108|240:113|239:118,1,160
240,176,5892,2,0,B|232:200|240:216|264:232|280:240|280:240|296:240|336:248|304:296,1,160
427,335,6720,5,0
386,285,6927,1,0
299,190,7341,1,0
393,103,7755,1,0
339,68,7962,1,0
289,28,8169,2,0,B|231:62|367:156|94:5|232:176|132:170|258:276|65:241,1,320
92,183,9204,5,4
189,99,9618,1,4
233,218,10032,1,4
200,272,10239,1,0
144,304,10446,5,0
144,240,10652,2,0,B|96:200|144:160,1,80
168,120,11066,2,0,B|200:64|240:48|240:48|280:112,1,160
312,143,11687,1,0
390,244,12101,1,0
437,201,12308,1,0
450,263,12515,2,0,B|404:316|341:307|311:260,1,160
189,296,13343,5,0
189,359,13550,2,0,B|251:316|257:272|327:281,1,160
323,216,14171,1,0
235,177,14481,1,0
235,177,14792,2,0,B|230:224|137:235|89:184|127:109|184:81|267:69|338:94|363:177|306:251|244:271,1,480
182,272,16241,5,0
182,272,16448,2,0,B|182:320|100:226|151:138|272:103,1,240
244,112,17275,5,0
282,162,17482,1,0
322,112,17689,2,0,B|363:82|321:36|236:39|192:48,1,160
167,74,18310,1,0
167,137,18517,1,0
147,263,18931,1,0
147,263,19138,2,0,B|176:339|283:266,1,160
433,150,20173,6,0,B|443:215|443:215|375:233|375:233|386:318|386:318|351:326,1,240
310,349,21001,2,0,B|194:328|220:277|220:277|260:260,1,160
304,291,21622,2,0,B|346:294|311:167|169:207|169:207|162:295|162:295|114:292,1,320
240,216,22864,5,0
153,121,23278,5,0
153,121,23484,5,0
216,119,23691,5,0
263,162,23898,1,0
246,223,24105,1,0
185,242,24312,2,0,B|151:298|168:320|194:336|228:345|244:349|258:311,1,160,0|6
292,280,24933,1,0
356,284,25140,2,0,B|336:240|321:219|387:204,1,80,0|2
417,197,25554,1,0
405,134,25761,2,0,B|367:98|367:98|310:116|296:152|325:177,1,160,0|2
282,295,26589,5,0
282,231,26796,2,0,B|282:58,1,160,0|12
282,71,27417,2,0,B|194:71,1,80,8|8
138,71,27831,1,0
138,71,28038,2,14,B|173:121|165:166|68:184|69:214|111:226|122:226|150:242|186:252|232:251|190:181|191:181|253:227|253:227|237:276|162:294|193:331|193:331|229:340,1,480
290,340,29487,5,4
400,336,29694,5,4
400,224,29900,6,4,B|384:240|376:240|360:240|344:240|328:224|328:216,1,80,0|0
203,196,30521,5,0
139,193,30728,1,0
203,196,30935,1,0
139,193,31142,1,0
266,193,31556,5,0
296,249,31763,1,0
332,196,31970,1,0
459,194,32384,2,0,B|458:276|393:328|269:330,1,240,0|2
175,275,33419,6,4,B|175:111,1,160
175,51,34040,5,0
236,67,34247,1,0
277,115,34454,1,0
301,174,34661,1,0
300,237,34868,2,0,B|300:293|350:308,1,80,0|8
399,313,35282,2,0,B|437:280|428:229,1,80,0|8
427,178,35696,2,0,B|426:125|481:113,1,80,0|8
432,64,36110,5,4
328,64,36316,5,4
328,160,36523,6,4,B|320:200|256:160,1,80
168,76,37144,6,0,B|110:103|90:145|98:210|150:251|192:284|249:284|262:281|272:277,1,320,0|4
270,342,38179,1,12
209,361,38386,1,12
145,350,38593,2,12,B|72:321|102:274,1,80
91,232,39007,2,12,B|48:215|33:151|85:93|80:104|118:89,1,160
33,75,39628,5,0
86,40,39835,1,0
148,26,40042,2,0,B|189:36|193:40|198:44|204:50|210:58|212:61|212:66|212:68|215:72|220:77|223:84|224:90|224:94|225:100|225:106|228:112|228:116|225:121|221:128|219:132|216:138|212:144|204:146,1,160,2|0
212,141,40663,2,0,B|255:194|297:115,1,80,2|0
275,79,41077,1,0
272,15,41284,2,0,B|330:20|372:33|386:49|393:64|409:100|417:128|412:151|402:168|364:185|364:185|451:228|451:228|352:258|340:225,1,480,2|2
280,232,42733,5,4
280,336,42939,5,4
176,336,43146,6,4,B|176:224,1,80
48,242,43767,5,0
60,179,43974,1,0
123,187,44181,1,0
152,243,44388,1,0
279,241,44802,5,0
244,187,45009,1,0
297,151,45216,2,0,B|268:108|200:144,1,80
189,185,45630,2,0,B|100:141|101:99|129:65|160:53|250:53|369:87|390:148,1,400
362,324,47286,5,0
336,261,47493,2,0,B|408:201,1,80
364,154,47907,1,0
416,117,48114,2,2,B|370:76|292:86|240:136,3,160
148,266,49976,5,0
211,266,50183,1,0
338,266,50597,2,0,B|355:308|252:311|252:311|252:345|226:359,1,160
361,345,51425,2,0,B|452:336|409:285,1,80
426,244,51839,2,0,B|393:194|348:215,1,80
360,146,52253,2,0,B|318:112|293:113|282:114|259:119|232:130|204:141|180:168|180:220,1,240,0|6
98,116,53288,6,12,B|128:208|2:244,1,160
80,328,53909,2,12,B|144:304|272:304,1,160
240,200,54530,2,12,B|288:200|288:200|296:248|296:248|344:256|344:256|344:224|344:224|384:224|384:224|392:264|392:264|416:264|416:264|424:224,1,320
429,163,55565,5,0
473,209,55771,1,0
473,272,55978,2,0,B|446:320|387:322,1,80
347,319,56392,2,2,B|287:316|274:316|242:286|160:297,1,160
144,340,57013,5,0
93,300,57220,1,0
138,255,57427,1,0
81,225,57634,2,0,B|148:154,1,80,2|2
199,168,58048,2,0,B|254:139|254:139|324:140|324:140|345:188,1,160
392,192,58669,5,4
256,192,58876,1,4
128,192,59083,1,4
