osu file format v5

[General]
AudioFilename: 00_poketv1open.mp3
AudioLeadIn: 0
PreviewTime: -1
Countdown: 0
SampleSet: Normal
StackLeniency: 0.7
Mode: 0
LetterboxInBreaks: 1

[Metadata]
Title:Pokemon Theme (TV Edit)
Artist:Jason Paige
Creator:Ekaru
Version:Easy
Source:Pokemon
Tags:Bad Spacing

[Difficulty]
HPDrainRate:3
CircleSize:3
OverallDifficulty:4
SliderMultiplier:1.6
SliderTickRate:2

[Events]
//Background and Video events
0,0,"2478-pokemon-1-lityp.jpg"
1,-400,"pokemon_opening.avi"
//Break Periods
//Storyboard Layer 0 (Background)
//Storyboard Layer 1 (Failing)
//Storyboard Layer 2 (Passing)
//Storyboard Layer 3 (Foreground)
//Storyboard Sound Samples
//Background Colour Transformations
3,100,163,162,255

[TimingPoints]
4030,413.935839944809,4,1,0,100,1

[Colours]
Combo1 : 240,240,0
Combo2 : 255,0,0
Combo3 : 89,0,179
Combo4 : 0,0,255

[HitObjects]
8,192,3823,1,0
8,192,4029,1,0
136,192,4443,1,0
344,344,5271,2,0,B|408:296|408:216|384:168|368:120|366:150|288:112,1,240,0|8
40,40,6927,5,0
40,168,7341,1,0
40,296,7755,2,8,B|96:336|192:264|264:288|304:344|344:216|440:256|472:336|480:104,1,560,8|4
24,16,10652,5,0
152,16,11066,2,8,B|328:16,1,160
384,192,12101,2,4,B|280:120|280:120|168:216|168:216|176:288,1,320
360,288,13550,5,0
496,160,14171,1,0
472,352,14792,2,2,B|0:184,1,480,2|4
424,80,17275,5,0
304,32,17689,2,8,B|368:152|280:312|160:112|160:112|144:128,1,320
64,200,18931,1,8
64,200,19138,2,8,B|139:292|218:322|288:280,1,240
352,184,20173,6,0,B|328:224|280:192|264:128|288:80|312:64|312:64|168:16,1,320
184,192,21622,2,0,B|112:128|224:48|368:48|352:200,1,320
280,344,23898,6,0,B|192:328|184:200|264:40,1,320
120,64,25140,1,0
256,192,26796,1,4
448,200,27417,1,4
336,352,28038,2,4,B|296:352|256:304|256:184|216:104|96:104|24:304,1,480
104,272,29487,6,0,B|136:344|256:264|168:168|224:112,1,240
456,40,31763,5,0
456,232,32384,2,0,B|384:152|280:104|232:160|192:240|80:144,1,400,0|2
256,352,34247,5,8
256,224,34661,1,8
256,224,34868,1,8
256,96,35282,1,8
128,96,35696,1,8
64,208,36110,6,0,B|88:296|200:248|264:176,1,240
192,288,37144,6,0,B|312:344|280:224|176:120|328:104|360:104,1,320
440,200,38386,1,0
296,328,39007,1,0
304,136,39628,5,0
304,8,40042,2,0,B|128:96,1,160
160,79,40663,1,0
80,256,41284,2,2,B|56:376|144:488|201:144|280:424|384:344|424:176,1,480,2|14
442,148,42733,6,0,B|456:224|408:288|344:288|264:288,1,240
24,192,44802,5,0
24,192,45009,2,0,B|40:264|168:320,4,160
160,56,47493,5,0
160,184,47907,1,0
160,184,48114,2,0,B|312:272,1,160
400,336,48942,2,0,B|400:64,1,240
304,176,49976,5,2
304,176,50183,1,2
200,248,50597,1,2
200,120,51011,5,2
312,184,51425,1,2
416,256,51839,1,2
408,128,52253,2,2,B|384:80|256:88|176:200,1,240
112,72,53288,6,4,B|64:120|200:192,1,160
189,186,53909,2,4,B|264:200|312:240|296:296,1,160
298,281,54530,2,4,B|336:304|408:272|440:160|384:64|264:48|184:56|88:120,1,480
440,312,57013,5,0
312,312,57427,1,0
152,208,58048,2,0,B|424:152,1,240,0|4
392,224,58876,1,4
456,224,59083,1,4
