osu file format v8

[General]
AudioFilename: Pokemon.mp3
AudioLeadIn: 971
PreviewTime: 2826
Countdown: 0
SampleSet: Soft
StackLeniency: 0.7
Mode: 0
LetterboxInBreaks: 0

[Editor]
DistanceSpacing: 0.800000011920929
BeatDivisor: 4
GridSize: 8

[Metadata]
Title:Pokemon: !Hazte con todos! (TV size)
Artist:Jason Paige
Creator:mikhe
Version:Metapod
Source:Pokemon
Tags:First Opening Anime Spanish

[Difficulty]
HPDrainRate:3
CircleSize:3
OverallDifficulty:4
ApproachRate:4
SliderMultiplier:1.5
SliderTickRate:1

[Events]
//Background and Video events
0,0,"BG.jpg"
//Break Periods
//Storyboard Layer 0 (Background)
//Storyboard Layer 1 (Fail)
//Storyboard Layer 2 (Pass)
//Storyboard Layer 3 (Foreground)
//Storyboard Sound Samples
//Background Colour Transformations
3,100,0,0,0

[TimingPoints]
145,413.793103448276,4,2,0,50,1,0
28481,-100,4,2,0,50,0,1
34274,-100,4,2,0,50,0,0
41723,-100,4,2,0,50,0,1
45861,-100,4,2,0,50,0,0
52481,-100,4,2,0,50,0,1
54068,-100,4,2,0,50,0,0
57861,-100,4,2,0,50,0,1
58481,-100,4,2,0,100,0,0

[Colours]
Combo1 : 251,250,206
Combo2 : 244,0,0

[HitObjects]
288,192,3041,2,0,B|336:128|400:216|520:192,2,225,8|0|2
224,192,4489,2,0,B|176:256|112:168|-8:192,2,225,8|0|2
256,144,5938,2,0,B|256:69,1,75,8|0
256,192,6558,1,8
224,312,6972,2,0,B|256:352|304:296,2,75,0|0|8
48,64,8420,5,8
168,64,8834,1,4
288,64,9248,2,0,B|304:24|336:88|376:56,1,75,0|2
456,312,10282,5,8
336,312,10696,1,0
280,312,10903,1,8
224,312,11110,2,0,B|168:346|160:272|72:280,1,150,0|8
24,280,11731,1,2
256,96,12765,5,8
160,248,13386,1,2
352,248,14007,1,4
192,328,15455,5,8
256,328,15662,1,2
320,328,15869,1,4
184,64,16903,6,0,B|224:24|272:104|328:64,3,150,0|8|0|8
368,104,18351,1,2
472,248,18972,2,0,B|411:292,2,75,0|8|2
368,192,19800,2,0,B|312:184|256:272|235:198|216:136|174:195|136:256|56:168,1,300,8|8
360,80,21662,5,2
408,192,22076,1,4
352,296,22489,5,8
312,248,22696,1,0
280,200,22903,2,0,B|256:216|232:168|205:200,3,75,0|0|2|8
456,64,24351,6,0,B|392:120|504:208|432:312,1,225,2|8
272,312,25593,6,0,B|234:340|197:308,2,75,8|0|8
152,328,26420,2,0,B|-8:216|176:176|176:64,1,300,8|2
216,32,27455,2,0,B|288:120|352:16|440:88|448:272,1,375,8|0
392,280,28696,2,0,B|360:248|312:288,2,75,8|0|8
256,192,29731,5,8
88,96,30144,2,0,B|160:144|0:208|112:304,2,225
400,112,32834,6,0,B|454:48,4,75,0|8|0|8|0
320,272,34282,2,0,B|274:304|224:240|170:272,1,150,0|8
88,184,35110,1,0
88,128,35317,1,0
128,80,35524,1,2
184,72,35731,1,8
360,96,36351,6,0,B|472:128|464:264|280:312,1,300,0|8
264,336,37386,1,2
216,304,37593,1,8
104,248,38007,2,0,B|104:216|48:208|48:184,1,75,0|8
328,64,39248,5,2
456,192,39869,1,4
328,320,40489,1,8
72,64,41731,5,8
72,120,41938,2,0,B|88:144|48:176|88:208,1,75,2|8
72,256,42351,1,0
232,336,42972,5,0
352,336,43386,1,2
400,296,43593,2,0,B|368:240|504:232|457:138,2,150,8|0|8
256,192,44834,12,0,45869
256,56,46489,5,2
304,96,46696,2,0,B|336:64|392:112,1,75,8|0
424,120,47110,1,2
472,152,47317,2,0,B|469:212|355:205|375:266,2,150,8|0|8
232,144,48972,5,0
176,184,49179,1,8
176,248,49386,2,0,B|105:297|81:209|33:249,1,150,4|0
208,80,50627,5,0
264,96,50834,1,8
272,152,51041,2,0,B|342:201|366:113|414:153,1,150,4|0
136,80,52489,5,8
112,256,53110,2,0,B|264:344|424:240,1,300,8|4
384,80,54558,6,0,B|352:40|288:96|234:64,1,150,8|2
184,80,55179,2,0,B|135:84|131:160|58:161,1,150,8|2
64,224,55800,2,0,B|131:224|135:300|184:305,1,150,8|4
304,328,56627,5,0
360,312,56834,2,0,B|360:224|484:197,1,150,8|2
448,144,57455,1,8
344,80,57869,6,0,B|269:80,2,75,8|2|4
