osu file format v13

[General]
AudioFilename: La La La (cover) Naughty Boy (feat. Sam Smith) Megan Nicole and Jason Chen.mp3
AudioLeadIn: 1800
PreviewTime: 122733
Countdown: 0
SampleSet: Soft
StackLeniency: 0.7
Mode: 0
LetterboxInBreaks: 0
WidescreenStoryboard: 0

[Editor]
Bookmarks: 77003,91403,107723,138443,151883
DistanceSpacing: 1
BeatDivisor: 4
GridSize: 4
TimelineZoom: 1

[Metadata]
Title:La La La
TitleUnicode:La La La
Artist:Jason Chen x Megan Nicole
ArtistUnicode:Jason Chen x Megan Nicole
Creator:Pappy
Version:Tough
Source:
Tags:Cover Naughty Boy Sam Smith hotel cabana
BeatmapID:572063
BeatmapSetID:248786

[Difficulty]
HPDrainRate:6
CircleSize:4
OverallDifficulty:6.5
ApproachRate:7.5
SliderMultiplier:1.7
SliderTickRate:1

[Events]
//Background and Video events
0,0,"BG.jpg",0,0
//Break Periods
2,77213,91394
2,138653,151068
2,200093,212268
//Storyboard Layer 0 (Background)
//Storyboard Layer 1 (Fail)
//Storyboard Layer 2 (Pass)
//Storyboard Layer 3 (Foreground)
//Storyboard Sound Samples

[TimingPoints]
213,480,4,2,1,30,1,0
15573,-133.333333333333,4,2,2,40,0,0
22293,-133.333333333333,4,2,2,5,0,0
23013,-133.333333333333,4,2,2,40,0,0
24933,-133.333333333333,4,2,2,5,0,0
25173,-133.333333333333,4,2,2,40,0,0
29013,-133.333333333333,4,2,2,5,0,0
29973,-100,4,2,2,60,0,0
59733,-100,4,2,2,40,0,0
61653,-100,4,2,2,70,0,1
77013,-100,4,2,2,60,0,0
121173,-100,4,2,2,40,0,0
123093,-100,4,2,2,70,0,1
138453,-100,4,2,2,60,0,0
151893,-133.333333333333,4,2,2,20,0,0
167253,-133.333333333333,4,2,2,5,0,0
167373,-133.333333333333,4,2,2,20,0,0
169173,-100,4,2,2,70,0,1
184413,-100,4,2,2,70,0,0
184533,-100,4,2,2,70,0,1
199893,-100,4,2,2,60,0,0
215253,-100,4,2,1,50,0,0

[Colours]
Combo1 : 244,162,164
Combo2 : 180,210,145
Combo3 : 171,176,216
Combo4 : 241,199,120
Combo5 : 196,165,211
SliderBorder : 63,63,63

[HitObjects]
172,144,213,6,0,P|152:200|168:264,1,127.5,12|0,0:0|0:0,0:0:0:0:
343,264,933,2,0,P|360:203|340:144,1,127.5,2|0,0:0|0:0,0:0:0:0:
216,56,1653,2,0,B|256:71|256:71|296:56,1,85,2|0,0:0|0:0,0:0:0:0:
444,144,2133,6,0,B|384:123|384:123|322:144,1,127.5,10|0,0:0|0:0,0:0:0:0:
188,143,2853,2,0,B|128:123|128:123|68:144,1,127.5,2|0,0:0|0:0,0:0:0:0:
212,224,3573,1,2,0:0:0:0:
300,224,3813,1,0,0:0:0:0:
256,152,4053,6,0,L|256:24,2,127.5,10|0|2,0:0|0:0|0:0,0:0:0:0:
199,336,5973,2,0,P|256:361|313:337,2,127.5,10|0|2,0:0|0:0|0:0,0:0:0:0:
372,48,7893,6,0,B|356:112|392:112|372:173,1,127.5,6|0,0:0|0:0,0:0:0:0:
140,173,8613,2,0,B|120:112|156:112|140:48,1,127.5,2|0,0:0|0:0,0:0:0:0:
256,108,9333,2,0,L|256:192,1,85,2|2,0:0|0:0,0:0:0:0:
256,276,9813,6,0,P|196:284|132:256,1,127.5,10|0,0:0|0:0,0:0:0:0:
256,192,10533,2,0,P|316:184|380:212,1,127.5,2|0,0:0|0:0,0:0:0:0:
324,328,11253,1,0,0:0:0:0:
256,280,11493,1,2,0:0:0:0:
188,328,11733,6,0,P|136:292|106:236,2,127.5,10|0|2,0:0|0:0|0:0,0:0:0:0:
199,79,13653,2,0,P|256:55|313:80,2,127.5,10|0|0,0:0|0:0|0:0,0:0:0:0:
256,140,14613,2,0,L|256:168,1,21.25,0|2,0:0|0:0,0:0:0:0:
95,328,15573,6,0,B|152:296|224:320|224:320|192:264|208:232|256:187|304:232|320:264|288:320|288:320|356:296|418:324,2,510.000019454957,4|0|0,0:0|0:0|0:0,0:0:0:0:
256,192,19533,12,0,22293,0:0:0:0:
144,64,23013,5,0,0:0:0:0:
144,64,23253,2,0,B|184:72|224:56|224:56|256:64|256:64|304:88|316:132|256:188|196:132|208:88|256:64|256:64|288:56|288:56|328:72|368:64,1,446.250017023087
358,148,25173,2,0,P|256:213|153:144,1,255.000009727478
256,102,27093,5,0,0:0:0:0:
256,192,27213,12,0,29013,0:0:0:0:
120,92,29973,6,0,L|112:48,2,42.5,0|8|0,0:0|0:0|0:0,0:0:0:0:
124,176,30453,2,0,P|170:160|193:133,1,85,8|0,0:0|0:0,0:0:0:0:
256,76,30933,6,0,P|296:104|412:96,1,170,4|8,0:0|0:0,0:0:0:0:
472,36,31653,1,0,0:0:0:0:
472,36,31893,2,0,P|496:72|496:112,1,85,0|0,0:0|0:0,0:0:0:0:
440,176,32373,2,0,B|450:231|420:276|420:276|424:300,1,127.5,8|0,0:0|0:0,0:0:0:0:
460,320,32853,6,0,P|394:291|316:340,1,170,0|8,0:0|0:0,0:0:0:0:
256,280,33573,2,0,P|248:240|256:198,2,85,0|0|0,0:0|0:0|0:0,0:0:0:0:
200,340,34293,2,0,L|127:295,1,85,8|0,0:0|0:0,0:0:0:0:
56,344,34773,6,0,P|104:288|100:196,1,170,0|8,0:0|0:0,0:0:0:0:
76,116,35493,1,0,0:0:0:0:
76,116,35733,2,0,P|96:80|136:64,1,85
216,52,36213,2,0,B|256:64|256:64|298:52,1,85,8|0,0:0|0:0,0:0:0:0:
382,136,36693,6,0,B|342:124|342:124|300:136,1,85,0|0,0:0|0:0,0:0:0:0:
130,136,37173,2,0,B|170:124|170:124|212:136,1,85,8|0,0:0|0:0,0:0:0:0:
112,224,37653,2,0,P|104:268|124:312,1,85
192,256,38133,1,8,0:0:0:0:
256,312,38373,1,0,0:0:0:0:
320,256,38613,6,0,B|404:232|404:284|487:258,1,170,0|8,0:0|0:0,0:0:0:0:
444,184,39333,1,0,0:0:0:0:
444,184,39573,2,0,B|441:140|441:140|410:111,1,85,0|0,0:0|0:0,0:0:0:0:
324,96,40053,2,0,P|284:112|240:104,1,85,8|0,0:0|0:0,0:0:0:0:
164,136,40533,6,0,P|140:212|184:284,1,170,0|8,0:0|0:0,0:0:0:0:
256,236,41253,1,0,0:0:0:0:
256,236,41493,2,0,L|256:152,1,85
327,284,41973,2,0,P|372:296|412:288,1,85,8|0,0:0|0:0,0:0:0:0:
464,224,42453,6,0,P|460:144|390:97,1,170,0|8,0:0|0:0,0:0:0:0:
308,108,43173,1,0,0:0:0:0:
260,40,43413,2,0,B|167:29,1,85,0|0,0:0|0:0,0:0:0:0:
104,72,43893,2,0,P|80:112|84:148,1,85,8|0,0:0|0:0,0:0:0:0:
167,129,44373,5,0,0:0:0:0:
211,202,44613,1,0,0:0:0:0:
155,266,44853,1,8,0:0:0:0:
77,233,45093,1,0,0:0:0:0:
77,233,45333,2,0,P|69:275|88:320,1,85,0|0,0:0|0:0,0:0:0:0:
200,332,45813,1,8,0:0:0:0:
214,329,46293,6,0,L|302:329,1,85
300,244,46773,2,0,P|312:204|300:164,1,85,8|0,0:0|0:0,0:0:0:0:
212,163,47253,2,0,P|200:203|212:244,1,85
298,71,47733,2,0,B|256:80|256:80|214:71,1,85,8|0,0:0|0:0,0:0:0:0:
144,116,48213,6,0,P|108:144|80:180,1,85
212,164,48693,2,0,L|192:249,1,85,8|0,0:0|0:0,0:0:0:0:
300,164,49173,2,0,L|318:246,1,85,0|0,0:0|0:0,0:0:0:0:
368,116,49653,2,0,P|404:144|432:180,1,85,8|0,0:0|0:0,0:0:0:0:
448,256,50133,6,0,P|419:290|381:303,1,85
297,309,50613,2,0,B|256:297|256:297|215:309,1,85,8|0,0:0|0:0,0:0:0:0:
129,303,51093,2,0,P|90:288|64:256,1,85
140,220,51573,1,8,0:0:0:0:
144,216,52053,6,0,B|188:168|176:108|176:108|188:168|256:212|256:212|324:168|340:108|340:108|324:168|376:216,1,510,0|8,0:0|0:0,0:0:0:0:
396,48,53973,6,0,P|360:28|317:30,1,85
256,88,54453,2,0,L|256:172,1,85,8|0,0:0|0:0,0:0:0:0:
194,29,54933,2,0,P|152:27|116:48,1,85,0|0,0:0|0:0,0:0:0:0:
132,132,55413,2,0,L|108:216,1,85,8|0,0:0|0:0,0:0:0:0:
40,260,55893,6,0,P|120:300|192:276,1,170,0|8,0:0|0:0,0:0:0:0:
257,216,56613,1,0,0:0:0:0:
319,275,56853,2,0,P|399:299|472:260,1,170,0|8,0:0|0:0,0:0:0:0:
436,184,57573,1,0,0:0:0:0:
356,152,57813,6,0,P|312:128|296:96,1,85
216,92,58293,2,0,P|192:136|160:152,1,85,8|0,0:0|0:0,0:0:0:0:
156,232,58773,2,0,P|200:256|216:288,1,85
296,292,59253,2,0,P|320:248|352:232,1,85,8|0,0:0|0:0,0:0:0:0:
256,192,59733,5,2,0:0:0:0:
256,192,60693,2,0,P|272:232|296:268,2,85,2|0|8,0:0|0:0|0:0,0:0:0:0:
256,192,61413,1,0,0:0:0:0:
184,148,61653,6,0,P|132:156|100:144,1,85,4|0,0:0|0:0,0:0:0:0:
6,57,62133,2,0,P|47:48|88:60,1,85,10|0,0:0|0:0,0:0:0:0:
104,146,62613,2,0,B|94:201|94:201|104:258|104:258|94:314,1,170,0|10,0:0|0:0,0:0:0:0:
28,264,63333,1,0,0:0:0:0:
184,312,63573,6,0,P|258:351|328:312,1,170,2|10,0:0|0:0,0:0:0:0:
256,268,64293,1,0,0:0:0:0:
256,184,64533,2,0,L|256:100,1,85,0|0,0:0|0:0,0:0:0:0:
300,24,65013,1,10,0:0:0:0:
212,24,65253,1,0,0:0:0:0:
340,116,65493,6,0,P|381:106|422:114,1,85,6|0,0:0|0:0,0:0:0:0:
510,198,65973,2,8,P|469:208|428:200,1,85,10|0,0:0|0:0,0:0:0:0:
384,272,66453,2,0,L|366:355,1,85,0|0,0:0|0:0,0:0:0:0:
298,276,66933,2,0,B|256:268|256:268|214:276,1,85,10|0,0:0|0:0,0:0:0:0:
136,312,67413,6,0,P|168:272|160:200,2,127.5,2|0|2,0:0|0:0|0:0,0:0:0:0:
256,192,68613,1,0,0:0:0:0:
332,156,68853,1,10,0:0:0:0:
404,200,69093,1,0,0:0:0:0:
408,116,69333,6,0,P|372:80|340:70,1,85,4|0,0:0|0:0,0:0:0:0:
256,92,69813,2,0,L|256:8,1,85,10|2,0:0|0:0,0:0:0:0:
171,70,70293,2,0,P|132:84|104:115,1,85
32,164,70773,1,10,0:0:0:0:
108,200,71013,6,0,B|153:232|153:232|187:280|187:280|234:312,1,170,0|0,0:0|0:0,0:0:0:0:
312,284,71733,2,0,P|368:276|400:288,1,85,10|0,0:0|0:0,0:0:0:0:
476,264,72213,1,0,0:0:0:0:
448,188,72453,1,0,0:0:0:0:
335,127,72693,1,10,0:0:0:0:
443,59,72933,1,0,0:0:0:0:
374,189,73173,6,0,P|289:185|263:111,1,170,4|10,0:0|0:0,0:0:0:0:
196,60,73893,1,0,0:0:0:0:
124,104,74133,2,0,B|108:144|108:144|78:173,1,85
78,313,74613,2,0,B|94:273|94:273|124:244,1,85,10|0,0:0|0:0,0:0:0:0:
188,300,75093,5,0,0:0:0:0:
214,218,75333,1,2,0:0:0:0:
299,220,75573,1,8,0:0:0:0:
325,301,75813,1,2,0:0:0:0:
255,350,76053,5,0,0:0:0:0:
214,218,76293,1,2,0:0:0:0:
325,301,76533,1,8,0:0:0:0:
188,300,76773,1,2,0:0:0:0:
299,220,77013,5,4,0:0:0:0:
312,136,92373,6,0,B|312:176|256:192|256:192|200:208|200:248,1,170,4|8,0:0|0:0,0:0:0:0:
256,308,93093,1,0,0:0:0:0:
311,246,93333,2,0,B|312:208|256:192|256:192|200:176|200:136,1,170,0|8,0:0|0:0,0:0:0:0:
256,72,94053,1,0,0:0:0:0:
312,136,94293,6,0,P|360:124|396:128,1,85,0|0,0:0|0:0,0:0:0:0:
506,199,94773,2,0,P|466:211|424:208,1,85,8|0,0:0|0:0,0:0:0:0:
256,244,95493,1,0,0:0:0:0:
212,316,95733,1,8,0:0:0:0:
300,316,95973,1,0,0:0:0:0:
173,243,96213,6,0,P|136:172|176:100,1,170,0|8,0:0|0:0,0:0:0:0:
256,72,96933,1,0,0:0:0:0:
335,99,97173,2,0,P|375:170|339:243,1,170,0|8,0:0|0:0,0:0:0:0:
256,264,97893,1,0,0:0:0:0:
173,243,98133,6,0,P|152:204|141:163,1,85,0|0,0:0|0:0,0:0:0:0:
216,120,98613,2,0,L|205:35,1,85,8|0,0:0|0:0,0:0:0:0:
306,35,99093,2,0,L|296:120,1,85,0|0,0:0|0:0,0:0:0:0:
370,164,99573,2,0,P|359:205|339:243,1,85,8|0,0:0|0:0,0:0:0:0:
256,268,100053,6,0,B|216:252|176:272|176:272|136:292|92:272,1,170,0|8,0:0|0:0,0:0:0:0:
28,216,100773,1,0,0:0:0:0:
28,216,101013,2,0,P|14:173|25:135,1,85,0|0,0:0|0:0,0:0:0:0:
97,11,101493,2,0,P|110:51|100:92,1,85,8|0,0:0|0:0,0:0:0:0:
24,52,101973,6,0,L|212:88,1,170,0|8,0:0|0:0,0:0:0:0:
256,136,102693,1,0,0:0:0:0:
320,192,102933,2,0,P|333:231|320:272,1,85
236,363,103413,2,0,P|223:323|236:284,1,85,8|0,0:0|0:0,0:0:0:0:
320,272,103893,6,0,B|263:272|263:272|212:248|212:248|156:248,1,170,0|8,0:0|0:0,0:0:0:0:
92,192,104613,1,0,0:0:0:0:
92,192,104853,2,0,P|76:152|84:112,1,85
144,52,105333,1,8,0:0:0:0:
228,60,105573,1,0,0:0:0:0:
228,60,105813,6,0,B|256:80|263:110|263:110|328:132,2,127.5,0|0|0,0:0|0:0|0:0,0:0:0:0:
256,228,107013,1,0,0:0:0:0:
212,300,107253,1,8,0:0:0:0:
300,300,107493,1,0,0:0:0:0:
176,228,107733,6,0,L|140:152,1,85
296,28,108213,2,0,P|304:70|296:112,1,85,8|0,0:0|0:0,0:0:0:0:
216,112,108693,2,0,P|208:68|216:28,1,85,0|0,0:0|0:0,0:0:0:0:
372,152,109173,2,0,L|336:228,1,85,8|0,0:0|0:0,0:0:0:0:
324,312,109653,6,0,B|256:364|256:364|188:312,1,170,0|8,0:0|0:0,0:0:0:0:
256,260,110373,1,0,0:0:0:0:
336,236,110613,2,0,L|403:185,1,85
176,236,111093,2,0,L|109:185,1,85,8|0,0:0|0:0,0:0:0:0:
109,85,111573,6,0,L|176:136,1,85,0|0,0:0|0:0,0:0:0:0:
256,19,112053,2,0,L|256:104,1,85,8|0,0:0|0:0,0:0:0:0:
403,85,112533,2,0,L|336:136,1,85,0|0,0:0|0:0,0:0:0:0:
256,262,113013,1,8,0:0:0:0:
72,296,113493,6,0,B|108:376|248:368|256:260|256:260|264:368|404:376|448:308,1,510,0|8,0:0|0:0,0:0:0:0:
456,296,115413,6,0,P|412:292|376:272,1,85
320,212,115893,2,0,L|328:124,1,85,8|0,0:0|0:0,0:0:0:0:
184,127,116373,2,0,L|192:212,1,85
135,272,116853,2,0,P|98:292|56:296,1,85,8|0,0:0|0:0,0:0:0:0:
20,220,117333,6,0,L|52:128,1,85
168,136,117813,2,0,L|175:38,1,85,8|0,0:0|0:0,0:0:0:0:
344,136,118293,2,0,L|337:51,1,85,0|0,0:0|0:0,0:0:0:0:
492,220,118773,2,0,L|464:139,1,85,8|0,0:0|0:0,0:0:0:0:
404,200,119253,5,0,0:0:0:0:
248,340,119733,1,8,0:0:0:0:
108,184,120213,1,0,0:0:0:0:
264,44,120693,1,8,0:0:0:0:
256,192,121173,5,0,0:0:0:0:
256,192,122853,1,0,0:0:0:0:
180,232,123093,6,0,B|140:244|140:244|98:232,1,85,6|0,0:0|0:0,0:0:0:0:
2,148,123573,2,0,B|42:136|42:136|84:148,1,85,10|0,0:0|0:0,0:0:0:0:
98,231,124053,2,0,P|100:156|174:108,1,170,0|10,0:0|0:0,0:0:0:0:
256,84,124773,1,0,0:0:0:0:
296,160,125013,6,0,P|315:239|261:300,1,170,2|10,0:0|0:0,0:0:0:0:
236,220,125733,2,0,L|400:276,1,170
480,252,126453,2,0,P|496:200|488:168,1,85,10|0,0:0|0:0,0:0:0:0:
428,112,126933,6,0,B|392:140|348:128|348:128|308:120|264:136,1,170,6|10,0:0|0:0,0:0:0:0:
204,196,127653,1,0,0:0:0:0:
164,272,127893,2,0,P|166:329|186:357,1,85,2|0,0:0|0:0,0:0:0:0:
204,196,128373,2,0,P|201:138|181:110,1,85,10|0,0:0|0:0,0:0:0:0:
124,172,128853,6,0,B|48:224|48:224|28:256,2,127.5,2|0|2,0:0|0:0|0:0,0:0:0:0:
256,68,130053,1,0,0:0:0:0:
300,140,130293,1,10,0:0:0:0:
212,140,130533,1,0,0:0:0:0:
342,64,130773,6,0,P|382:56|426:64,1,85,6|0,0:0|0:0,0:0:0:0:
511,147,131253,2,0,P|469:155|428:148,1,85,10|0,0:0|0:0,0:0:0:0:
338,146,131733,1,0,2:0:0:0:
315,227,131973,1,0,0:0:0:0:
385,277,132213,1,10,0:0:0:0:
452,226,132453,6,0,P|404:296|436:372,1,170
488,304,133173,2,0,L|320:268,1,170,10|0,0:0|0:0,0:0:0:0:
256,212,133893,1,0,0:0:0:0:
172,192,134133,2,0,P|128:208|107:244,1,85,10|0,0:0|0:0,0:0:0:0:
44,370,134613,6,0,P|84:358|108:324,1,85,6|0,0:0|0:0,0:0:0:0:
32,288,135093,2,0,L|212:272,1,170,10|0,0:0|0:0,0:0:0:0:
256,212,135813,2,0,P|276:148|212:73,1,170
196,156,136533,5,0,0:0:0:0:
257,212,136773,1,2,0:0:0:0:
220,290,137013,1,8,0:0:0:0:
137,279,137253,1,2,0:0:0:0:
121,195,137493,5,0,0:0:0:0:
257,212,137733,1,2,0:0:0:0:
137,279,137973,1,8,0:0:0:0:
196,156,138213,1,2,0:0:0:0:
220,290,138453,5,4,0:0:0:0:
256,192,151893,12,0,153333,0:0:0:0:
172,128,153813,6,0,P|208:128|236:116,2,63.7500024318696,2|0|0,0:0|0:0|0:0,0:0:0:0:
112,80,154533,2,0,P|94:48|69:30,2,63.7500024318696,2|0|0,0:0|0:0|0:0,0:0:0:0:
100,156,155253,2,0,P|82:187|78:217,1,63.7500024318696,2|0,0:0|0:0,0:0:0:0:
78,346,155733,6,0,P|94:319|100:288,1,63.7500024318696,2|0,0:0|0:0,0:0:0:0:
79,214,156213,1,0,0:0:0:0:
152,232,156453,2,0,P|183:232|213:221,1,63.7500024318696,2|0,0:0|0:0,0:0:0:0:
266,166,156933,1,0,0:0:0:0:
288,240,157173,2,0,P|303:267|327:287,1,63.7500024318696,2|0,0:0|0:0,0:0:0:0:
400,312,157653,6,0,B|431:312|431:312|462:303,2,63.7500024318696,2|0|0,0:0|0:0|0:0,0:0:0:0:
386,236,158373,2,0,B|370:208|370:208|347:186,2,63.7500024318696,2|0|0,0:0|0:0|0:0,0:0:0:0:
328,288,159093,2,0,B|312:314|312:314|304:345,1,63.7500024318696,2|0,0:0|0:0,0:0:0:0:
228,336,159573,6,0,P|152:316|104:328,1,127.500004863739,2|0,0:0|0:0,0:0:0:0:
72,260,160293,2,0,P|127:204|140:156,1,127.500004863739,2|0,0:0|0:0,0:0:0:0:
204,204,161013,2,0,B|212:234|212:234|234:257,1,63.7500024318696,2|0,0:0|0:0,0:0:0:0:
280,196,161493,6,0,B|302:173|302:173|311:142,2,63.7500024318696,2|0|0,0:0|0:0|0:0,0:0:0:0:
236,132,162213,1,2,0:0:0:0:
204,204,162453,1,0,0:0:0:0:
280,196,162693,1,0,0:0:0:0:
160,140,162933,2,0,P|128:152|96:148,1,63.7500024318696,2|0,0:0|0:0,0:0:0:0:
0,93,163413,6,0,P|28:81|60:84,1,63.7500024318696,2|0,0:0|0:0,0:0:0:0:
136,68,163893,1,0,0:0:0:0:
160,140,164133,2,0,L|224:132,2,63.7500024318696,2|0|0,0:0|0:0|0:0,0:0:0:0:
112,200,164853,1,2,0:0:0:0:
132,272,165093,1,0,0:0:0:0:
204,292,165333,5,2,0:0:0:0:
256,192,165453,12,0,167253,0:0:0:0:
380,140,168213,6,0,P|388:96|343:31,1,127.500004863739
304,104,168933,1,0,0:0:0:0:
224,120,169173,6,0,P|184:128|140:120,1,85,6|0,0:0|0:0,0:0:0:0:
4,56,169653,2,0,P|46:48|88:56,1,85,10|0,0:0|0:0,0:0:0:0:
48,132,170133,2,0,P|24:220|76:272,1,170,0|10,0:0|0:0,0:0:0:0:
108,192,170853,1,0,0:0:0:0:
212,120,171093,6,0,B|256:108|294:134|294:134|332:160|376:148,1,170,2|10,0:0|0:0,0:0:0:0:
344,68,171813,2,0,B|304:90|296:136|296:136|287:181|247:203,1,170
188,264,172533,2,0,P|184:320|196:344,1,85,10|0,0:0|0:0,0:0:0:0:
264,296,173013,6,0,B|312:304|341:270|341:270|371:303|419:293,1,170,4|10,0:0|0:0,0:0:0:0:
400,208,173733,1,0,0:0:0:0:
412,124,173973,2,0,L|400:40,1,85
256,8,174453,2,0,L|268:92,1,85,10|0,0:0|0:0,0:0:0:0:
256,176,174933,6,0,P|180:200|132:192,2,127.5,2|0|2,0:0|0:0|0:0,0:0:0:0:
332,328,176133,1,0,0:0:0:0:
256,288,176373,1,10,0:0:0:0:
180,328,176613,1,0,0:0:0:0:
331,244,176853,6,0,L|339:160,1,85,4|0,0:0|0:0,0:0:0:0:
173,160,177333,2,0,L|181:244,1,85,10|0,0:0|0:0,0:0:0:0:
296,80,177813,2,0,B|256:96|256:96|216:80,1,85
256,4,178293,1,10,0:0:0:0:
256,4,178533,6,0,L|256:176,1,170
232,256,179253,2,0,P|184:280|152:276,1,85,10|0,0:0|0:0,0:0:0:0:
68,282,179733,1,0,0:0:0:0:
35,202,179973,1,0,0:0:0:0:
102,148,180213,1,10,0:0:0:0:
172,194,180453,1,0,0:0:0:0:
256,216,180693,6,0,P|300:200|336:208,1,85,4|0,0:0|0:0,0:0:0:0:
416,239,181173,2,0,P|457:236|487:208,1,85,10|0,0:0|0:0,0:0:0:0:
420,156,181653,1,0,0:0:0:0:
339,129,181893,1,0,0:0:0:0:
339,44,182133,1,10,0:0:0:0:
420,18,182373,1,0,0:0:0:0:
469,87,182613,5,0,0:0:0:0:
420,156,182853,1,2,2:0:0:0:
339,129,183093,1,8,2:0:0:0:
291,198,183333,1,2,2:0:0:0:
341,265,183573,5,0,2:0:0:0:
420,156,183813,1,2,2:0:0:0:
291,198,184053,1,8,0:0:0:0:
420,240,184293,1,2,0:0:0:0:
339,129,184533,6,0,P|301:114|255:120,1,85,6|0,0:0|0:0,0:0:0:0:
124,175,185013,2,0,P|164:190|206:186,1,85,10|0,0:0|0:0,0:0:0:0:
176,104,185493,2,0,B|162:158|162:158|173:214|173:214|159:268,1,170,2|10,0:0|0:0,0:0:0:0:
88,220,186213,1,0,0:0:0:0:
268,232,186453,6,0,P|327:184|421:208,1,170,2|10,0:0|0:0,0:0:0:0:
352,268,187173,2,0,B|338:214|338:214|349:158|349:158|336:104,1,170,0|0,0:0|0:0,0:0:0:0:
296,28,187893,2,0,B|256:44|256:44|216:28,1,85,10|0,0:0|0:0,0:0:0:0:
176,104,188373,6,0,B|162:158|162:158|173:214|173:214|159:268,1,170,4|10,0:0|0:0,0:0:0:0:
92,216,189093,1,0,0:0:0:0:
92,216,189333,2,0,P|44:208|8:216,1,85,2|0,0:0|0:0,0:0:0:0:
160,269,189813,2,0,P|208:277|244:269,1,85,10|0,0:0|0:0,0:0:0:0:
256,184,190293,6,0,B|249:142|249:142|264:102|264:102|256:60,2,127.5,2|0|2,0:0|0:0|0:0,0:0:0:0:
256,356,191493,1,0,0:0:0:0:
300,284,191733,1,10,0:0:0:0:
212,284,191973,1,0,0:0:0:0:
339,358,192213,6,0,P|379:366|421:353,1,85,6|0,0:0|0:0,0:0:0:0:
501,263,192693,2,0,P|460:255|420:268,1,85,10|0,0:0|0:0,0:0:0:0:
336,276,193173,1,0,0:0:0:0:
254,299,193413,1,0,0:0:0:0:
204,228,193653,1,10,0:0:0:0:
256,164,193893,6,0,B|236:124|256:83|256:83|276:40|256:0,1,170
172,80,194613,2,0,P|164:120|172:164,1,85,10|0,0:0|0:0,0:0:0:0:
340,88,195093,2,0,P|348:46|340:5,1,85,0|0,0:0|0:0,0:0:0:0:
296,208,195573,2,0,B|256:192|256:192|217:207,1,85,10|0,0:0|0:0,0:0:0:0:
180,324,196053,6,0,B|257:292|257:292|337:324,1,170,4|10,0:0|0:0,0:0:0:0:
420,304,196773,1,0,0:0:0:0:
420,304,197013,2,0,P|432:264|420:224,1,85
340,111,197493,2,0,P|328:151|340:192,1,85,10|0,0:0|0:0,0:0:0:0:
325,275,197973,5,0,0:0:0:0:
299,357,198213,1,2,0:0:0:0:
214,355,198453,1,8,0:0:0:0:
188,274,198693,1,2,0:0:0:0:
258,225,198933,5,0,0:0:0:0:
299,357,199173,1,2,0:0:0:0:
188,274,199413,1,8,0:0:0:0:
325,275,199653,1,2,0:0:0:0:
214,355,199893,5,4,0:0:0:0:
256,72,213093,5,0,0:0:0:0:
316,132,213333,2,0,P|324:176|316:216,1,85
256,312,213813,1,8,0:0:0:0:
196,252,214053,2,0,P|188:208|196:168,1,85
316,132,214533,1,0,0:0:0:0:
196,252,214773,1,8,0:0:0:0:
337,213,215013,1,0,0:0:0:0:
174,170,215253,5,4,0:0:0:0:
