osu file format v13

[General]
AudioFilename: La La La (cover) Naughty Boy (feat. Sam Smith) Megan Nicole and Jason Chen.mp3
AudioLeadIn: 1800
PreviewTime: 122733
Countdown: 0
SampleSet: Soft
StackLeniency: 0.7
Mode: 0
LetterboxInBreaks: 0
WidescreenStoryboard: 0

[Editor]
Bookmarks: 23243,77003,91403,107723,138443,151883
DistanceSpacing: 1
BeatDivisor: 4
GridSize: 4
TimelineZoom: 1

[Metadata]
Title:La La La
TitleUnicode:La La La
Artist:Jason Chen x Megan Nicole
ArtistUnicode:Jason Chen x Megan Nicole
Creator:Pappy
Version:Soft
Source:
Tags:Cover Naughty Boy Sam Smith hotel cabana
BeatmapID:572062
BeatmapSetID:248786

[Difficulty]
HPDrainRate:2
CircleSize:3
OverallDifficulty:2
ApproachRate:3
SliderMultiplier:1.1
SliderTickRate:1

[Events]
//Background and Video events
0,0,"BG.jpg",0,0
//Break Periods
2,77212,90933
2,138653,150453
2,200092,211893
//Storyboard Layer 0 (Background)
//Storyboard Layer 1 (Fail)
//Storyboard Layer 2 (Pass)
//Storyboard Layer 3 (Foreground)
//Storyboard Sound Samples

[TimingPoints]
213,480,4,2,1,30,1,0
15573,-133.333333333333,4,2,2,40,0,0
23253,-133.333333333333,4,2,2,40,0,0
24933,-133.333333333333,4,2,2,5,0,0
25173,-133.333333333333,4,2,2,40,0,0
29013,-133.333333333333,4,2,2,5,0,0
29973,-100,4,2,2,60,0,0
59733,-100,4,2,2,40,0,0
61653,-100,4,2,2,70,0,1
77013,-100,4,2,2,60,0,0
121173,-100,4,2,2,40,0,0
123093,-100,4,2,2,70,0,1
138453,-100,4,2,2,60,0,0
151893,-100,4,2,2,20,0,0
153333,-100,4,2,2,20,0,0
153453,-100,4,2,2,20,0,0
167253,-100,4,2,2,5,0,0
167373,-100,4,2,2,20,0,0
169173,-100,4,2,2,70,0,1
184413,-100,4,2,2,70,0,0
184533,-100,4,2,2,70,0,1
199893,-100,4,2,2,60,0,0
215253,-100,4,2,1,50,0,0

[Colours]
Combo1 : 244,162,164
Combo2 : 180,210,145
Combo3 : 171,176,216
Combo4 : 241,199,120
Combo5 : 196,165,211
SliderBorder : 63,63,63

[HitObjects]
212,164,213,6,0,P|176:268|196:316,2,165,12|2|2,0:0|0:0|0:0,0:0:0:0:
300,220,2133,2,0,P|336:116|316:68,2,165,10|2|2,0:0|0:0|0:0,0:0:0:0:
212,164,4053,6,0,B|172:124|188:68|188:68|160:0,1,165,10|2,0:0|0:0,0:0:0:0:
300,220,5973,2,0,B|340:260|324:316|324:316|352:384,1,165,10|2,0:0|0:0,0:0:0:0:
300,220,7893,6,0,B|348:156|348:156|364:72,2,165,6|2|2,0:0|0:0|0:0,0:0:0:0:
212,164,9813,2,0,B|164:228|164:228|148:312,2,165,10|2|0,0:0|0:0|0:0,0:0:0:0:
300,220,11733,6,0,P|380:236|452:200,1,165,10|2,0:0|0:0,0:0:0:0:
212,164,13653,2,0,P|132:148|164:28,1,220,10|2,0:0|0:0,0:0:0:0:
339,74,15573,6,0,B|333:138|256:191|256:191|168:247|155:336,1,330.000012588501,4|0,0:0|0:0,0:0:0:0:
72,192,18453,1,0,0:0:0:0:
173,74,19413,2,0,B|179:138|256:191|256:191|344:247|357:336,1,330.000012588501,0|0,0:0|0:0,0:0:0:0:
339,74,23254,6,0,B|334:138|257:191|257:191|169:247|156:336,1,330.000012588501,0|0,0:0|0:0,0:0:0:0:
76,192,26133,1,0,0:0:0:0:
173,74,27093,2,0,B|178:138|255:191|255:191|343:247|356:336,1,330.000012588501,0|0,0:0|0:0,0:0:0:0:
156,144,30933,6,0,P|144:196|252:304,1,220,4|0,0:0|0:0,0:0:0:0:
256,192,32373,1,8,0:0:0:0:
262,80,32853,2,0,P|353:134|356:240,1,220,0|0,0:0|0:0,0:0:0:0:
256,192,34293,1,8,0:0:0:0:
156,144,34773,6,0,P|92:128|48:136,2,110,0|8|0,0:0|0:0|0:0,0:0:0:0:
256,192,36213,1,8,0:0:0:0:
356,240,36693,2,0,P|420:256|464:248,2,110,0|8|0,0:0|0:0|0:0,0:0:0:0:
417,148,38133,1,8,0:0:0:0:
364,52,38613,6,0,B|256:72|256:72|148:52,1,220,0|0,0:0|0:0,0:0:0:0:
95,148,40053,1,8,0:0:0:0:
164,236,40533,2,0,P|140:328|28:356,1,220,0|0,0:0|0:0,0:0:0:0:
61,253,41973,1,8,0:0:0:0:
95,148,42453,6,0,B|123:124|123:124|106:91|114:50,1,110,0|8,0:0|0:0,0:0:0:0:
220,76,43413,2,0,P|276:69|322:40,1,110,0|8,0:0|0:0,0:0:0:0:
432,44,44373,2,0,B|468:108|468:108|464:180|464:180|504:244,1,220,0|0,0:0|0:0,0:0:0:0:
436,328,45813,1,8,0:0:0:0:
356,252,46293,6,0,B|260:288|208:220|208:220|152:148|60:184,1,330,0|8,0:0|0:0,0:0:0:0:
76,292,48213,2,0,B|178:301|210:222|210:222|246:138|344:149,1,330,0|8,0:0|0:0,0:0:0:0:
452,136,50133,6,0,L|468:28,2,110,0|8|0,0:0|0:0|0:0,0:0:0:0:
408,236,51573,1,8,0:0:0:0:
308,280,52053,2,0,L|256:64,1,220,0|0,0:0|0:0,0:0:0:0:
148,44,53493,1,8,0:0:0:0:
64,116,53973,6,0,P|44:164|60:220,1,110,0|8,0:0|0:0,0:0:0:0:
156,272,54933,2,0,P|176:224|160:168,1,110,0|8,0:0|0:0,0:0:0:0:
152,59,55893,2,0,P|100:75|64:116,1,110,0|8,0:0|0:0,0:0:0:0:
72,224,56853,2,0,P|124:208|160:167,1,110,0|8,0:0|0:0,0:0:0:0:
252,108,57813,5,0,0:0:0:0:
356,68,58293,1,8,0:0:0:0:
396,172,58773,1,0,0:0:0:0:
292,212,59253,2,0,P|240:220|184:196,1,110,8|2,0:0|0:0,0:0:0:0:
256,128,61653,6,0,P|163:101|71:176,1,220,6|0,0:0|0:0,0:0:0:0:
176,208,63093,1,10,0:0:0:0:
256,284,63573,1,2,0:0:0:0:
336,208,64053,1,10,0:0:0:0:
256,132,64533,2,0,P|240:80|240:64,2,55,0|0|10,0:0|0:0|0:0,0:0:0:0:
256,240,65493,6,0,P|208:284|164:292,1,110,6|10,0:0|0:0,0:0:0:0:
72,236,66453,2,0,P|120:192|164:184,1,110,0|10,0:0|0:0,0:0:0:0:
260,132,67413,2,0,B|312:144|366:115|366:115|416:144,2,165,2|2|10,0:0|0:0|0:0,0:0:0:0:
168,76,69333,6,0,P|152:124|164:180,1,110,4|10,0:0|0:0,0:0:0:0:
256,240,70293,2,0,P|268:292|252:344,1,110,0|10,0:0|0:0,0:0:0:0:
156,292,71253,2,0,L|376:292,1,220,0|0,0:0|0:0,0:0:0:0:
472,236,72693,1,10,0:0:0:0:
468,128,73173,6,0,P|444:76|400:48,1,110,4|10,0:0|0:0,0:0:0:0:
312,112,74133,2,0,B|256:120|256:120|204:112,1,110,0|10,0:0|0:0,0:0:0:0:
111,48,75093,2,0,P|65:78|44:128,2,110,0|8|0,0:0|0:0|0:0,0:0:0:0:
152,148,76533,2,0,L|164:204,2,55,8|2|4,0:0|0:0|0:0,0:0:0:0:
350,80,92373,6,0,B|284:88|256:38|256:38|228:88|162:80,1,220,4|0,0:0|0:0,0:0:0:0:
72,136,93813,1,8,0:0:0:0:
32,240,94293,2,0,P|68:316|192:304,1,220,0|0,0:0|0:0,0:0:0:0:
256,220,95733,1,8,0:0:0:0:
322,307,96213,6,0,P|424:327|480:240,1,220,0|0,0:0|0:0,0:0:0:0:
428,144,97653,1,8,0:0:0:0:
366,52,98133,2,0,L|256:52,1,110,0|8,0:0|0:0,0:0:0:0:
208,152,99093,2,0,L|318:152,1,110,0|8,0:0|0:0,0:0:0:0:
428,144,100053,6,0,P|395:245|294:291,1,220,0|0,0:0|0:0,0:0:0:0:
192,256,101493,1,8,0:0:0:0:
96,208,101973,2,0,P|95:305|203:361,1,220,0|0,0:0|0:0,0:0:0:0:
284,300,103413,1,8,0:0:0:0:
344,208,103893,6,0,B|312:164|312:164|312:108,1,110,0|8,0:0|0:0,0:0:0:0:
200,108,104853,2,0,B|200:164|200:164|168:208,1,110,0|8,0:0|0:0,0:0:0:0:
180,316,105813,2,0,B|256:349|256:349|332:316,2,165,0|0|8,0:0|0:0|0:0,0:0:0:0:
112,232,107733,6,0,P|93:179|106:129,1,110,0|8,0:0|0:0,0:0:0:0:
200,72,108693,2,0,P|219:125|206:175,1,110,0|8,0:0|0:0,0:0:0:0:
256,276,109653,1,0,0:0:0:0:
201,371,110133,1,8,0:0:0:0:
311,371,110613,1,0,0:0:0:0:
256,276,111093,1,8,0:0:0:0:
148,256,111573,6,0,P|184:152|184:136,1,110,0|8,0:0|0:0,0:0:0:0:
256,72,112533,1,0,0:0:0:0:
328,153,113013,2,0,P|338:207|364:256,1,110,8|0,0:0|0:0,0:0:0:0:
256,280,113973,1,8,0:0:0:0:
148,288,114453,2,0,P|118:292|92:300,2,55,0|0|8,0:0|0:0|0:0,0:0:0:0:
256,280,115413,5,0,0:0:0:0:
324,193,115893,1,8,0:0:0:0:
256,104,116373,1,0,0:0:0:0:
188,192,116853,1,8,0:0:0:0:
256,280,117333,2,0,P|298:300|362:297,1,110,0|8,0:0|0:0,0:0:0:0:
428,208,118293,2,0,P|386:188|322:191,1,110,0|8,0:0|0:0,0:0:0:0:
224,140,119253,6,0,L|256:32,2,110,0|8|0,0:0|0:0|0:0,0:0:0:0:
116,164,120693,2,0,L|84:272,1,110,8|2,0:0|0:0,0:0:0:0:
84,269,123093,6,0,L|146:58,1,220,6|0,0:0|0:0,0:0:0:0:
256,36,124533,1,10,0:0:0:0:
356,84,125013,2,0,P|380:132|300:264,1,220,2|0,0:0|0:0,0:0:0:0:
272,156,126453,1,10,0:0:0:0:
200,240,126933,6,0,B|165:235|165:235|127:245|127:245|92:240,1,110,6|10,0:0|0:0,0:0:0:0:
28,152,127893,2,0,P|34:110|77:55,1,110,2|10,0:0|0:0,0:0:0:0:
140,148,128853,2,0,B|184:108|241:116|241:116|284:80,2,165,2|2|10,0:0|0:0|0:0,0:0:0:0:
217,225,130773,6,0,P|189:269|193:325,1,110,6|10,0:0|0:0,0:0:0:0:
300,300,131733,2,0,P|328:256|324:200,1,110,0|10,2:0|0:0,0:0:0:0:
244,124,132693,2,0,P|256:40|372:32,1,220,0|0,0:0|0:0,0:0:0:0:
412,136,134133,1,10,0:0:0:0:
323,201,134613,6,0,B|307:253|307:253|307:309,1,110,6|10,0:0|0:0,0:0:0:0:
396,376,135573,2,0,B|412:324|412:324|412:268,1,110,0|8,0:0|0:0,0:0:0:0:
424,160,136533,2,0,P|347:92|242:121,1,220,0|0,0:0|0:0,0:0:0:0:
172,204,137973,2,0,P|144:224|120:228,2,55,8|2|4,0:0|0:0|0:0,0:0:0:0:
151,192,151893,6,0,P|256:87|360:192,1,330,0|0,0:0|0:0,0:0:0:0:
256,191,153813,6,0,P|151:297|47:191,1,330,2|2,0:0|0:0,0:0:0:0:
100,92,155734,2,0,P|235:156|312:27,1,330,2|2,0:0|0:0,0:0:0:0:
199,27,157653,6,0,P|276:156|412:92,1,330,2|2,0:0|0:0,0:0:0:0:
444,196,159573,2,0,P|377:236|145:164,1,330,2|2,0:0|0:0,0:0:0:0:
224,88,161493,6,0,P|284:137|296:379,1,330,2|2,0:0|0:0,0:0:0:0:
208,316,163413,2,0,P|147:266|135:24,1,330,2|2,0:0|0:0,0:0:0:0:
212,108,165333,2,0,B|268:108|268:108|318:128|318:128|376:128,2,165,2|0|0,0:0|0:0|0:0,0:0:0:0:
224,216,167253,2,0,B|168:216|168:216|118:196|118:196|60:196,2,165,0|0|0,0:0|0:0|0:0,0:0:0:0:
332,192,169173,6,0,P|340:140|313:91,1,110,6|10,0:0|0:0,0:0:0:0:
198,91,170133,2,0,P|172:138|180:192,1,110,0|10,0:0|0:0,0:0:0:0:
256,272,171093,2,0,P|328:303|435:228,1,220,2|0,0:0|0:0,0:0:0:0:
332,192,172533,1,10,0:0:0:0:
256,112,173013,6,0,L|256:2,1,110,4|10,0:0|0:0,0:0:0:0:
164,60,173973,2,0,P|148:104|164:168,1,110,0|10,0:0|0:0,0:0:0:0:
256,112,174933,2,0,L|184:264,2,165,2|2|10,0:0|0:0|0:0,0:0:0:0:
348,60,176853,6,0,P|364:104|348:168,1,110,4|10,0:0|0:0,0:0:0:0:
320,272,177813,2,0,P|347:318|395:343,2,110,0|10|0,0:0|0:0|0:0,0:0:0:0:
220,224,179253,2,0,P|144:208|56:308,1,220,10|10,0:0|0:0,0:0:0:0:
164,316,180693,6,0,L|80:112,1,220,4|0,0:0|0:0,0:0:0:0:
160,36,182133,1,10,0:0:0:0:
256,88,182613,1,0,0:0:0:0:
352,36,183093,1,8,2:0:0:0:
431,112,183573,2,0,L|448:172,2,55,0|2|8,2:0|2:0|0:0,0:0:0:0:
352,36,184533,6,0,B|312:80|324:138|324:138|356:184|360:240,1,220,6|2,0:0|0:0,0:0:0:0:
256,280,185973,1,10,0:0:0:0:
148,248,186453,2,0,B|128:196|128:196|128:140,1,110,2|10,0:0|0:0,0:0:0:0:
208,68,187413,2,0,B|228:120|228:120|228:176,1,110,0|10,0:0|0:0,0:0:0:0:
256,280,188373,6,0,P|312:300|362:293,1,110,4|10,0:0|0:0,0:0:0:0:
428,208,189333,2,0,P|372:188|322:195,1,110,2|10,0:0|0:0,0:0:0:0:
212,184,190293,2,0,B|221:122|272:94|272:94|289:42,2,165,2|2|10,0:0|0:0|0:0,0:0:0:0:
144,272,192213,6,0,P|76:292|0:184,1,220,6|0,0:0|0:0,0:0:0:0:
88,124,193653,1,10,0:0:0:0:
196,96,194133,2,0,L|308:88,1,110,0|10,0:0|0:0,0:0:0:0:
408,44,195093,1,0,0:0:0:0:
484,124,195573,1,10,0:0:0:0:
384,172,196053,6,0,P|356:236|364:272,1,110,4|10,0:0|0:0,0:0:0:0:
448,344,197013,2,0,P|476:280|468:244,1,110,0|10,0:0|0:0,0:0:0:0:
492,136,197973,2,0,P|421:65|311:85,1,220,0|0,0:0|0:0,0:0:0:0:
212,136,199413,2,0,P|176:148|160:148,2,55,8|2|4,0:0|0:0|0:0,0:0:0:0:
205,144,213333,6,0,P|189:192|201:248,1,110,0|8,0:0|0:0,0:0:0:0:
310,248,214293,2,0,P|323:195|307:144,2,110,0|8|4,0:0|0:0|0:0,0:0:0:0:
