osu file format v6

[General]
AudioFilename: Battle Frontier.mp3
AudioLeadIn: 3000
PreviewTime: 12995
Countdown: 1
SampleSet: Normal
StackLeniency: 0.7
Mode: 0
LetterboxInBreaks: 1

[Editor]
DistanceSpacing: 0.400000005960464
BeatDivisor: 8
GridSize: 8

[Metadata]
Title:Battle Frontier
Artist:Jason Appleton
Creator:Aoitenshi
Version:Speed Symbol
Source:Pokemon: Battle Frontier
Tags:Pokemon Ash Pikachu Symbol NoHitter

[Difficulty]
HPDrainRate:7
CircleSize:5
OverallDifficulty:7
SliderMultiplier:1.4
SliderTickRate:1

[Events]
//Background and Video events
Video,0,"Battle Frontier.avi"
0,0,"BAttle frontierz.PNG"
//Break Periods
//Storyboard Layer 0 (Background)
//Storyboard Layer 1 (Fail)
//Storyboard Layer 2 (Pass)
//Storyboard Layer 3 (Foreground)
Sprite,Foreground,Centre,"dbbpm.png",320,240 M,0,12585,,335,109 F,0,12585,12988,0,1 R,0,12988,13088,0,-0.4096001 R,0,13088,13189,-0.4096001,-1.645088E-07 R,0,13189,13290,-1.645088E-07,0.2457599 S,0,12585,13340,1 F,0,12988,13390,1 R,0,13290,13390,0.2457599,-1.657009E-07 S,0,13340,13390,1,1.53248 S,0,13390,13491,1.53248,1 S,0,13491,14145,1,1.010544 S,0,14145,14196,1.010544,1.502064 S,0,14196,14296,1.502064,1.010544 S,0,14296,14951,1.010544,1.02529 S,0,14951,15001,1.02529,1.43489 S,0,15001,15102,1.43489,1.02529 S,0,15102,15353,1.02529,1.029959 S,0,15353,15404,1.029959,1.338108 S,0,15404,15504,1.338108,1.032768 S,0,15504,15756,1.032768,1.037456 S,0,15756,15807,1.037456,1.528976 F,0,13390,15907,1 S,0,15807,15907,1.528976,1.037456 F,0,15907,16209,1,0 F,0,16209,19028,0 R,0,13390,19431,-1.657009E-07 F,0,19028,19431,0,1 R,0,19431,19531,-1.657009E-07,-0.2457601 R,0,19531,19632,-0.2457601,-1.657009E-07 R,0,19632,19733,-1.657009E-07,0.3276801 S,0,15907,19783,1.037456 R,0,19733,19833,0.3276801,-1.657009E-07 S,0,19783,19833,1.037456,1.508496 S,0,19833,19934,1.508496,1.037456 S,0,19934,20588,1.037456 S,0,20588,20639,1.037456,1.426576 S,0,20639,20739,1.426576,1.037456 S,0,20739,21394,1.037456 S,0,21394,21444,1.037456,1.447056 S,0,21444,21545,1.447056,1.037456 S,0,21545,21796,1.037456 S,0,21796,21847,1.037456,1.324176 S,0,21847,21947,1.324176,1.037456 S,0,21947,22199,1.037456 F,0,19431,22249,1 S,0,22199,22249,1.037456,1.365136 S,0,22249,22350,1.365136,1.037456 F,0,22249,22652,1,0
//Storyboard Sound Samples
//Background Colour Transformations
3,100,163,162,255

[TimingPoints]
512,402.684563758389,4,1,0,60,1,0
706,-100,4,2,0,60,0,0
3223,-100,4,1,0,60,0,0
3877,-100,4,2,0,60,0,0
6243,-100,4,1,0,60,0,0
13397,-50,4,1,0,60,0,1
17424,-100,4,1,0,60,0,0
19840,-50,4,1,0,60,0,1
23062,-50,4,1,0,60,0,0

[HitObjects]
256,192,109,1,2
256,192,310,1,2
256,192,512,1,2
368,192,914,5,2
360,136,1116,1,0
320,96,1317,2,4,B|224:104|256:192,1,140
256,304,2122,1,2
256,304,2324,2,2,B|336:248|248:184,1,140
256,136,2928,1,0
256,136,3129,1,0
256,80,3330,6,2,B|344:80,2,70
168,80,4035,1,2
168,160,4337,2,4,B|200:256|280:248,1,140
264,248,4941,1,4
264,192,5142,1,4
264,136,5344,5,2
208,40,5746,1,2
320,40,6149,1,2
264,40,6350,1,0
264,96,6552,2,0,B|264:136,3,35
264,160,6954,1,4
256,216,7156,6,2,B|208:216|200:176,2,70
312,216,7760,2,4,B|352:192|384:224|392:272|344:288,1,140
256,216,8565,1,4
256,216,8767,6,2,B|304:216|312:176,2,70
200,216,9371,2,4,B|160:192|128:224|120:272|168:288,1,140
256,216,10176,1,4
256,104,10579,6,2,B|256:24,4,70
256,216,11787,5,4
352,336,12189,1,4
160,336,12592,1,4
104,336,12793,5,0
104,304,12894,1,0
104,272,12995,1,4
104,240,13095,1,4
104,208,13196,1,4
104,176,13297,1,4
104,144,13397,6,2,B|240:72|376:144,1,280
408,192,14001,1,0
376,240,14203,2,2,B|240:328|112:240,1,280
56,240,14807,1,2
112,240,15008,2,4,B|128:176|208:176|248:176,1,140
280,176,15411,2,4,B|264:240|184:240|144:240,1,140
112,240,15814,1,2
208,192,16216,5,0
208,192,16418,1,0
144,96,16619,1,4
208,192,16820,1,0
272,96,17022,1,0
208,96,17424,6,0,B|208:47,3,35
208,96,17827,2,0,B|208:144,3,35
208,96,18230,1,0
320,40,18632,5,6
320,40,18834,1,6
320,40,19035,1,6
432,136,19438,5,2
432,192,19639,1,2
432,248,19840,6,6,B|304:336|168:248,1,280
144,200,20444,1,0
112,248,20646,2,6,B|240:336|376:248,1,280
376,136,21451,2,4,B|360:200|280:200|240:200,1,140
192,200,21854,2,4,B|208:136|288:136|328:136,1,140
376,136,22256,2,2,B|280:-24|248:280|160:80,1,280,2|2
336,192,23062,5,4
256,32,23465,1,4
176,192,23867,1,4
256,352,24270,1,4
256,208,24673,12,0,25881
256,192,26082,5,0
256,192,26283,1,4
256,80,26686,1,0
256,24,26887,1,4
256,136,27290,1,0
256,192,27491,1,4
256,304,27894,5,0
256,304,27995,1,0
256,304,28095,1,0
256,304,28196,1,0
256,304,28297,1,0
256,304,28397,1,0
256,304,28498,1,0
256,304,28599,1,0
256,304,28699,1,0
256,192,29102,5,6
256,192,29303,1,6
256,192,29505,1,6
