osu file format v6

[General]
AudioFilename: Battle Frontier.mp3
AudioLeadIn: 3000
PreviewTime: 12995
Countdown: 1
SampleSet: Normal
StackLeniency: 0.7
Mode: 0
LetterboxInBreaks: 1

[Editor]
DistanceSpacing: 0.899999976158142
BeatDivisor: 8
GridSize: 8

[Metadata]
Title:Battle Frontier
Artist:Jason Appleton
Creator:Aoitenshi
Version:Relax Symbol
Source:Pokemon: Battle Frontier
Tags:Pokemon Pikachu Ash Symbol NoHitter

[Difficulty]
HPDrainRate:2
CircleSize:4
OverallDifficulty:3
SliderMultiplier:1.2
SliderTickRate:2

[Events]
//Background and Video events
Video,0,"Battle Frontier.avi"
0,0,"BAttle frontierz.PNG"
//Break Periods
//Storyboard Layer 0 (Background)
//Storyboard Layer 1 (Fail)
//Storyboard Layer 2 (Pass)
//Storyboard Layer 3 (Foreground)
//Storyboard Sound Samples
//Background Colour Transformations
3,100,163,162,255

[TimingPoints]
512,402.684563758389,4,1,0,60,1,0
674,-100,4,2,0,60,0,0
3129,-100,4,1,0,60,0,0
3895,-100,4,2,0,60,0,0
6350,-100,4,1,0,60,0,0
13397,-100,4,1,0,60,0,1
17424,-100,4,1,0,60,0,0
19840,-100,4,1,0,60,0,1
23062,-100,4,1,0,60,0,0
27894,-200,4,1,0,60,0,0

[HitObjects]
256,192,109,2,4,B|256:120,2,60
352,192,914,6,2,B|352:128,1,60
352,80,1317,1,4
296,176,1720,1,4
352,264,2122,1,2
352,264,2324,2,2,B|296:328|240:248,1,120
256,128,3330,6,2,B|256:40,2,60
256,200,4035,1,2
256,272,4337,1,4
416,272,4941,5,4
360,272,5142,1,4
304,272,5344,2,2,B|252:342|206:276|195:246,2,120
80,240,6954,5,4
80,184,7156,2,0,B|80:120,3,60,2|2|2|2
80,240,8163,1,4
232,192,8767,6,2,B|232:256,3,60,2|2|2|2
320,192,9773,1,4
104,192,10579,6,0,B|104:256,4,60,2|2|2|2|2
168,104,11787,5,4
168,104,12189,1,4
168,104,12592,1,4
256,168,12995,5,2
256,168,13196,1,2
256,168,13397,2,2,B|336:168|336:264,1,120
336,240,14001,1,2
336,240,14203,2,2,B|280:288|216:232,1,120
224,240,14807,1,2
224,240,15008,6,4,B|224:176|224:176,1,60
224,184,15411,2,0,B|224:120,1,60
224,128,15814,1,2
328,128,16216,6,0,L|328:192,4,60,0|0|0|0|4
328,128,17424,1,4
256,192,18230,5,4
256,88,18632,5,6
256,88,18834,1,6
256,88,19035,1,6
368,88,19438,5,2
368,88,19639,1,2
368,88,19840,2,2,B|363:143|323:175|283:167,1,120
296,168,20444,1,2
296,168,20646,2,6,B|272:168|224:152|224:80,1,120
120,64,21451,5,4
144,64,21652,1,4
168,64,21854,1,4
192,64,22055,1,4
216,64,22256,2,2,B|344:64,1,120
256,144,23062,5,4
160,192,23465,1,4
256,240,23867,1,4
352,192,24270,1,4
256,208,24673,12,0,25478
200,192,26082,5,2
200,192,26283,2,2,B|200:64,3,120
312,72,27894,2,2,B|312:208,1,120
256,232,29102,5,6
256,232,29303,1,6
256,232,29505,1,6
