osu file format v12

[General]
AudioFilename: Jason Appleton - Battle Frontier.mp3
AudioLeadIn: 0
PreviewTime: -1
Countdown: 1
SampleSet: Normal
StackLeniency: 0.7
Mode: 0
LetterboxInBreaks: 1
WidescreenStoryboard: 0

[Editor]
Bookmarks: 61097,61374
DistanceSpacing: 0.9
BeatDivisor: 4
GridSize: 8

[Metadata]
Title:Battle Frontier
TitleUnicode:Battle Frontier
Artist:Jason Appleton
ArtistUnicode:Jason Appleton
Creator:[Haineko]
Version:Thunderbolt
Source:Pokémon : Battle Frontier
Tags:
BeatmapID:209731
BeatmapSetID:73686

[Difficulty]
HPDrainRate:7
CircleSize:4
OverallDifficulty:5
ApproachRate:9
SliderMultiplier:1.60000000596046
SliderTickRate:2

[Events]
//Background and Video events
0,0,"BG-Pkmn-.jpg",0,0
//Break Periods
2,30107,34945
//Storyboard Layer 0 (Background)
//Storyboard Layer 1 (Fail)
//Storyboard Layer 2 (Pass)
//Storyboard Layer 3 (Foreground)
//Storyboard Sound Samples
//Background Colour Transformations
3,100,163,162,255

[TimingPoints]
512,402.684563758389,4,2,0,60,1,0
1317,-125,4,2,0,60,0,0
12995,-100,4,1,0,60,0,0
13791,-66.6666666666667,4,1,0,60,0,1
17818,-100,4,1,0,60,0,0
20234,-66.6666666666667,4,1,0,60,0,1
24261,-100,4,1,0,60,0,0
35545,-100,4,2,0,60,0,0
41183,-100,4,1,0,60,0,0
42784,-66.6666666666667,4,1,0,60,0,1
46811,-100,4,1,0,60,0,0
49227,-66.6666666666667,4,1,0,60,0,1
55669,-100,4,1,0,60,0,0
58891,-100,4,1,0,60,0,1
60099,-100,4,1,0,60,0,0

[Colours]
Combo1 : 0,0,0
Combo2 : 249,249,0
Combo3 : 255,0,0

[HitObjects]
392,264,1317,5,0,0:0:0:0:
312,240,1518,1,0,0:0:0:0:
264,176,1720,2,8,P|176:192|136:152,1,128.000000476837,8|0,0:0|0:0,0:0:0:0:
168,72,2324,1,0,0:0:0:0:
232,24,2525,1,8,0:0:0:0:
304,48,2726,6,0,P|408:112|416:112,1,128.000000476837,0|0,0:0|0:0,0:0:0:0:
464,168,3330,1,8,0:0:0:0:
440,240,3532,1,0,0:0:0:0:
376,280,3733,1,0,0:0:0:0:
304,264,3934,1,0,0:0:0:0:
184,192,4136,5,8,0:0:0:0:
368,128,4438,1,0,0:0:0:0:
184,96,4740,1,2,0:0:0:0:
368,40,4941,1,0,0:0:0:0:
424,144,5142,5,0,0:0:0:0:
424,160,5243,1,0,0:0:0:0:
424,176,5344,1,0,0:0:0:0:
424,256,5545,1,0,0:0:0:0:
360,328,5746,1,8,0:0:0:0:
296,256,5948,1,0,0:0:0:0:
216,304,6149,6,2,L|80:224,1,128.000000476837,0|10,0:0|0:0,0:0:0:0:
168,160,6753,1,0,0:0:0:0:
32,120,6954,1,4,0:0:0:0:
80,56,7055,1,4,0:0:0:0:
96,56,7156,1,4,0:0:0:0:
112,56,7256,1,4,0:0:0:0:
128,56,7357,1,2,0:0:0:0:
224,56,7558,5,0,0:0:0:0:
320,72,7760,1,0,0:0:0:0:
392,128,7961,1,0,0:0:0:0:
416,216,8163,1,0,0:0:0:0:
400,304,8364,2,0,P|352:344|336:352,1,64.0000002384184
120,192,8968,6,0,P|88:152|80:112,1,64.0000002384184
144,96,9371,1,0,0:0:0:0:
232,56,9572,1,0,0:0:0:0:
288,144,9773,1,0,0:0:0:0:
224,216,9975,1,0,0:0:0:0:
120,192,10176,1,2,0:0:0:0:
456,96,10579,5,0,0:0:0:0:
456,192,10780,2,0,P|456:248|448:280,1,64.0000002384184
432,336,11183,1,0,0:0:0:0:
368,272,11384,2,0,P|368:224|376:192,1,64.0000002384184
376,128,11787,1,0,0:0:0:0:
128,280,12189,1,0,0:0:0:0:
24,136,12592,1,0,0:0:0:0:
488,248,12995,1,0,0:0:0:0:
256,128,13196,1,0,0:0:0:0:
256,152,13297,1,0,0:0:0:0:
256,184,13397,1,0,0:0:0:0:
256,208,13498,5,0,0:0:0:0:
256,232,13599,1,0,0:0:0:0:
256,256,13699,1,0,0:0:0:0:
256,288,13800,2,0,P|368:312|464:192,1,240.000010049343
336,192,14404,1,0,0:0:0:0:
455,149,14605,2,0,P|369:72|256:96,1,240.000010049343
128,96,15209,5,0,0:0:0:0:
208,192,15411,1,0,0:0:0:0:
24,120,15612,1,0,0:0:0:0:
184,224,15814,1,0,0:0:0:0:
8,224,16015,1,0,0:0:0:0:
168,256,16216,2,0,P|224:328|368:288,1,240.000010049343
400,224,16820,6,0,L|496:144,1,120.000005024671
336,144,17223,1,0,0:0:0:0:
440,96,17424,2,0,P|344:40|192:112,1,240.000010049343
128,112,18028,5,0,0:0:0:0:
40,192,18230,1,0,0:0:0:0:
48,208,18330,1,0,0:0:0:0:
56,224,18431,1,0,0:0:0:0:
64,240,18532,1,0,0:0:0:0:
72,256,18632,1,0,0:0:0:0:
368,240,19035,5,4,0:0:0:0:
144,144,19236,1,4,0:0:0:0:
208,280,19438,1,0,0:0:0:0:
256,192,19639,5,0,0:0:0:0:
264,176,19740,1,0,0:0:0:0:
272,160,19840,1,0,0:0:0:0:
280,144,19941,1,0,0:0:0:0:
288,128,20042,1,0,0:0:0:0:
296,112,20142,1,0,0:0:0:0:
304,96,20243,6,0,P|368:72|480:192,1,240.000010049343
256,192,20847,1,8,0:0:0:0:
208,96,21048,2,0,P|144:72|32:192,1,240.000010049343
256,320,21652,6,0,P|320:288|344:224,1,120.000005024671
256,320,22055,1,0,0:0:0:0:
256,192,22256,2,0,P|320:120|376:120,1,120.000005024671
256,192,22659,1,0,0:0:0:0:
392,72,23062,5,4,0:0:0:0:
120,72,23263,1,4,0:0:0:0:
256,320,23465,2,0,B|360:208|136:192|288:80|272:56,2,240.000010049343
456,192,24673,1,0,0:0:0:0:
160,192,25075,2,0,B|224:128|232:64|152:-16|88:112|184:144|256:128|296:104,1,320.000001192092
376,104,26082,1,0,0:0:0:0:
440,176,26283,5,0,0:0:0:0:
472,200,26384,1,0,0:0:0:0:
488,232,26485,1,0,0:0:0:0:
488,264,26585,1,0,0:0:0:0:
472,296,26686,2,0,P|416:312|320:240,1,160.000000596046
152,256,27290,5,0,0:0:0:0:
152,256,27391,1,0,0:0:0:0:
152,256,27491,2,0,P|96:192|-8:176,1,160.000000596046
256,128,28095,5,0,0:0:0:0:
256,128,28196,1,0,0:0:0:0:
256,128,28297,2,0,P|312:72|416:96,1,160.000000596046
416,88,28800,1,0,0:0:0:0:
432,104,28901,1,0,0:0:0:0:
440,128,29001,1,0,0:0:0:0:
440,160,29102,2,0,P|432:216|336:288,1,160.000000596046
256,192,29706,1,4,0:0:0:0:
152,280,29907,1,4,0:0:0:0:
120,192,35545,5,0,0:0:0:0:
336,72,35746,1,0,0:0:0:0:
176,72,35948,1,0,0:0:0:0:
392,192,36149,5,0,0:0:0:0:
392,192,36250,1,0,0:0:0:0:
392,192,36350,2,0,L|392:304,1,80.000000298023
256,344,36753,1,0,0:0:0:0:
120,192,36954,5,0,0:0:0:0:
120,192,37055,1,0,0:0:0:0:
120,192,37156,2,0,P|176:248|264:208,2,160.000000596046
168,104,38163,1,0,0:0:0:0:
256,48,38364,1,0,0:0:0:0:
344,104,38565,1,0,0:0:0:0:
392,192,38767,2,0,P|336:248|248:208,2,160.000000596046
152,96,39975,5,0,0:0:0:0:
40,192,40176,1,0,0:0:0:0:
184,256,40377,1,0,0:0:0:0:
360,96,40780,5,0,0:0:0:0:
472,192,40981,1,0,0:0:0:0:
328,256,41182,1,0,0:0:0:0:
40,192,41585,1,0,0:0:0:0:
472,192,41988,1,0,0:0:0:0:
256,312,42189,5,0,0:0:0:0:
256,280,42290,1,0,0:0:0:0:
256,240,42391,1,0,0:0:0:0:
256,200,42491,1,0,0:0:0:0:
256,160,42592,1,0,0:0:0:0:
256,128,42693,1,0,0:0:0:0:
256,96,42793,2,0,P|328:80|480:160,1,240.000010049343
256,312,43397,5,0,0:0:0:0:
256,96,43599,2,0,P|184:80|32:160,1,240.000010049343
256,96,44203,6,0,L|352:192,1,120.000005024671
256,96,44605,2,0,L|136:216,1,120.000005024671
96,232,45008,5,0,0:0:0:0:
144,312,45209,2,0,P|224:336|216:192,1,240.000010049343
288,128,45814,1,0,0:0:0:0:
352,64,46015,1,0,0:0:0:0:
408,136,46216,1,0,0:0:0:0:
344,192,46418,1,0,0:0:0:0:
120,256,46820,1,0,0:0:0:0:
256,344,47223,5,0,0:0:0:0:
272,336,47324,1,0,0:0:0:0:
288,328,47424,1,0,0:0:0:0:
304,320,47525,1,0,0:0:0:0:
320,312,47626,2,0,P|392:264|424:168,1,160.000000596046
256,56,48230,1,0,0:0:0:0:
96,192,48431,1,0,0:0:0:0:
336,304,48834,5,0,0:0:0:0:
352,288,48934,1,0,0:0:0:0:
368,272,49035,1,0,0:0:0:0:
376,256,49135,1,0,0:0:0:0:
384,240,49236,1,0,0:0:0:0:
384,128,49438,1,0,0:0:0:0:
264,80,49639,1,0,0:0:0:0:
256,192,49840,1,0,0:0:0:0:
264,80,50042,2,0,P|176:56|80:160,1,240.000010049343
376,272,50847,6,0,P|408:208|424:160,1,120.000005024671
256,192,51250,2,0,P|216:272|192:352,1,120.000005024671
440,248,51652,2,0,P|472:160|472:112,1,120.000005024671
256,192,52055,1,0,0:0:0:0:
144,296,52458,6,0,P|96:232|80:168,1,120.000005024671
176,192,52860,2,0,P|128:112|88:88,2,120.000005024671
200,64,53465,1,0,0:0:0:0:
256,128,53666,6,0,P|344:96|384:64,1,120.000005024671
488,72,54069,2,0,P|472:144|352:256,1,240.000010049343
256,320,54673,1,0,0:0:0:0:
144,264,54874,1,0,0:0:0:0:
368,120,55277,5,0,0:0:0:0:
256,64,55478,1,0,0:0:0:0:
144,96,55679,2,0,P|104:152|96:200,1,80.000000298023
256,64,56082,1,0,0:0:0:0:
144,96,56283,2,0,P|104:152|96:200,1,80.000000298023
368,120,56686,1,0,0:0:0:0:
440,192,56887,1,0,0:0:0:0:
456,288,57089,1,0,0:0:0:0:
376,344,57290,5,0,0:0:0:0:
344,344,57390,1,0,0:0:0:0:
312,336,57491,1,0,0:0:0:0:
288,312,57592,1,0,0:0:0:0:
272,280,57692,1,0,0:0:0:0:
272,248,57793,1,0,0:0:0:0:
280,216,57894,1,0,0:0:0:0:
296,184,57994,1,0,0:0:0:0:
304,152,58095,2,0,P|256:104|144:88,1,160.000000596046
40,192,58699,1,4,0:0:0:0:
168,80,58901,1,4,0:0:0:0:
256,192,59102,12,0,60108,0:0:0:0:
