osu file format v12

[General]
AudioFilename: Jason Appleton - Battle Frontier.mp3
AudioLeadIn: 0
PreviewTime: -1
Countdown: 1
SampleSet: Normal
StackLeniency: 0.7
Mode: 0
LetterboxInBreaks: 1
WidescreenStoryboard: 0

[Editor]
DistanceSpacing: 0.9
BeatDivisor: 4
GridSize: 8

[Metadata]
Title:Battle Frontier
TitleUnicode:Battle Frontier
Artist:Jason Appleton
ArtistUnicode:Jason Appleton
Creator:[Haineko]
Version:Shadow Ball
Source:Pokémon : Battle Frontier
Tags:
BeatmapID:209730
BeatmapSetID:73686

[Difficulty]
HPDrainRate:5
CircleSize:4
OverallDifficulty:5
ApproachRate:8
SliderMultiplier:1.5
SliderTickRate:2

[Events]
//Background and Video events
0,0,"Bg-Pika ecto bgbg1.jpg",0,0
//Break Periods
2,31718,34795
//Storyboard Layer 0 (Background)
//Storyboard Layer 1 (Fail)
//Storyboard Layer 2 (Pass)
//Storyboard Layer 3 (Foreground)
//Storyboard Sound Samples
//Background Colour Transformations
3,100,163,162,255

[TimingPoints]
512,402.684563758389,4,1,0,60,1,0
1317,-125,4,1,0,60,0,0
8153,-66.6666666666667,4,1,0,60,0,0
8556,-100,4,1,0,60,0,0
9764,-66.6666666666667,4,1,0,60,0,0
10167,-100,4,1,0,60,0,0
13791,-66.6666666666667,4,1,0,60,0,1
17818,-100,4,1,0,60,0,0
20234,-66.6666666666667,4,1,0,60,0,1
23062,-100,4,1,0,60,0,0
28287,-200,4,1,0,60,0,0
29898,-100,4,1,0,60,0,1
31408,-100,4,1,0,60,0,0
35545,-125,4,2,0,60,0,0
41183,-100,4,1,0,60,0,0
42784,-66.6666666666667,4,1,0,60,0,1
46827,-100,4,1,0,60,0,0
49227,-66.6666666666667,4,1,0,60,0,1
53254,-100,4,1,0,60,0,0

[Colours]
Combo1 : 0,0,0
Combo2 : 253,253,0
Combo3 : 255,0,0

[HitObjects]
72,280,1317,1,8,0:0:0:0:
112,224,1518,1,8,0:0:0:0:
168,256,1720,2,0,P|200:216|176:112,1,150
120,104,2324,1,0,0:0:0:0:
88,48,2525,5,8,0:0:0:0:
152,24,2726,1,8,0:0:0:0:
208,56,2928,2,0,B|248:64|248:64|288:56,1,75
352,56,3330,1,0,0:0:0:0:
256,192,3733,1,0,0:0:0:0:
296,248,3934,1,8,0:0:0:0:
344,208,4136,1,8,0:0:0:0:
392,256,4337,2,0,B|416:288|416:288|400:328,1,75
336,304,4740,1,0,0:0:0:0:
280,344,4941,2,0,P|208:320|216:240,1,150
112,192,5545,6,0,P|72:176|48:136,2,75
128,120,6149,2,0,B|144:80|144:80|184:80|184:80|208:48|208:48|240:56,1,150
392,80,6954,1,4,0:0:0:0:
240,120,7357,2,0,L|152:120,1,75
120,176,7760,5,0,0:0:0:0:
88,240,7961,1,0,0:0:0:0:
136,304,8163,2,0,P|272:264|264:208,1,225.000008583069
392,152,8968,1,0,0:0:0:0:
280,72,9371,1,0,0:0:0:0:
176,144,9773,2,0,B|112:144|112:144|112:200|112:200|64:200|64:200|64:272,1,225.000008583069
256,248,10579,1,0,0:0:0:0:
256,248,10780,1,0,0:0:0:0:
192,192,10981,2,0,L|264:128,1,75,2|0,0:0|0:0,0:0:0:0:
336,112,11384,2,0,L|264:40,1,75,2|0,0:0|0:0,0:0:0:0:
216,56,11787,1,0,0:0:0:0:
120,152,12189,1,0,0:0:0:0:
344,192,12592,1,0,0:0:0:0:
256,296,12995,1,8,0:0:0:0:
208,248,13196,2,0,P|248:216|256:176,1,75
256,128,13599,1,0,0:0:0:0:
360,64,13800,2,0,B|384:96|384:96|416:120|416:120|392:152|392:144|384:192,1,150
392,256,14404,5,8,0:0:0:0:
336,312,14605,2,0,B|296:304|296:304|256:309|256:309|252:269|258:275|231:234,1,150
256,160,15209,2,0,B|216:160|216:160|176:136,1,75
256,160,15612,2,0,B|304:160|304:160|352:176,1,75
256,160,16015,1,0,0:0:0:0:
184,120,16216,1,0,0:0:0:0:
392,136,16619,1,0,0:0:0:0:
432,192,16820,1,0,0:0:0:0:
376,232,17022,5,0,0:0:0:0:
416,288,17223,1,0,0:0:0:0:
352,312,17424,2,0,B|280:336|280:336|184:304,1,150
144,336,18028,1,0,0:0:0:0:
112,272,18230,2,0,L|56:248,1,37.5
104,232,18431,2,0,L|80:200,1,37.5
104,176,18632,1,0,0:0:0:0:
352,192,19035,2,4,P|384:168|368:128,1,75
344,64,19438,2,0,P|296:56|288:8,1,75,4|0,0:0|0:0,0:0:0:0:
200,88,19840,1,0,0:0:0:0:
168,64,20042,1,0,0:0:0:0:
128,56,20243,2,0,P|88:80|72:176,1,150,2|0,0:0|0:0,0:0:0:0:
144,232,20847,5,8,0:0:0:0:
232,240,21048,2,0,P|312:224|352:160,1,150,2|0,0:0|0:0,0:0:0:0:
424,104,21652,2,8,L|320:104,1,75
256,104,22055,6,8,L|160:104,1,75
328,192,22458,2,8,L|240:192,1,75
256,280,23062,1,2,0:0:0:0:
344,120,23465,1,0,0:0:0:0:
168,120,23867,5,0,0:0:0:0:
344,272,24270,1,0,0:0:0:0:
168,280,24673,1,0,0:0:0:0:
256,192,25075,1,4,0:0:0:0:
160,192,25478,5,0,0:0:0:0:
88,136,25881,1,0,0:0:0:0:
192,88,26283,1,0,0:0:0:0:
256,32,26485,1,0,0:0:0:0:
312,88,26686,1,8,0:0:0:0:
160,192,27089,5,0,0:0:0:0:
120,288,27491,1,8,0:0:0:0:
232,272,27894,1,0,0:0:0:0:
256,192,28297,2,0,B|328:192|272:160|328:144|256:144|328:104|256:96|328:64,1,150,8|0,0:0|0:0,0:0:0:0:
408,184,29505,5,4,0:0:0:0:
368,256,29706,1,4,0:0:0:0:
448,256,29907,1,4,0:0:0:0:
256,192,30008,12,0,31518,0:0:0:0:
144,232,35545,5,0,0:0:0:0:
232,232,35746,1,0,0:0:0:0:
192,152,35948,1,0,0:0:0:0:
280,152,36149,1,0,0:0:0:0:
352,200,36350,2,0,P|448:176|440:128,1,150
424,64,36954,1,0,0:0:0:0:
336,48,37156,5,0,0:0:0:0:
256,192,37558,1,0,0:0:0:0:
88,144,37961,1,0,0:0:0:0:
104,224,38163,1,0,0:0:0:0:
160,280,38364,1,0,0:0:0:0:
240,304,38565,5,0,0:0:0:0:
328,304,38767,2,0,P|408:296|440:232,1,150
416,120,39572,2,0,L|512:120,2,75
328,120,40176,6,0,L|232:120,2,75
171,120,40780,2,0,L|96:120,2,75
24,120,41384,1,0,0:0:0:0:
136,272,41585,6,0,L|216:200,1,75
80,176,41988,2,0,L|8:104,1,75
104,88,42391,2,0,L|80:48,3,37.5
152,32,42793,2,2,L|320:72,1,150
376,104,43397,5,8,0:0:0:0:
384,184,43599,2,0,P|376:232|280:272,1,150,2|2,0:0|0:0,0:0:0:0:
208,240,44203,2,0,P|184:208|128:208,1,75
152,128,44605,2,0,P|216:120|240:96,1,75
264,184,45008,2,0,L|352:184,1,75
328,40,45612,1,0,0:0:0:0:
256,96,45814,1,0,0:0:0:0:
192,40,46015,1,0,0:0:0:0:
128,104,46216,5,0,0:0:0:0:
184,176,46418,1,0,0:0:0:0:
360,184,46820,1,4,0:0:0:0:
440,320,47223,1,8,0:0:0:0:
256,336,47626,1,8,0:0:0:0:
160,256,48028,5,4,0:0:0:0:
96,200,48230,1,4,0:0:0:0:
32,144,48431,1,4,0:0:0:0:
256,112,48834,5,0,0:0:0:0:
320,168,49035,1,0,0:0:0:0:
256,216,49236,2,0,P|256:280|336:320,1,150,2|2,0:0|0:0,0:0:0:0:
336,240,49840,5,8,0:0:0:0:
400,184,50042,2,0,P|448:112|400:72,1,150,2|2,0:0|0:0,0:0:0:0:
328,80,50646,1,0,0:0:0:0:
256,136,50847,1,0,0:0:0:0:
184,80,51048,1,0,0:0:0:0:
120,136,51250,1,0,0:0:0:0:
56,192,51451,2,0,P|64:248|104:264,1,75
216,280,52055,1,4,0:0:0:0:
312,64,52458,1,0,0:0:0:0:
112,64,52860,5,0,0:0:0:0:
384,64,53263,1,0,0:0:0:0:
192,64,53666,1,0,0:0:0:0:
312,64,54069,1,0,0:0:0:0:
248,64,54471,5,0,0:0:0:0:
192,64,54874,1,0,0:0:0:0:
312,64,55277,1,0,0:0:0:0:
120,64,55679,1,0,0:0:0:0:
64,128,55881,5,0,0:0:0:0:
120,192,56082,1,0,0:0:0:0:
64,248,56283,1,0,0:0:0:0:
120,312,56485,1,0,0:0:0:0:
176,248,56686,1,0,0:0:0:0:
240,184,56887,5,0,0:0:0:0:
184,104,57089,2,0,L|256:56,1,75,8|8,0:0|0:0,0:0:0:0:
304,120,57491,2,8,L|376:64,1,75
416,144,57894,2,0,L|456:200,2,37.5
376,256,58297,1,0,0:0:0:0:
320,320,58498,5,4,0:0:0:0:
256,256,58699,1,4,0:0:0:0:
192,192,58901,1,4,0:0:0:0:
