osu file format v12

[General]
AudioFilename: Jason Appleton - Battle Frontier.mp3
AudioLeadIn: 0
PreviewTime: -1
Countdown: 1
SampleSet: Normal
StackLeniency: 0.7
Mode: 1
LetterboxInBreaks: 1
WidescreenStoryboard: 0

[Editor]
Bookmarks: 1710
DistanceSpacing: 0.9
BeatDivisor: 4
GridSize: 8

[Metadata]
Title:Battle Frontier
TitleUnicode:Battle Frontier
Artist:Jason Appleton
ArtistUnicode:Jason Appleton
Creator:[Haineko]
Version:Poke Rhythm
Source:Pokemon : Battle Frontier
Tags:
BeatmapID:215239
BeatmapSetID:73686

[Difficulty]
HPDrainRate:7
CircleSize:4
OverallDifficulty:7
ApproachRate:8
SliderMultiplier:1.5
SliderTickRate:2

[Events]
//Background and Video events
0,0,"BG taiko.jpg",0,0
//Break Periods
//Storyboard Layer 0 (Background)
//Storyboard Layer 1 (Fail)
//Storyboard Layer 2 (Pass)
//Storyboard Layer 3 (Foreground)
//Storyboard Sound Samples
//Background Colour Transformations
3,100,163,162,255

[TimingPoints]
100,402.684563758389,4,1,0,60,1,0
200,-100,4,1,0,60,0,0
13791,-100,4,1,0,60,0,1
17818,-100,4,1,0,60,0,0
20234,-100,4,1,0,60,0,1
24261,-100,4,1,0,60,0,0
29898,-100,4,1,0,60,0,1
31408,-100,4,1,0,60,0,0
42784,-100,4,1,0,60,0,1
46827,-100,4,1,0,60,0,0
49227,-100,4,1,0,60,0,1
53254,-100,4,1,0,60,0,0

[Colours]
Combo1 : 128,255,255
Combo2 : 255,0,0

[HitObjects]
256,192,1308,1,0,0:0:0:0:
256,192,1509,1,0,0:0:0:0:
256,192,1710,5,8,0:0:0:0:
256,192,2113,5,0,0:0:0:0:
256,192,2314,1,0,0:0:0:0:
256,192,2516,5,8,0:0:0:0:
256,192,2717,1,0,0:0:0:0:
256,192,3120,5,4,0:0:0:0:
256,192,3724,5,0,0:0:0:0:
256,192,3925,5,0,0:0:0:0:
256,192,4126,5,8,0:0:0:0:
256,192,4529,5,8,0:0:0:0:
256,192,4730,1,8,0:0:0:0:
256,192,5133,1,0,0:0:0:0:
256,192,5334,5,8,0:0:0:0:
256,192,5536,5,0,0:0:0:0:
256,192,5737,5,8,0:0:0:0:
256,192,6140,5,0,0:0:0:0:
256,192,6341,1,0,0:0:0:0:
256,192,6542,5,8,0:0:0:0:
256,192,6945,5,0,0:0:0:0:
256,192,7146,1,0,0:0:0:0:
256,192,7348,5,4,0:0:0:0:
256,192,7549,1,0,0:0:0:0:
256,192,7750,5,0,0:0:0:0:
256,192,7951,1,0,0:0:0:0:
256,192,8153,1,0,0:0:0:0:
256,192,8556,5,2,0:0:0:0:
256,192,8959,5,0,0:0:0:0:
256,192,9160,1,0,0:0:0:0:
256,192,9361,1,0,0:0:0:0:
256,192,9562,1,0,0:0:0:0:
256,192,9764,1,0,0:0:0:0:
256,191,10167,5,2,0:0:0:0:
256,191,10569,5,0,0:0:0:0:
256,191,10972,5,8,0:0:0:0:
256,191,11375,5,0,0:0:0:0:
256,191,11777,5,8,0:0:0:0:
256,191,12180,5,0,0:0:0:0:
256,191,12381,1,0,0:0:0:0:
256,191,12583,5,8,0:0:0:0:
256,191,12784,1,8,0:0:0:0:
256,191,12985,5,0,0:0:0:0:
256,191,13187,1,0,0:0:0:0:
256,191,13388,5,8,0:0:0:0:
256,191,13589,5,0,0:0:0:0:
256,191,13791,6,2,L|72:191,1,150
256,191,14395,1,8,0:0:0:0:
106,191,14596,2,2,L|266:191,1,150
256,192,15200,5,0,0:0:0:0:
256,192,15402,1,8,0:0:0:0:
256,192,15603,5,8,0:0:0:0:
256,192,15804,1,0,0:0:0:0:
256,192,16006,5,0,0:0:0:0:
256,192,16207,5,8,0:0:0:0:
256,192,16610,5,0,0:0:0:0:
256,192,16811,1,8,0:0:0:0:
256,192,17012,5,4,0:0:0:0:
256,192,17214,1,8,0:0:0:0:
256,192,17415,5,4,0:0:0:0:
256,192,17616,1,8,0:0:0:0:
256,192,17818,5,4,0:0:0:0:
256,192,18019,2,0,L|445:63,1,225
256,192,19026,5,4,0:0:0:0:
256,192,19227,1,4,0:0:0:0:
256,192,19428,1,4,0:0:0:0:
255,192,19831,1,0,0:0:0:0:
255,192,20032,1,0,0:0:0:0:
255,192,20234,5,8,0:0:0:0:
255,192,20435,5,0,0:0:0:0:
255,192,20636,1,8,0:0:0:0:
255,192,20838,1,8,0:0:0:0:
255,192,21039,5,0,0:0:0:0:
255,192,21442,1,0,0:0:0:0:
255,192,21643,1,0,0:0:0:0:
255,192,21844,5,8,0:0:0:0:
255,192,22046,5,0,0:0:0:0:
255,192,22247,1,8,0:0:0:0:
255,192,22448,1,8,0:0:0:0:
255,192,22650,5,8,0:0:0:0:
255,192,22851,5,0,0:0:0:0:
255,192,23052,5,8,0:0:0:0:
255,191,23254,1,0,0:0:0:0:
255,191,23455,5,4,0:0:0:0:
256,192,23858,1,4,0:0:0:0:
256,192,24261,5,8,0:0:0:0:
256,192,24663,5,4,0:0:0:0:
256,192,25066,5,8,0:0:0:0:
256,192,25469,5,4,0:0:0:0:
256,192,25871,1,8,0:0:0:0:
256,192,26274,1,4,0:0:0:0:
138,203,26475,1,0,0:0:0:0:
138,203,26677,5,8,0:0:0:0:
138,203,26878,1,0,0:0:0:0:
138,203,27079,5,8,0:0:0:0:
138,203,27281,1,0,0:0:0:0:
138,203,27482,5,8,0:0:0:0:
138,203,27683,1,0,0:0:0:0:
138,203,27885,5,8,0:0:0:0:
138,203,28086,1,0,0:0:0:0:
138,203,28187,1,0,0:0:0:0:
138,203,28287,1,8,0:0:0:0:
138,203,28388,1,0,0:0:0:0:
138,203,28489,5,0,0:0:0:0:
138,203,28589,1,0,0:0:0:0:
138,203,28690,1,8,0:0:0:0:
138,203,28791,1,0,0:0:0:0:
138,203,28891,1,0,0:0:0:0:
138,203,28992,1,0,0:0:0:0:
138,203,29093,5,8,0:0:0:0:
138,203,29495,1,4,0:0:0:0:
138,203,29697,1,0,0:0:0:0:
138,203,29898,1,4,0:0:0:0:
256,192,30099,12,0,31509,0:0:0:0:
240,184,32717,6,8,L|72:184,1,150
88,184,33925,2,8,L|400:184,1,300
88,184,35536,2,8,L|272:184,1,150
136,264,36341,5,0,0:0:0:0:
200,208,36744,1,0,0:0:0:0:
200,208,36945,1,0,0:0:0:0:
200,208,37146,5,8,0:0:0:0:
200,208,37348,1,0,0:0:0:0:
200,208,37549,1,8,0:0:0:0:
200,208,37952,1,4,0:0:0:0:
200,208,38355,1,0,0:0:0:0:
200,208,38556,1,0,0:0:0:0:
200,208,38757,5,8,0:0:0:0:
200,208,38959,1,0,0:0:0:0:
200,208,39160,1,8,0:0:0:0:
200,208,39563,1,4,0:0:0:0:
200,208,39965,5,0,0:0:0:0:
200,208,40167,1,0,0:0:0:0:
200,208,40368,5,2,0:0:0:0:
200,208,40569,1,0,0:0:0:0:
200,208,40771,1,2,0:0:0:0:
200,208,40871,1,0,0:0:0:0:
200,208,40972,1,0,0:0:0:0:
200,208,41173,5,2,0:0:0:0:
200,208,41375,1,0,0:0:0:0:
200,208,41576,5,2,0:0:0:0:
200,208,41777,1,0,0:0:0:0:
200,208,41979,5,2,0:0:0:0:
200,208,42180,6,0,L|448:208,1,225
424,120,42985,1,4,0:0:0:0:
336,120,43187,6,2,L|160:120,1,150
104,120,43791,1,4,0:0:0:0:
192,120,43992,2,2,L|344:120,1,150
424,120,44596,5,8,0:0:0:0:
424,120,44797,1,8,0:0:0:0:
424,208,44999,5,8,0:0:0:0:
424,208,45200,1,8,0:0:0:0:
424,304,45603,5,0,0:0:0:0:
424,304,45804,5,0,0:0:0:0:
424,304,46006,1,8,0:0:0:0:
424,304,46207,5,0,0:0:0:0:
424,304,46408,1,0,0:0:0:0:
424,304,46610,1,0,0:0:0:0:
424,304,46811,5,8,0:0:0:0:
256,192,47012,12,0,47818,0:0:0:0:
120,160,48019,5,4,0:0:0:0:
120,160,48220,1,12,0:0:0:0:
120,160,48422,1,4,0:0:0:0:
256,192,48824,1,0,0:0:0:0:
256,192,49026,1,0,0:0:0:0:
256,192,49227,2,0,L|432:192,1,150
406,192,49831,1,0,0:0:0:0:
406,192,50032,1,4,0:0:0:0:
256,192,50435,5,0,0:0:0:0:
256,192,50838,5,0,0:0:0:0:
256,192,51039,5,8,0:0:0:0:
256,192,51240,5,8,0:0:0:0:
256,192,51442,1,0,0:0:0:0:
256,192,51643,5,8,0:0:0:0:
256,192,51844,1,8,0:0:0:0:
256,192,52046,1,4,0:0:0:0:
240,272,52448,5,4,0:0:0:0:
240,272,52851,5,8,0:0:0:0:
240,272,53254,5,4,0:0:0:0:
240,272,53657,5,8,0:0:0:0:
240,272,54059,5,4,0:0:0:0:
240,272,54462,5,8,0:0:0:0:
240,272,54865,5,4,0:0:0:0:
240,272,55267,5,4,0:0:0:0:
240,272,55670,5,0,0:0:0:0:
240,272,55872,1,0,0:0:0:0:
240,272,56073,5,8,0:0:0:0:
240,272,56274,1,8,0:0:0:0:
240,272,56476,5,0,0:0:0:0:
240,272,56677,5,8,0:0:0:0:
240,272,56878,1,8,0:0:0:0:
240,272,57079,5,0,0:0:0:0:
240,272,57281,1,0,0:0:0:0:
240,272,57482,5,8,0:0:0:0:
240,272,57583,5,0,0:0:0:0:
240,272,57784,1,0,0:0:0:0:
240,272,57885,5,8,0:0:0:0:
240,272,58086,5,0,0:0:0:0:
240,272,58489,1,4,0:0:0:0:
240,272,58690,1,0,0:0:0:0:
240,272,58891,1,4,0:0:0:0:
