osu file format v12

[General]
AudioFilename: Jason Appleton - Battle Frontier.mp3
AudioLeadIn: 0
PreviewTime: 46133
Countdown: 1
SampleSet: Soft
StackLeniency: 0.7
Mode: 0
LetterboxInBreaks: 1
WidescreenStoryboard: 0

[Editor]
DistanceSpacing: 0.9
BeatDivisor: 4
GridSize: 8

[Metadata]
Title:Battle Frontier
TitleUnicode:Battle Frontier
Artist:Jason Appleton
ArtistUnicode:Jason Appleton
Creator:[Haineko]
Version:Morning Sun
Source:Pokemon : Battle Frontier
Tags:Opening
BeatmapID:211089
BeatmapSetID:73686

[Difficulty]
HPDrainRate:0
CircleSize:3
OverallDifficulty:0
ApproachRate:3
SliderMultiplier:1
SliderTickRate:2

[Events]
//Background and Video events
0,0,"BG-pk.jpg",0,0
//Break Periods
2,30098,34096
//Storyboard Layer 0 (Background)
//Storyboard Layer 1 (Fail)
//Storyboard Layer 2 (Pass)
//Storyboard Layer 3 (Foreground)
//Storyboard Sound Samples
//Background Colour Transformations
3,100,163,162,255

[TimingPoints]
512,402.684563758389,4,2,1,60,1,0
13388,-100,4,1,0,60,0,0
13791,-100,4,1,0,60,0,1
17012,-100,4,1,0,60,0,0
20234,-100,4,1,0,60,0,1
29898,-100,4,1,0,60,0,0
31912,-100,4,1,0,60,0,0
42784,-100,4,1,0,60,0,1
46006,-100,4,1,0,60,0,0
49227,-100,4,1,0,60,0,1
58891,-100,4,1,0,60,0,0

[Colours]
Combo1 : 0,0,0
Combo2 : 255,255,0
Combo3 : 255,0,0

[HitObjects]
128,208,1308,1,0,0:0:0:0:
104,120,1710,1,0,0:0:0:0:
176,72,2113,2,0,P|240:64|264:88,1,100
320,152,2918,2,0,B|360:184|360:184|328:248,1,100
296,312,3724,2,8,P|232:296|224:248,1,100
136,288,4529,5,0,0:0:0:0:
168,208,4932,1,0,0:0:0:0:
256,192,5334,2,0,L|360:192,2,100
256,104,6542,1,0,0:0:0:0:
112,152,7348,1,4,0:0:0:0:
184,216,7751,1,0,0:0:0:0:
256,152,8153,5,0,0:0:0:0:
320,216,8556,2,0,L|416:152,1,100,2|2,0:0|0:0,0:0:0:0:
424,80,9361,1,0,0:0:0:0:
496,136,9764,1,0,0:0:0:0:
472,224,10167,6,0,L|376:288,1,100,2|2,0:0|0:0,0:0:0:0:
320,328,10972,1,0,0:0:0:0:
232,304,11375,1,0,0:0:0:0:
176,232,11777,1,0,0:0:0:0:
256,192,12180,2,2,P|304:160|304:104,1,100
256,48,12985,1,2,0:0:0:0:
304,336,13791,6,8,P|304:280|328:232,1,100,8|4,0:0|0:0,0:0:0:0:
336,160,14596,2,8,P|304:112|304:56,1,100,8|4,0:0|0:0,0:0:0:0:
208,72,15402,2,8,P|208:128|176:168,1,100,8|4,0:0|0:0,0:0:0:0:
184,248,16207,2,8,P|211:291|211:347,1,100,8|4,0:0|0:0,0:0:0:0:
120,320,17012,5,0,0:0:0:0:
48,264,17415,1,0,0:0:0:0:
48,176,17818,2,0,B|64:136|64:136|48:80|48:80|104:88|104:88|136:56|136:56,1,200
256,80,19026,1,0,0:0:0:0:
192,144,19428,1,0,0:0:0:0:
256,208,19831,5,0,0:0:0:0:
328,264,20234,5,4,0:0:0:0:
256,320,20636,1,8,0:0:0:0:
168,304,21039,2,0,B|120:312|120:312|80:272,1,100
48,192,21844,1,0,0:0:0:0:
96,112,22247,1,8,0:0:0:0:
160,176,22650,2,0,P|192:136|248:144,1,100,0|8,0:0|0:0,0:0:0:0:
256,224,23455,5,0,0:0:0:0:
340,248,23858,2,0,P|384:232|392:184,1,100,8|8,0:0|0:0,0:0:0:0:
368,96,24663,1,0,0:0:0:0:
288,144,25066,1,0,0:0:0:0:
256,192,25469,12,0,26677,0:0:0:0:
256,208,27079,5,8,0:0:0:0:
320,272,27482,1,0,0:0:0:0:
256,336,27885,1,8,0:0:0:0:
184,272,28287,2,2,B|192:208|256:240|256:200,2,100
128,344,29495,1,4,0:0:0:0:
48,296,29898,1,4,0:0:0:0:
440,240,35536,5,0,0:0:0:0:
368,296,35938,2,0,P|296:328|176:280,1,200,2|8,0:0|0:0,0:0:0:0:
256,232,37146,5,8,0:0:0:0:
328,176,37549,2,0,P|224:136|136:168,1,200
56,184,38757,1,8,0:0:0:0:
112,256,39160,1,8,0:0:0:0:
200,272,39563,2,0,B|248:248|248:248|304:248|304:248|280:208|280:208|296:152|296:152,1,200
256,80,40771,1,0,0:0:0:0:
344,88,41173,2,0,B|368:96|368:96|400:88|400:88|384:112|384:112|392:128,1,100
352,240,41979,6,0,B|248:104|288:328|192:232,1,200,0|2,0:0|0:0,0:0:0:0:
112,240,43187,1,8,0:0:0:0:
56,168,43589,1,4,0:0:0:0:
88,80,43992,5,8,0:0:0:0:
144,152,44395,1,4,0:0:0:0:
184,72,44797,2,0,B|208:64|208:64|232:48|232:48|256:64|256:64|272:72,1,100
256,160,45603,2,0,B|280:176|280:176|272:184|272:184|280:192|280:192|224:192|224:192|232:200|232:200|224:208|224:208|256:248|256:248|256:288,1,200
256,360,46811,5,2,0:0:0:0:
256,192,47214,12,0,48422,0:0:0:0:
64,96,48824,5,0,0:0:0:0:
120,24,49227,6,2,P|192:32|232:56,1,100,4|2,0:0|0:0,0:0:0:0:
176,120,50032,1,8,0:0:0:0:
128,192,50435,2,0,P|168:232|224:224,1,100,4|0,0:0|0:0,0:0:0:0:
256,312,51240,1,0,0:0:0:0:
304,232,51643,2,0,L|384:144,1,100,4|0,0:0|0:0,0:0:0:0:
256,192,52448,12,0,54865,0:0:0:0:
256,192,55267,6,0,L|184:192,2,50
168,272,56073,2,0,L|72:240,1,100
32,152,56878,6,0,P|64:96|112:80,1,100
184,120,57683,2,0,P|227:164|272:160,1,100
352,160,58489,6,4,P|400:160|432:120,1,100
