osu file format v12

[General]
AudioFilename: Jason Appleton - Battle Frontier.mp3
AudioLeadIn: 0
PreviewTime: -1
Countdown: 1
SampleSet: Normal
StackLeniency: 0.7
Mode: 2
LetterboxInBreaks: 1
WidescreenStoryboard: 0

[Editor]
DistanceSpacing: 0.9
BeatDivisor: 4
GridSize: 8

[Metadata]
Title:Battle Frontier
TitleUnicode:Battle Frontier
Artist:Jason Appleton
ArtistUnicode:Jason Appleton
Creator:[Haineko]
Version:Aeroblast CTB
Source:Pokemon : Battle Frontier
Tags:The hunterx
BeatmapID:209729
BeatmapSetID:73686

[Difficulty]
HPDrainRate:9
CircleSize:4
OverallDifficulty:8
ApproachRate:9
SliderMultiplier:1.5
SliderTickRate:2

[Events]
//Background and Video events
0,0,"BG-Pkmn1).jpg",0,0
//Break Periods
2,31718,35146
//Storyboard Layer 0 (Background)
//Storyboard Layer 1 (Fail)
//Storyboard Layer 2 (Pass)
//Storyboard Layer 3 (Foreground)
//Storyboard Sound Samples
//Background Colour Transformations
3,100,163,162,255

[TimingPoints]
512,402.684563758389,4,1,0,60,1,0
13791,-100,4,1,0,60,0,1
15200,-66.6666666666667,4,1,0,60,0,0
16207,-100,4,1,0,60,0,0
17818,-100,4,1,0,60,0,0
20234,-100,4,1,0,60,0,1
24261,-100,4,1,0,60,0,0
29898,-100,4,1,0,60,0,1
31408,-100,4,1,0,60,0,0
42784,-100,4,1,0,60,0,1
46827,-100,4,1,0,60,0,0
49227,-100,4,1,0,60,0,1

[Colours]
Combo1 : 0,0,0
Combo2 : 255,255,0
Combo3 : 255,0,0

[HitObjects]
256,288,1317,1,0,0:0:0:0:
384,240,1518,1,0,0:0:0:0:
256,192,1720,2,0,B|328:168|328:168|344:72,1,150
120,96,2324,1,0,0:0:0:0:
256,96,2525,5,0,0:0:0:0:
120,96,2726,1,0,0:0:0:0:
256,192,2928,1,0,0:0:0:0:
120,200,3129,2,0,B|48:248|48:248|112:320,1,150
256,344,3733,5,0,0:0:0:0:
432,344,3934,1,0,0:0:0:0:
256,344,4136,1,0,0:0:0:0:
432,192,4438,1,0,0:0:0:0:
120,192,4740,6,0,B|16:192|16:192|16:256,1,150
320,192,5344,2,0,L|368:192|408:192,1,75
200,192,5746,2,0,L|160:192|112:192,1,75
392,192,6149,1,0,0:0:0:0:
200,192,6350,1,0,0:0:0:0:
392,192,6552,5,0,0:0:0:0:
200,192,6753,1,0,0:0:0:0:
24,160,6954,2,0,L|64:120,3,37.5
320,240,7357,6,0,L|240:176,1,75
48,240,7659,2,0,L|104:190,1,75
256,192,7961,1,0,0:0:0:0:
104,192,8163,5,0,0:0:0:0:
104,192,8565,1,2,0:0:0:0:
320,232,8968,2,0,L|240:184,1,75
56,168,9270,2,0,L|136:120,1,75
120,104,9572,1,0,0:0:0:0:
256,72,9773,5,0,0:0:0:0:
256,72,9975,1,0,0:0:0:0:
464,192,10176,2,0,L|304:192,1,150
120,192,10780,5,0,0:0:0:0:
368,192,10981,1,0,0:0:0:0:
368,192,11183,1,0,0:0:0:0:
152,192,11384,5,0,0:0:0:0:
152,192,11585,1,8,0:0:0:0:
368,192,11787,1,0,0:0:0:0:
368,192,11988,1,0,0:0:0:0:
112,192,12189,5,0,0:0:0:0:
112,192,12391,1,0,0:0:0:0:
400,192,12592,1,0,0:0:0:0:
400,192,12793,1,0,0:0:0:0:
192,192,12995,6,0,L|232:152,1,37.5
400,192,13196,2,0,L|368:160,1,37.5
192,120,13397,6,0,L|232:80,1,37.5
432,120,13599,2,0,L|392:80,1,37.5
136,128,13800,6,8,B|72:160|72:160|96:248,1,150
376,128,14404,1,0,0:0:0:0:
136,128,14605,2,8,B|200:160|200:160|176:248,1,150
376,192,15209,1,0,0:0:0:0:
136,128,15411,5,0,0:0:0:0:
136,128,15612,1,0,0:0:0:0:
376,192,15814,1,8,0:0:0:0:
192,192,16015,1,0,0:0:0:0:
416,256,16216,5,0,0:0:0:0:
176,256,16418,2,0,L|216:224,1,37.5
128,312,16619,2,0,L|72:280,1,37.5,8|0,0:0|0:0,0:0:0:0:
256,304,16820,6,0,L|192:304,1,37.5
312,256,17022,1,8,0:0:0:0:
464,192,17223,1,0,0:0:0:0:
344,104,17424,1,4,0:0:0:0:
216,144,17626,5,0,0:0:0:0:
152,88,17827,2,2,B|80:88|80:152|32:152,1,112.5
248,296,18230,1,0,0:0:0:0:
216,304,18330,5,0,0:0:0:0:
184,304,18431,1,2,0:0:0:0:
160,304,18532,1,0,0:0:0:0:
128,304,18632,1,2,0:0:0:0:
336,216,18834,6,0,L|440:216,1,75,0|4,0:0|0:0,0:0:0:0:
192,216,19236,2,4,L|88:216,1,75
336,216,19639,1,0,0:0:0:0:
120,216,19840,1,0,0:0:0:0:
192,216,20042,5,0,0:0:0:0:
464,192,20243,2,8,B|432:136|432:136|344:88,1,150
256,128,20847,1,0,0:0:0:0:
40,192,21048,2,8,B|72:136|72:136|160:88,1,150
256,192,21652,5,0,0:0:0:0:
400,192,21854,2,0,L|504:192,1,75
256,192,22256,1,8,0:0:0:0:
40,192,22458,2,0,L|115:192,1,75
256,192,23062,5,4,0:0:0:0:
336,192,23465,1,0,0:0:0:0:
392,152,23666,1,0,0:0:0:0:
376,88,23867,2,0,B|328:112|328:112|280:24,1,150,8|0,0:0|0:0,0:0:0:0:
64,192,24471,5,0,0:0:0:0:
120,256,24673,2,0,B|160:232|160:232|176:192|136:120,1,150,8|0,0:0|0:0,0:0:0:0:
456,192,25277,1,0,0:0:0:0:
328,184,25478,1,8,0:0:0:0:
344,160,25579,5,0,0:0:0:0:
352,128,25679,1,0,0:0:0:0:
424,72,25881,5,0,0:0:0:0:
96,72,26082,2,0,L|184:72,1,75
416,192,26485,1,0,0:0:0:0:
264,120,26686,2,0,L|184:56,1,75
304,192,27089,6,0,L|384:152,1,75
208,192,27491,2,0,L|112:144,1,75
368,160,27894,2,0,L|440:88,1,75
248,192,28297,2,0,L|200:192,1,37.5
152,128,28498,2,0,L|112:88,1,37.5
256,128,28699,6,0,L|280:96,1,37.5
232,216,28901,2,0,L|200:184,1,37.5
320,216,29102,6,0,L|344:187,1,37.5
416,192,29303,2,0,L|504:192,1,75
416,192,29706,1,4,0:0:0:0:
488,192,29907,1,4,0:0:0:0:
256,192,30008,12,0,31518,0:0:0:0:
112,192,35746,5,0,0:0:0:0:
48,168,35948,1,0,0:0:0:0:
152,144,36149,1,0,0:0:0:0:
120,88,36350,1,4,0:0:0:0:
184,72,36552,6,0,L|272:24,1,75,0|8,0:0|0:0,0:0:0:0:
256,104,36954,1,0,0:0:0:0:
304,152,37156,2,0,B|336:192|320:248|320:248|384:272,1,150,0|8,0:0|0:0,0:0:0:0:
144,304,37760,1,0,0:0:0:0:
80,280,37961,5,0,0:0:0:0:
64,216,38163,1,0,0:0:0:0:
120,176,38364,2,0,L|208:112,1,75,8|0,0:0|0:0,0:0:0:0:
184,64,38767,5,8,0:0:0:0:
456,232,38968,2,0,L|384:184,1,75,0|8,0:0|0:0,0:0:0:0:
392,136,39371,1,0,0:0:0:0:
120,176,39572,6,0,L|192:128,1,75,0|8,0:0|0:0,0:0:0:0:
448,152,39975,2,0,L|528:88,1,75,8|8,0:0|0:0,0:0:0:0:
120,176,40377,2,0,L|48:152,1,75,8|0,0:0|0:0,0:0:0:0:
256,192,40780,1,0,0:0:0:0:
392,176,40981,2,0,L|472:136,1,75,8|0,0:0|0:0,0:0:0:0:
176,192,41384,1,0,0:0:0:0:
256,120,41585,5,2,0:0:0:0:
448,136,41787,1,2,0:0:0:0:
176,96,41988,1,2,0:0:0:0:
256,40,42189,5,0,0:0:0:0:
256,56,42290,1,0,0:0:0:0:
256,72,42391,1,0,0:0:0:0:
256,88,42491,5,0,0:0:0:0:
256,104,42592,1,0,0:0:0:0:
256,120,42693,1,0,0:0:0:0:
256,136,42793,6,8,L|432:184,1,150
88,176,43397,1,0,0:0:0:0:
400,176,43599,2,8,L|248:240,1,150
400,176,44203,6,8,L|472:104,1,75
112,184,44605,2,8,L|32:120,1,75
256,192,45008,2,4,L|280:112,1,75
312,112,45310,5,0,0:0:0:0:
376,112,45411,1,0,0:0:0:0:
432,88,45511,1,0,0:0:0:0:
472,40,45612,1,0,0:0:0:0:
176,104,45814,6,0,L|80:80,1,75
424,192,46216,2,0,L|336:224,1,75
64,320,46619,6,0,L|160:264,1,75,0|2,0:0|0:0,0:0:0:0:
424,272,47022,1,2,0:0:0:0:
256,224,47223,1,2,0:0:0:0:
272,192,47324,5,0,0:0:0:0:
296,160,47424,1,2,0:0:0:0:
312,128,47525,1,0,0:0:0:0:
336,96,47626,1,2,0:0:0:0:
128,136,47827,5,4,0:0:0:0:
336,72,48028,1,4,0:0:0:0:
128,48,48230,1,4,0:0:0:0:
336,72,48431,1,4,0:0:0:0:
360,96,48632,5,0,0:0:0:0:
336,112,48733,1,0,0:0:0:0:
320,128,48834,1,0,0:0:0:0:
312,152,48934,1,0,0:0:0:0:
320,176,49035,1,0,0:0:0:0:
336,200,49136,1,0,0:0:0:0:
360,224,49236,6,8,L|456:160,2,112.5
352,312,50042,2,0,P|272:288|232:232,1,150
144,192,50646,5,0,0:0:0:0:
128,184,50746,1,0,0:0:0:0:
112,176,50847,1,0,0:0:0:0:
104,88,51048,5,0,0:0:0:0:
192,88,51250,1,8,0:0:0:0:
192,88,51451,1,8,0:0:0:0:
256,152,51652,1,8,0:0:0:0:
256,152,51753,1,8,0:0:0:0:
256,152,51854,5,8,0:0:0:0:
336,192,52055,1,8,0:0:0:0:
376,272,52256,1,0,0:0:0:0:
256,304,52458,1,0,0:0:0:0:
160,264,52659,1,0,0:0:0:0:
256,224,52860,5,0,0:0:0:0:
160,184,53062,1,0,0:0:0:0:
336,168,53263,5,0,0:0:0:0:
160,104,53465,1,0,0:0:0:0:
408,104,53666,5,0,0:0:0:0:
160,24,53867,1,0,0:0:0:0:
32,80,54069,5,0,0:0:0:0:
64,120,54270,1,0,0:0:0:0:
56,160,54371,1,0,0:0:0:0:
72,200,54471,5,0,0:0:0:0:
104,224,54572,1,0,0:0:0:0:
144,232,54673,1,0,0:0:0:0:
184,224,54773,1,0,0:0:0:0:
208,208,54874,5,0,0:0:0:0:
240,288,55075,2,0,P|192:320|144:296,1,112.5
128,280,55478,1,0,0:0:0:0:
120,248,55579,1,0,0:0:0:0:
120,224,55679,6,0,L|160:152,1,75,0|8,0:0|0:0,0:0:0:0:
160,80,56082,1,0,0:0:0:0:
240,96,56283,2,0,L|304:48,1,75,0|8,0:0|0:0,0:0:0:0:
376,56,56686,1,0,0:0:0:0:
448,112,56887,6,0,L|416:208,1,75,8|8,0:0|0:0,0:0:0:0:
344,192,57290,2,0,L|288:192,3,37.5
256,192,57693,2,0,L|168:160,1,75,8|12,0:0|0:0,0:0:0:0:
128,112,58095,1,0,0:0:0:0:
416,112,58498,5,4,0:0:0:0:
128,112,58699,1,4,0:0:0:0:
416,112,58901,1,4,0:0:0:0:
256,192,59102,12,0,60511,0:0:0:0:
