osu file format v5

[General]
AudioFilename: 7d69f86ac4cc9f34cddda6ade5b3ff3a.mp3
AudioLeadIn: 0
PreviewTime: -1
Countdown: 1
SampleSet: Normal
StackLeniency: 0.7
Mode: 0
LetterboxInBreaks: 1
EditorBookmarks: 60130,61137,63433,69333,70340,122282,123289,124009,124584,125304,132498,136527

[Metadata]
Title:Endless Possibility
Artist:Jaret Reddick
Creator:Mifune24
Version:Normal
Source:
Tags:

[Difficulty]
HPDrainRate:5
CircleSize:4
OverallDifficulty:5
SliderMultiplier:1.4
SliderTickRate:1

[Events]
//Background and Video events
1,-6800,"d1a4c56fa52f787749d4544c05049b5c.avi"
//Break Periods
2,74574,77503
2,99610,107857
//Storyboard Layer 0 (Background)
//Storyboard Layer 1 (Failing)
//Storyboard Layer 2 (Passing)
//Storyboard Layer 3 (Foreground)
//Storyboard Sound Samples
//Background Colour Transformations
3,100,163,162,255

[TimingPoints]
9327,575.539568345324,4,1,0,70,1

[Colours]
Combo1 : 255,128,0
Combo2 : 5,240,5
Combo3 : 5,5,240
Combo4 : 240,5,5

[HitObjects]
128,64,18823,1,0
224,64,19255,1,0
288,64,19542,1,0
352,64,19830,1,0
448,128,20837,5,0
448,192,21125,2,0,B|448:256|448:320,1,105
447,363,21844,1,0
380,363,22132,1,0
288,352,22564,5,0
224,352,22852,1,0
224,288,23139,1,0
288,288,23427,1,0
256,224,23715,1,0
256,224,23859,1,0
352,192,25442,5,2
352,192,25729,1,2
160,192,26593,1,2
160,192,26880,1,2
160,64,28032,5,0
64,64,28463,1,0
64,128,28751,1,0
64,192,29039,2,0,B|192:192,1,105
320,192,30334,5,0
320,288,30765,1,0
320,352,31053,1,0
256,352,31341,2,0,B|128:352,1,105
87,352,32060,1,0
90,289,32348,1,0
160,288,32636,1,0
224,288,32924,1,4
224,288,33068,1,4
160,192,34650,5,2
160,192,34938,1,2
352,192,35801,1,2
352,192,36089,1,2
256,64,36952,5,0
320,64,37240,1,0
320,128,37528,1,0
288,192,37816,1,0
256,128,38103,2,0,B|96:128,1,140
96,192,38967,2,0,B|256:192,1,140
238,276,39974,2,0,B|171:330|123:319|89:287|66:262,1,175
64,96,41557,5,2
64,160,41844,1,2
64,224,42132,1,2
128,224,42420,1,2
128,160,42708,2,2,B|288:160,1,140
337,160,43571,1,2
352,268,44147,2,4,B|355:349|279:353|232:351|180:341|143:307|159:258,1,280
160,96,46161,5,0
192,32,46449,1,0
224,96,46737,1,0
256,32,47024,1,0
288,96,47312,2,0,B|288:256,1,140
288,304,48175,1,0
159,303,48751,2,0,B|95:303|95:207|191:207,1,140
257,191,49902,6,2,B|295:214|352:177,4,70
322,92,52204,2,2,B|268:52|247:121,4,70,0|0|0|0|0
434,95,53931,1,0
436,206,54506,2,0,B|434:286|373:307|335:275|334:227|337:188,1,210
256,96,55945,5,0
256,96,56233,1,0
256,96,56521,1,0
256,192,57096,1,0
256,192,57384,1,0
256,192,57672,1,0
256,288,58247,1,0
192,320,58535,1,0
256,352,58823,1,0
320,320,59111,1,0
475,200,60118,6,2,B|479:137|459:95|412:74|364:86|344:116|300:146,1,245
268,186,61413,1,0
268,185,61844,2,4,B|202:244|125:247|57:205|43:148|60:86|120:49|190:59,1,385
192,192,65154,5,2
192,192,65442,1,2
192,192,65729,1,2
320,192,66305,1,2
320,192,66593,1,2
320,192,67024,1,4
320,288,67456,5,0
256,256,67744,1,0
256,320,68032,1,0
192,288,68319,1,0
39,194,69326,6,2,B|40:134|126:81|206:73|241:157,1,245
262,191,70621,1,4
262,190,71053,2,4,B|292:243|361:272|456:251|497:152|477:99|413:53|369:53,1,385
256,192,72924,12,0,74362
256,64,78391,5,0
224,128,78679,1,0
224,128,78823,1,0
192,192,79111,1,0
256,320,79830,1,2
256,320,79974,1,2
288,256,80262,1,2
352,192,80693,5,2
288,192,80981,1,2
224,192,81269,1,2
160,192,81557,1,2
96,192,81844,1,2
32,192,82132,2,2,B|0:128|32:32,1,140
128,64,83283,6,4,B|192:64|192:128,6,70
116,134,85298,1,6
161,166,85585,1,6
115,198,85873,1,6
164,224,86161,1,6
120,259,86449,1,6
171,281,86737,2,6,B|230:315|307:308|319:264,1,140
256,96,90478,5,2
256,96,90765,1,2
256,96,91053,1,2
192,192,91629,5,2
192,192,91916,1,2
192,192,92204,1,2
256,288,92780,5,2
256,288,93068,1,2
256,288,93355,1,2
320,192,93931,5,4
320,192,94219,1,4
320,192,94506,1,4
256,192,94794,12,0,99398
64,192,108895,5,0
128,192,109183,1,0
192,192,109470,1,0
288,192,110046,5,0
352,192,110334,1,0
416,192,110621,1,0
416,288,111197,5,2
384,352,111485,1,2
352,288,111773,1,2
320,352,112060,2,2,B|192:352,1,105
147,353,112780,1,2
128,288,113068,2,2,B|64:224|128:96,1,175
224,64,114362,1,4
224,160,114794,1,4
224,224,115082,1,4
288,224,115370,2,4,B|384:224|448:160|448:64|352:32|288:32,1,315
256,64,118103,5,2
224,128,118391,1,2
288,128,118679,1,2
288,224,119255,5,2
256,288,119542,1,2
256,288,119686,1,2
224,224,119974,1,4
224,128,120406,5,0
224,64,120693,1,0
288,64,120981,1,0
288,128,121269,1,0
480,192,122276,6,0,B|480:288|384:320|320:288|288:224,1,245
256,192,123571,1,0
160,192,124003,1,0
96,192,124291,1,0
32,192,124578,2,0,B|32:288|128:320|160:320,1,175
256,320,125873,5,2
352,320,126305,1,2
416,320,126593,1,2
480,320,126880,2,4,B|480:128,1,175
480,32,128175,1,2
384,32,128607,1,2
320,32,128895,1,2
256,32,129183,2,4,B|64:32,1,175
32,128,130478,5,2
128,128,130909,1,2
160,192,131197,1,2
192,128,131485,2,4,B|384:128,1,175
480,128,132780,1,2
480,224,133211,1,2
448,288,133499,1,2
416,224,133787,2,4,B|224:224,1,175
256,192,134794,12,0,136521
