osu file format v5

[General]
AudioFilename: 7d69f86ac4cc9f34cddda6ade5b3ff3a.mp3
AudioLeadIn: 0
PreviewTime: -1
Countdown: 1
SampleSet: Normal
StackLeniency: 0.7
Mode: 0
LetterboxInBreaks: 1
EditorBookmarks: 60130,61137

[Metadata]
Title:Endless Possibility
Artist:Jaret Reddick
Creator:Mifune24
Version:Insane
Source:
Tags:

[Difficulty]
HPDrainRate:8
CircleSize:5
OverallDifficulty:7
SliderMultiplier:1.8
SliderTickRate:1

[Events]
//Background and Video events
1,-6800,"d1a4c56fa52f787749d4544c05049b5c.avi"
//Break Periods
2,74137,77647
2,99610,107857
//Storyboard Layer 0 (Background)
//Storyboard Layer 1 (Failing)
//Storyboard Layer 2 (Passing)
//Storyboard Layer 3 (Foreground)
//Storyboard Sound Samples
//Background Colour Transformations
3,100,163,162,255

[TimingPoints]
9327,575.539568345324,4,1,0,70,1

[Colours]
Combo1 : 255,128,0
Combo2 : 5,240,5
Combo3 : 5,5,240
Combo4 : 240,5,5

[HitObjects]
160,96,18823,5,0
160,96,18967,1,0
224,96,19255,1,0
288,96,19542,1,0
352,96,19830,1,0
417,185,20262,5,2
417,185,20550,1,2
373,242,20837,5,0
321,191,21125,1,0
321,191,21269,1,0
270,242,21557,1,0
319,293,21844,1,0
272,347,22132,2,0,B|186:348|194:251,1,135
188,188,22852,1,0
139,134,23139,1,0
186,80,23427,1,0
234,133,23715,1,0
234,133,23859,1,0
416,192,24291,5,2
416,192,24578,1,2
416,192,24866,1,2
256,352,25442,1,2
256,352,25729,1,2
256,352,26017,1,2
96,192,26593,1,2
96,192,26880,1,2
96,192,27168,1,2
254,82,28032,5,0
254,82,28175,1,0
254,154,28463,1,0
254,226,28751,1,0
255,298,29039,1,0
320,224,29470,5,2
320,224,29758,1,2
388,285,30190,5,0
388,285,30334,1,0
388,285,30478,1,0
336,334,30765,1,0
282,285,31053,1,0
335,236,31341,2,0,B|335:140|239:140,1,135
184,131,32060,1,0
131,81,32348,1,0
83,135,32636,1,0
134,185,32924,1,4
134,185,33068,1,4
128,256,33499,5,2
128,256,33787,1,2
128,256,34075,1,2
256,64,34650,1,2
256,64,34938,1,2
256,64,35226,1,2
384,256,35801,1,2
384,256,36089,1,2
384,256,36377,1,2
384,96,36952,5,0
352,32,37240,1,0
288,32,37528,1,0
256,96,37816,1,0
288,160,38103,2,0,B|352:160|384:224|352:256|288:256,1,180
224,256,38967,2,0,B|160:256|128:320|160:352|224:352,1,180
320,352,39974,1,0
416,288,40406,5,2
416,288,40693,1,2
416,288,40981,1,2
416,288,41269,1,2
416,224,41557,5,0
480,192,41844,1,0
480,128,42132,1,0
416,96,42420,1,0
352,128,42708,2,0,B|352:192|288:224|256:192|256:128,1,180
256,64,43571,1,0
96,64,44147,2,0,B|32:64|0:128|0:192|32:224|64:256|96:256,1,270
160,256,45298,5,2
160,256,45585,1,2
160,256,45873,1,2
224,288,46161,5,0
256,224,46449,1,0
320,224,46737,1,0
352,288,47024,1,0
288,288,47312,2,0,B|288:352|352:384|384:352|416:320,1,180
459,265,48175,1,0
459,120,48751,2,0,B|385:68|324:89|290:140,1,180
368,172,49902,6,2,B|453:169|459:245,4,90
295,173,51341,5,2
295,173,51629,1,2
295,173,51916,1,2
222,174,52204,2,4,B|171:173|138:215,4,90
333,265,53931,2,0,B|240:307|146:266,1,180
149,378,54938,2,0,B|83:380|24:333|4:281|15:230,1,225
128,192,55945,5,0
256,96,56233,1,0
384,192,56521,1,0
384,192,57096,1,0
256,288,57384,1,0
128,192,57672,1,0
36,303,58247,5,2
97,340,58535,1,2
168,346,58823,1,2
240,343,59111,1,2
310,329,59398,1,2
310,329,59542,1,2
379,309,59830,1,2
410,244,60118,2,2,B|325:167|325:167|449:171|449:171|396:110,1,315
345,64,61413,1,2
345,64,61557,1,2
277,40,61844,1,2
287,111,62132,1,2
217,129,62420,2,4,B|139:187|139:187|156:86|156:86|72:159|72:159|39:98|39:98|18:149,1,405
0,192,64003,5,0
0,192,64291,1,0
0,192,64578,1,0
0,192,64866,1,0
128,192,65154,5,2
256,288,65442,1,2
384,192,65729,1,2
384,192,66305,1,2
256,96,66593,1,2
256,96,66737,1,2
128,192,67024,1,4
49,266,67456,5,0
111,301,67744,1,0
180,319,68032,1,0
250,333,68319,1,0
321,325,68607,1,0
321,325,68751,1,0
388,300,69039,1,0
450,264,69327,2,0,B|450:154|450:154|357:214|357:214|358:103,1,315
356,47,70621,5,2
356,47,70765,1,2
293,11,71053,1,2
291,83,71341,1,2
228,47,71629,2,2,B|220:108|178:147|143:103|139:29|94:-12|18:12|30:103,1,315
30,171,72924,1,2
30,171,73068,1,2
80,221,73355,1,2
132,171,73643,1,2
79,121,73931,1,4
192,128,78391,6,0,B|256:64|256:64|288:128|288:128|352:96,1,225
352,192,79686,2,0,B|288:256|288:256|256:192|256:192|192:224,1,225
160,160,80693,5,2
192,128,80837,1,2
224,96,80981,1,2
288,96,81269,1,2
320,128,81413,1,2
352,160,81557,1,2
352,224,81844,2,2,B|256:320|256:320|160:224,1,270
160,160,82996,5,4
192,32,83283,1,4
192,32,83427,1,4
224,160,83715,1,4
256,32,84003,1,4
288,160,84291,1,4
320,32,84578,1,4
352,160,84866,1,4
352,256,85298,5,2
320,288,85442,1,2
288,320,85585,1,2
224,320,85873,1,2
192,288,86017,1,2
160,256,86161,1,2
160,192,86449,1,2
192,160,86593,1,2
224,128,86737,1,2
256,96,86880,1,2
352,128,87312,2,4,B|416:192|416:192|352:256,1,180
32,128,90478,5,2
96,96,90765,1,2
160,64,91053,1,2
480,256,91629,5,2
416,288,91916,1,2
352,320,92204,1,2
32,320,92780,5,2
96,288,93068,1,2
160,256,93355,1,2
480,64,93931,5,4
416,96,94219,1,4
352,128,94506,1,4
256,192,94794,12,0,99398
256,320,108895,5,0
160,192,109183,1,0
256,64,109470,1,0
256,64,110046,1,0
352,192,110334,1,0
256,320,110621,1,0
129,251,111197,5,2
61,225,111485,1,2
51,153,111773,1,2
104,105,112060,1,2
118,175,112348,1,2
118,175,112492,1,2
174,130,112780,1,2
155,60,113068,2,2,B|233:11|311:19|399:76,1,225
416,96,114075,5,4
434,126,114219,1,4
442,160,114362,1,4
452,194,114506,1,4
419,258,114794,1,4
383,195,115082,1,4
351,259,115370,2,4,B|353:322|302:339|249:312|253:222|240:159|179:140|115:170|87:235|116:301,1,405
256,160,116952,5,0
256,160,117240,1,0
256,160,117528,1,0
256,160,117816,1,0
256,64,118103,5,2
160,192,118391,1,2
256,320,118679,1,2
256,320,119255,1,2
352,192,119542,1,2
352,192,119686,1,2
256,64,119974,1,4
364,60,120406,5,0
427,92,120693,1,0
427,164,120981,1,0
363,130,121269,1,0
363,202,121557,1,0
363,202,121701,1,0
301,164,121988,1,0
302,91,122276,2,2,B|237:38|164:32|119:59|76:109,1,225
56,145,123283,5,4
67,179,123427,1,4
85,210,123571,1,4
107,237,123715,1,4
161,284,124003,1,4
192,219,124291,1,4
223,283,124578,2,4,B|286:293|291:187|338:159|420:173|427:200,1,225
478,183,125585,5,2
478,146,125729,1,2
477,109,125873,1,2
475,73,126017,1,2
390,181,126305,1,4
315,75,126593,1,4
230,184,126880,2,4,B|226:108|183:65|114:103,1,135
35,92,127600,1,4
35,164,127888,5,2
71,163,128032,1,2
106,163,128175,1,2
142,163,128319,1,2
147,291,128607,1,4
265,358,128895,1,4
380,290,129183,2,4,B|462:295|472:204,1,135
469,94,129902,1,4
386,68,130190,5,2
347,69,130334,1,2
310,69,130478,1,2
274,69,130621,1,2
278,199,130909,1,4
159,202,131197,1,4
160,70,131485,2,4,B|79:67|88:169,1,135
90,288,132204,1,4
169,288,132492,5,2
205,288,132636,1,2
239,287,132780,1,2
275,286,132924,1,2
392,287,133211,1,4
331,183,133499,1,4
454,183,133787,2,4,B|515:179|523:105|448:115,1,135
329,118,134506,1,4
256,119,134794,5,2
220,120,134938,1,2
183,120,135082,1,2
146,120,135226,1,2
176,244,135514,1,4
256,358,135801,1,4
343,246,136089,1,4
