osu file format v5

[General]
AudioFilename: 7d69f86ac4cc9f34cddda6ade5b3ff3a.mp3
AudioLeadIn: 0
PreviewTime: -1
Countdown: 1
SampleSet: Normal
StackLeniency: 0.7
Mode: 0
LetterboxInBreaks: 1
EditorBookmarks: 53211,53931,60130,61137,62420,63427,78391,79111,79830,80406,86737,87888,115370,116665

[Metadata]
Title:Endless Possibility
Artist:Jaret Reddick
Creator:Mifune24
Version:Hard
Source:
Tags:

[Difficulty]
HPDrainRate:7
CircleSize:5
OverallDifficulty:6
SliderMultiplier:1.6
SliderTickRate:1

[Events]
//Background and Video events
1,-6800,"d1a4c56fa52f787749d4544c05049b5c.avi"
//Break Periods
2,74131,77341
2,99610,107857
//Storyboard Layer 0 (Background)
//Storyboard Layer 1 (Failing)
//Storyboard Layer 2 (Passing)
//Storyboard Layer 3 (Foreground)
//Storyboard Sound Samples
//Background Colour Transformations
3,100,163,162,255

[TimingPoints]
9327,575.539568345324,4,1,0,70,1

[Colours]
Combo1 : 255,128,0
Combo2 : 5,240,5
Combo3 : 5,5,240
Combo4 : 240,5,5

[HitObjects]
96,64,18823,5,0
96,160,19255,1,0
96,224,19542,1,0
96,288,19830,1,0
320,288,20837,5,0
320,224,21125,1,0
320,224,21269,1,0
384,224,21557,1,0
384,160,21844,1,0
384,96,22132,2,0,B|320:64|256:96,1,120
203,94,22852,1,0
139,94,23139,1,0
141,158,23427,1,0
76,158,23715,1,0
76,158,23859,1,0
256,128,25442,5,2
256,128,25729,1,2
256,128,26017,1,2
256,256,26593,1,2
256,256,26880,1,2
256,256,27168,1,2
160,192,28032,5,0
256,192,28463,1,0
320,192,28751,1,0
384,192,29039,1,0
384,288,30334,5,0
384,288,30478,1,0
320,288,30765,1,0
256,288,31053,1,0
256,224,31341,2,0,B|192:192|128:224,1,120
76,223,32060,1,0
76,158,32348,1,0
11,159,32636,1,0
13,94,32924,1,4
13,94,33068,1,0
256,256,34650,5,2
256,256,34938,1,2
256,256,35226,1,2
256,128,35801,1,2
256,128,36089,1,2
256,128,36377,1,2
128,128,36952,5,0
64,128,37240,1,0
64,192,37528,1,0
64,256,37816,1,0
128,256,38103,2,0,B|224:288|288:256,1,160
348,254,38967,1,0
348,126,39542,2,0,B|293:90|232:126,1,120
256,320,41557,5,0
192,320,41844,1,0
192,256,42132,1,0
128,256,42420,1,0
63,256,42708,2,0,B|5:254|-13:197|20:154|69:163,1,160
127,163,43571,1,0
255,162,44147,2,0,B|255:242|340:271|376:247|402:213|395:139,1,240
192,320,46161,5,0
256,320,46449,1,0
256,256,46737,1,0
192,256,47024,1,0
192,192,47312,2,0,B|384:192,1,160
416,192,48175,1,0
416,64,48751,2,0,B|224:64,1,160
128,64,49902,6,2,B|181:18|208:95,4,80
194,178,52204,2,2,B|162:218|121:173,4,80
318,148,53931,2,4,B|387:92|472:154,1,160
473,245,54938,2,4,B|393:296|275:250,1,200
192,224,55945,5,0
192,160,56233,1,0
192,96,56521,1,0
320,96,57096,1,0
320,160,57384,1,0
320,224,57672,1,0
320,352,58247,5,2
320,288,58535,1,2
256,288,58823,1,2
256,352,59111,2,2,B|128:352,1,120
72,356,59830,1,2
71,291,60118,2,2,B|69:175|95:98|172:64|213:67,1,280
256,64,61413,5,4
256,64,61557,1,4
320,64,61844,1,4
384,64,62132,1,4
448,64,62420,2,4,B|450:180|424:257|347:291|306:288,1,280
320,128,65154,5,2
320,192,65442,1,2
320,256,65729,1,2
192,256,66305,1,2
192,192,66593,1,2
192,192,66737,1,2
192,128,67024,1,4
128,32,67456,5,0
192,32,67744,1,0
256,32,68032,1,0
256,96,68319,1,0
320,96,68607,1,0
320,96,68751,1,0
320,32,69039,1,0
384,32,69327,2,0,B|480:32|480:192,1,200
480,320,70621,5,2
480,320,70765,1,2
448,256,71053,1,2
416,192,71341,1,2
387,131,71629,2,2,B|297:83|216:79|115:133,1,280
74,175,72924,5,2
74,175,73068,1,2
51,234,73355,1,2
31,294,73643,1,2
12,355,73931,1,4
196,150,78391,6,0,B|193:84|260:49|317:89|312:160,1,200
314,276,79686,2,0,B|317:342|250:377|193:337|198:266,1,200
185,214,80693,1,2
220,154,80981,1,2
252,213,81269,1,2
290,152,81557,1,2
320,213,81844,1,2
359,152,82132,1,2
359,152,82276,2,0,B|358:27,1,120
288,32,82996,5,4
224,32,83283,1,4
224,32,83427,1,4
224,96,83715,1,4
288,96,84003,1,4
288,160,84291,1,4
256,224,84578,1,4
224,160,84866,1,4
160,224,85298,5,2
192,288,85585,1,2
256,320,85873,1,2
320,288,86161,1,2
352,224,86449,1,2
352,159,86737,2,4,B|367:91|305:25|305:25|172:157,1,320
96,96,90478,5,2
96,160,90765,1,2
96,224,91053,1,2
192,288,91629,1,2
256,288,91916,1,2
320,288,92204,1,2
416,224,92780,1,2
416,160,93068,1,2
416,96,93355,1,2
320,32,93931,1,4
256,32,94219,1,4
192,32,94506,1,4
256,192,94794,12,0,99398
192,96,108895,5,0
256,96,109183,1,0
320,96,109470,1,0
320,224,110046,1,0
256,224,110334,1,0
192,224,110621,1,0
224,352,111197,5,2
224,288,111485,1,2
288,288,111773,1,2
288,352,112060,1,2
352,352,112348,1,2
352,352,112492,1,2
416,352,112780,1,2
480,351,113068,2,0,B|480:142,1,200
480,86,114075,5,6
480,86,114219,1,4
479,22,114506,1,4
423,54,114794,1,4
423,118,115082,1,4
366,88,115370,2,4,B|297:87|242:109|217:146|273:199|318:219|314:280|229:308|162:282,1,360
192,128,118103,5,2
256,128,118391,1,2
320,128,118679,1,2
320,256,119255,1,2
256,256,119542,1,2
256,256,119686,1,2
192,256,119974,1,4
192,352,120406,5,0
128,352,120693,1,0
64,352,120981,1,0
64,288,121269,1,0
128,288,121557,1,0
128,288,121701,1,0
128,224,121988,1,0
128,159,122276,2,0,B|235:126|345:161,1,200
384,160,123283,5,0
448,192,123571,1,0
448,192,123715,1,0
384,224,124003,1,0
448,256,124291,1,0
384,288,124578,2,0,B|357:344|280:349|230:248,1,200
192,192,125585,1,2
160,128,125873,1,2
160,128,126017,1,2
128,192,126305,1,2
96,128,126593,1,2
64,192,126880,2,4,B|0:256|32:320|128:320,1,200
192,320,127888,5,2
224,256,128175,1,2
224,256,128319,1,2
256,320,128607,1,2
288,256,128895,1,2
320,320,129183,2,4,B|416:320|416:224|320:192,1,200
266,193,130190,1,2
232,138,130478,1,2
232,138,130621,1,0
204,195,130909,1,2
171,139,131197,1,2
141,195,131485,2,4,B|58:202|48:113|68:71|136:76,1,200
186,70,132492,5,2
256,64,132780,1,2
256,64,132924,1,2
256,128,133211,1,2
320,96,133499,1,2
320,160,133787,2,4,B|416:160|448:256|320:256,1,200
269,259,134794,1,2
237,204,135082,1,2
237,204,135226,1,2
206,260,135514,1,2
173,205,135801,1,2
144,262,136089,1,4
