osu file format v7

[General]
AudioFilename: India Travel Survival Kit.mp3
AudioLeadIn: 0
PreviewTime: 14871
Countdown: 1
SampleSet: Soft
StackLeniency: 0.7
Mode: 1
LetterboxInBreaks: 1
EpilepsyWarning: 1

[Editor]
Bookmarks: 3310,14871
DistanceSpacing: 1.10000002384186
BeatDivisor: 2
GridSize: 16

[Metadata]
Title:India: A Travel Survival Kit
Artist:Jar
Creator:JarJarJacob
Version:Taiko
Source:
Tags:

[Difficulty]
HPDrainRate:10
CircleSize:7
OverallDifficulty:10
SliderMultiplier:1.4
SliderTickRate:4

[Events]
//Background and Video events
0,0,"indian_flag.JPG"
//Break Periods
//Storyboard Layer 0 (Background)
//Storyboard Layer 1 (Fail)
//Storyboard Layer 2 (Pass)
//Storyboard Layer 3 (Foreground)
//Storyboard Sound Samples
//Background Colour Transformations
3,100,163,162,255

[TimingPoints]
-35,413.793103448276,4,2,0,100,1,0
14654,-100,4,2,0,100,0,0
14861,206.896551724138,4,1,0,100,1,1
28076,-100,4,1,0,100,0,0
28102,-100,4,1,0,100,0,1

[HitObjects]
256,192,3275,1,2
256,192,3689,1,2
256,192,4102,1,2
256,192,4516,1,2
256,192,4930,1,2
256,192,5344,1,2
256,192,5758,1,2
256,192,6171,1,0
256,192,6585,1,4
256,192,6999,1,2
256,192,7413,1,0
256,192,7827,1,2
256,192,8240,1,4
256,192,8654,1,2
256,192,9068,1,0
256,192,9482,1,2
256,192,9896,1,4
256,192,10309,1,2
256,192,10723,1,0
256,192,11137,1,2
256,192,11551,1,4
256,192,11965,1,2
256,192,12378,1,0
256,192,12792,1,2
256,192,13206,1,0
256,192,13413,1,0
256,192,13620,1,0
256,192,13827,1,0
256,192,14033,1,0
256,192,14240,1,0
256,192,14447,1,2
256,192,14861,1,4
256,192,15067,1,0
256,192,15274,1,0
256,192,15481,1,0
256,192,15688,1,0
256,192,15895,1,0
256,192,16102,1,0
256,192,16309,1,0
256,192,16412,1,0
256,192,16516,1,4
256,192,16723,1,0
256,192,16929,1,0
256,192,17136,1,0
256,192,17343,1,0
256,192,17550,1,0
256,192,17757,1,0
256,192,17964,1,0
256,192,18067,1,0
256,192,18171,1,4
256,192,18378,1,0
256,192,18481,1,0
256,192,18688,1,0
256,192,18895,1,0
256,192,18998,1,0
256,192,19205,1,0
256,192,19309,1,0
256,192,19516,1,0
256,192,19619,1,0
256,192,19826,1,4
256,192,20033,1,0
256,192,20240,1,0
256,192,20447,1,0
256,192,20654,1,0
256,192,20861,1,0
256,192,21067,1,0
256,192,21274,1,0
256,192,21378,1,0
256,192,21481,1,4
256,192,21688,1,0
256,192,21895,1,0
256,192,22102,1,0
256,192,22309,1,0
256,192,22516,1,0
256,192,22723,1,0
256,192,22929,1,0
256,192,23033,1,0
256,192,23136,1,4
256,192,23343,1,0
256,192,23550,1,0
256,192,23757,1,0
256,192,23964,1,0
256,192,24171,1,0
256,192,24378,1,0
256,192,24585,1,0
256,192,24688,1,0
256,192,24792,1,4
256,192,24998,1,0
256,192,25205,1,0
256,192,25412,1,0
256,192,25619,1,0
256,192,25826,1,0
256,192,26033,1,0
256,192,26240,1,0
256,192,26343,1,0
256,192,26447,1,2
256,192,26550,1,0
256,192,26654,1,2
256,192,26757,1,0
256,192,26861,1,2
256,192,26964,1,0
256,192,27067,1,2
256,192,27171,1,0
256,192,27274,2,0,B|16:192,1,210
272,208,27688,1,2
256,192,27792,1,0
256,192,27895,1,2
256,192,27998,1,0
256,192,28102,12,4,29757
